#VERSION:0.81;
#TITLE:Discord (The Living Tombstone's Mix);
#SUBTITLE:;
#ARTIST:Eurobeat Brony;
#TITLETRANSLIT:;
#SUBTITLETRANSLIT:;
#ARTISTTRANSLIT:;
#GENRE:Hiphop;
#ORIGIN:;
#CREDIT:;
#BANNER:Discord (The Living Tombstone's Mix).png;
#BACKGROUND:Discord (The Living Tombstone's Mix)-bg.png;
#PREVIEWVID:;
#JACKET:Discord (The Living Tombstone's Mix)-jacket.png;
#CDIMAGE:;
#DISCIMAGE:;
#LYRICSPATH:;
#CDTITLE:;
#MUSIC:Discord (The Living Tombstone's Mix).mp3;
#OFFSET:-0.080;
#SAMPLESTART:27.493;
#SAMPLELENGTH:15.000;
#SELECTABLE:YES;
#BPMS:0.000=105.000;
#STOPS:;
#DELAYS:;
#WARPS:;
#TIMESIGNATURES:0.000=4=4;
#TICKCOUNTS:0.000=4;
#COMBOS:0.000=1;
#SPEEDS:0.000=1.000=0.000=0;
#SCROLLS:0.000=1.000;
#FAKES:;
#LABELS:0.000=Song Start;
#BGCHANGES:-0.700=Discord (The Living Tombstone's Mix).avi=1.000=1=0=0=StretchNoLoop==CrossFade==,
99999=-nosongbg-=1.000=0=0=0 // don't automatically add -songbackground-
;
#KEYSOUNDS:;
#ATTACKS:
;

//---------------dance-single - ----------------
#NOTEDATA:;
#CHARTNAME:;
#STEPSTYPE:dance-single;
#DESCRIPTION:;
#CHARTSTYLE:;
#DIFFICULTY:Beginner;
#METER:1;
#RADARVALUES:0.083,0.085,0.010,0.000,0.000,58.000,1.000,0.000,0.000,0.000,0.000,0.000,0.000,0.083,0.085,0.010,0.000,0.000,58.000,1.000,0.000,0.000,0.000,0.000,0.000,0.000;
#CREDIT:;
#NOTES:
0000
0000
0000
0000
,
0000
0000
0000
0000
,
0000
0000
0000
0000
,
0000
0000
0000
0000
,
1000
0000
1000
0000
,
0001
0000
0001
0000
,
0100
0000
0100
0000
,
0010
0000
0010
0000
,
1000
0000
0000
0000
,
0001
0000
0000
0000
,
0010
0000
0010
0000
,
0100
0000
0000
0000
,
1000
1000
0000
0000
,
0010
0000
0000
0000
,
0100
0100
0000
0000
,
0001
0000
0000
0000
,
0001
0001
0000
0000
,
0010
0000
0000
0000
,
0100
0100
0000
0000
,
1000
0000
0000
0000
,
0010
0000
0000
0000
,
1000
0000
0100
0000
,
0010
0000
0000
0000
,
0001
0000
1000
0000
,
0010
0000
0000
0000
,
1000
0000
0100
0000
,
1000
0000
0000
0000
,
0010
0000
0000
0000
,
1001
0000
0000
0000
,
0100
0000
0000
0000
,
1000
0000
1000
0000
,
0010
0000
0010
0000
,
0100
0000
0000
0000
,
0001
0000
0000
0000
,
1000
0000
0000
0000
,
0010
0000
0000
0000
,
1000
1000
0000
0000
,
0010
0000
0000
0000
,
0100
0100
0000
0000
,
0001
0000
0000
0000
,
0010
0010
0000
0000
,
0100
0000
0000
0000
,
1000
1000
0000
0000
,
0001
0000
0000
0000
;

//---------------dance-single - ----------------
#NOTEDATA:;
#CHARTNAME:;
#STEPSTYPE:dance-single;
#DESCRIPTION:;
#CHARTSTYLE:;
#DIFFICULTY:Medium;
#METER:5;
#RADARVALUES:0.294,0.282,0.089,0.148,0.000,185.000,9.000,15.000,0.000,0.000,0.000,0.000,0.000,0.294,0.282,0.089,0.148,0.000,185.000,9.000,15.000,0.000,0.000,0.000,0.000,0.000;
#CREDIT:;
#NOTES:
0000
0000
0000
0000
,
0000
0000
0000
0000
,
0000
0000
0000
0000
,
0010
0010
1000
1000
,
1001
0000
0100
0000
1000
0100
0010
0000
,
0001
0100
0010
0100
,
0001
0000
0100
0000
0010
1000
0100
0000
,
1000
0001
1000
0100
,
1000
0100
1000
0010
2000
0000
3200
0000
,
0310
0000
0001
0100
0002
0000
0003
0000
,
0100
0010
1000
0001
,
2002
0003
0100
3100
,
0010
0010
0000
0000
1000
0100
1000
0000
,
0010
0100
0010
0000
0100
0001
0100
0000
,
1000
1000
0000
0000
0100
0010
0100
0000
,
0010
0002
0200
0303
,
0001
0001
0000
0000
0100
0010
0100
0000
,
1000
0010
1000
0000
0001
0100
0001
0000
,
1000
1000
0000
0000
0100
1000
0100
0000
,
2000
0100
0002
3003
,
0100
0000
0010
0000
1000
0100
1000
0000
,
0010
0000
1000
0000
0001
0100
0001
0000
,
1000
0000
0001
0000
0010
0100
0010
0000
,
0001
0000
1000
0000
0001
0100
0001
0000
,
1000
1100
0010
0110
,
1000
1100
0001
0101
,
0010
0110
0001
0101
,
1000
0000
0100
0000
,
1000
0100
0001
0100
,
1000
0010
0100
0001
,
0010
0001
0100
0000
0010
1000
0100
0000
,
1000
0001
0100
0010
,
2000
0000
3100
0000
1000
1000
0100
0000
,
0020
0000
0130
0000
0010
0010
0100
0000
,
0020
0000
0031
0000
0010
0010
0001
0000
,
0200
0000
0010
0310
,
0001
0001
0000
0000
0100
0010
1000
0000
,
0100
0010
0001
0000
1000
0001
0100
0000
,
0001
0001
0000
0000
0010
0100
1000
0000
,
1000
0020
0200
0330
,
1000
1000
0000
0000
0010
1000
0001
0000
,
0100
0001
0010
0000
0100
0010
0001
0000
,
0010
0010
0000
0000
0001
0010
0100
0000
,
1001
0000
0000
0000
0000
0000
0000
0010
,
0100
0000
0000
0000
;

//---------------dance-single - ----------------
#NOTEDATA:;
#CHARTNAME:;
#STEPSTYPE:dance-single;
#DESCRIPTION:;
#CHARTSTYLE:;
#DIFFICULTY:Hard;
#METER:11;
#RADARVALUES:0.473,0.434,0.207,0.207,0.173,294.000,21.000,21.000,0.000,0.000,0.000,0.000,0.000,0.473,0.434,0.207,0.207,0.173,294.000,21.000,21.000,0.000,0.000,0.000,0.000,0.000;
#CREDIT:;
#NOTES:
0000
0000
0000
0000
,
0000
0000
0000
0000
,
0000
0000
0000
0000
,
0010
0000
0010
0000
1000
0000
1000
1010
,
0100
0001
1000
0100
1000
0010
0100
0000
,
0010
0100
0001
0100
0010
1000
0100
0010
,
0001
0000
0100
0010
0100
0001
1000
0000
,
0100
1000
0001
1000
0010
0100
0001
0010
,
0001
0000
1000
0100
0002
0000
2003
0000
,
3010
1000
0100
1000
0002
0000
0003
0000
,
0100
0010
0100
0001
0100
0010
1000
0100
,
0020
0000
0100
0000
0130
0010
0001
1000
,
1010
0000
1002
0000
0000
0000
0000
0000
0103
0010
0100
0010
0100
0000
0000
0000
,
0001
0000
0100
0000
0010
0000
1000
0000
0100
1000
0100
1000
0100
0000
0000
0000
,
1100
0000
1020
0000
0000
0000
0000
0000
0130
0010
0100
0010
0100
0000
0000
0000
,
0001
0100
0010
2000
0002
0000
3003
0000
,
0110
0000
2001
0000
0000
0000
0000
0000
3100
1000
0100
1000
0100
0000
0000
0000
,
0010
0000
0001
0000
1000
0000
0010
0000
0100
0001
0100
0001
0100
0000
0000
0000
,
0101
0000
0011
0000
0000
0000
0000
0000
0100
0010
0100
0010
0100
0000
0000
0000
,
0010
0001
1000
0200
2000
0000
3300
1001
,
0100
0000
0010
0000
1000
0000
0001
0000
0010
0000
0100
1000
0000
0000
0010
0000
,
1000
0000
0001
0000
0100
0000
0010
0000
0100
0000
0001
0010
0000
0000
0100
0000
,
0010
0000
0001
0000
1000
0000
0010
0000
0100
0000
0010
1000
0000
0000
0100
0000
,
1000
0000
0001
0000
0010
0000
0100
0000
1000
0000
0010
0100
0000
0000
0001
0000
,
0100
0000
0010
0000
1000
0000
0100
0000
1000
0000
0010
0100
0000
0000
0010
0000
,
1000
0100
1000
0000
0010
0000
1000
0000
0001
0100
0001
0000
1000
0000
0010
0000
,
0100
0000
0001
0000
1000
0000
0010
0000
1000
0000
0001
0010
0000
0000
0100
0000
,
1000
0010
0200
0000
0002
0000
0303
0000
,
0010
1000
0100
1000
0001
0010
0100
0010
,
0001
1000
0010
1000
0100
0010
0001
0100
,
0010
1000
0100
1000
0001
0010
1000
0010
,
0001
1000
0100
1000
0010
0100
0001
0000
,
0100
0010
1001
0000
0100
1000
0010
0000
,
0100
0001
1010
0000
0100
0001
0010
0000
,
1000
0010
0001
1000
0100
1000
0010
0100
,
0002
0000
0000
0000
1000
0000
0000
0000
0100
0003
0010
0000
1000
0000
0010
0000
,
0110
0000
1020
0000
0000
0000
0000
0000
1030
0010
0100
0010
1000
0000
0000
0000
,
0001
0000
1000
0000
0100
0000
0010
0000
0001
0010
0100
0010
0001
0000
0000
0000
,
1100
0000
0201
0000
0000
0000
0000
0000
0310
1000
0010
0100
0010
0000
0000
0000
,
1000
0100
0010
0002
2000
0000
3003
0000
,
1010
0000
0120
0000
0000
0000
0000
0000
1030
0100
0010
0100
1000
0000
0000
0000
,
0010
0000
1000
0000
0001
0000
0010
0000
0100
0010
0100
0010
0001
0000
0000
0000
,
0011
0000
2001
0000
0000
0000
0000
0000
3010
1000
0001
1000
0010
0000
0000
0000
,
0100
0000
0010
1000
0000
1000
0100
0010
0002
0000
0000
0000
0003
0000
0110
0000
,
1000
0000
0000
0000
;

//---------------dance-single - ----------------
#NOTEDATA:;
#CHARTNAME:;
#STEPSTYPE:dance-single;
#DESCRIPTION:;
#CHARTSTYLE:;
#DIFFICULTY:Easy;
#METER:3;
#RADARVALUES:0.176,0.195,0.049,0.039,0.000,116.000,5.000,4.000,0.000,0.000,0.000,0.000,0.000,0.176,0.195,0.049,0.039,0.000,116.000,5.000,4.000,0.000,0.000,0.000,0.000,0.000;
#CREDIT:;
#NOTES:
0000
0000
0000
0000
,
0000
0000
0000
0000
,
0000
0000
0000
0000
,
0000
0000
0000
0000
,
1000
0100
1000
0010
,
0100
0010
1000
0000
,
0010
1000
0100
1000
,
0001
0010
0001
0000
,
0100
0010
0100
0001
,
1000
0100
0010
0000
,
0001
1000
0010
0100
,
2002
0000
0000
3003
,
0100
0100
0000
0000
1000
0000
0100
0000
,
1000
0000
0010
0000
,
1000
1000
0000
0000
0010
0000
1000
0000
,
0010
0000
0100
0000
,
0001
0001
0000
0000
0010
0000
0001
0000
,
0010
0000
0100
0000
,
1000
1000
0000
0000
0010
0000
0100
0000
,
0010
0000
1000
0000
,
1001
0100
0000
1000
,
0000
0010
0000
1000
,
0000
0001
0000
0010
,
0000
0001
0000
0100
,
0110
1000
0000
0010
,
0000
1000
0000
0001
,
0000
0010
0000
0001
,
0001
0000
0000
0000
,
0110
0100
0010
0010
,
1000
1000
0100
0100
,
1000
1000
0001
0001
,
0010
0010
0001
0001
,
0100
0000
0001
0000
,
1000
0000
0100
0000
,
1000
0100
0010
0001
,
2002
0000
0000
3003
,
0010
0010
0000
0000
1000
0000
0100
0000
,
1000
0000
0001
0000
,
0100
0100
0000
0000
0001
0000
0010
0000
,
0001
0000
1000
0000
,
0010
0010
0000
0000
1000
0000
0010
0000
,
1000
0000
0010
0000
,
0100
0100
0000
0000
0001
0000
1000
0000
,
0001
0000
0000
0000
,
0100
0000
0000
0000
;

//---------------dance-single - Blank----------------
#NOTEDATA:;
#CHARTNAME:;
#STEPSTYPE:dance-single;
#DESCRIPTION:Blank;
#CHARTSTYLE:;
#DIFFICULTY:Challenge;
#METER:14;
#RADARVALUES:0.686,0.564,0.424,0.217,0.759,422.000,43.000,22.000,0.000,0.000,0.000,0.000,0.000,0.686,0.564,0.424,0.217,0.759,422.000,43.000,22.000,0.000,0.000,0.000,0.000,0.000;
#CREDIT:RIME;
#NOTES:
// measure 0
1000
1000
0000
0000
0001
0001
1000
0100
,  // measure 1
0010
0010
0000
0000
0100
0100
1000
0010
,  // measure 2
0100
0100
0000
0000
0001
0001
1000
1000
,  // measure 3
1010
0000
0011
0000
1010
0000
0011
0110
,  // measure 4
0100
0000
1000
0000
0010
1000
0010
0100
0010
1000
0000
0100
0000
0100
0010
0100
,  // measure 5
1000
0001
0000
0001
0000
0100
0001
0100
0000
0010
1000
0010
1000
0100
0010
0001
,  // measure 6
0000
0000
1000
1000
0010
1000
0100
0010
0001
0100
0000
0100
0000
0010
1000
0100
,  // measure 7
0001
0100
0000
0100
0000
0010
0100
0010
0000
0001
0010
0100
1000
0010
0100
0001
,  // measure 8
0000
1001
1000
1100
0220
0330
0110
0100
,  // measure 9
1000
1100
0010
0011
0110
0000
0110
0100
,  // measure 10
0001
0000
0010
0100
0000
0000
0000
0100
1000
0000
1000
0010
0000
0010
0000
0210
,  // measure 11
0000
0000
0001
0000
1000
0000
0301
0101
,  // measure 12
0100
0000
0220
0000
0330
0000
0010
0000
1000
0010
0100
0001
1000
0000
0000
0100
,  // measure 13
1000
0001
0010
0100
1000
0001
0100
0010
1000
0001
0010
0100
1000
0000
0000
0000
,  // measure 14
0001
0000
2002
0000
3003
0000
1000
0000
0010
0100
0001
1000
0100
0000
0000
0010
,  // measure 15
0001
0000
1000
0001
0000
1000
0001
0010
0100
0000
0010
0000
0100
0000
0110
0000
,  // measure 16
1001
0000
2002
0000
3003
0000
0001
0000
1000
0010
0100
1000
0100
0000
0000
0010
,  // measure 17
1000
0001
0100
0010
1000
0001
0100
0001
0010
0100
1000
0010
0100
0000
0000
0000
,  // measure 18
0010
0000
0220
0000
0330
0000
0100
0010
1000
0100
0010
0001
0100
0000
0000
0001
,  // measure 19
0010
0000
0010
0100
0000
0100
1000
0010
0100
0000
0000
0000
0010
0000
0110
0000
,  // measure 20
0100
0000
0001
0000
0010
0000
0001
0000
1000
0010
1000
0000
0001
0010
0001
0000
,  // measure 21
1000
0100
1000
0000
0001
0100
0001
0000
1000
0001
1000
0000
0001
1000
0001
0000
,  // measure 22
1000
0010
1000
0000
0010
0100
0010
0000
0100
0001
0100
0000
0001
0010
0001
0000
,  // measure 23
0010
0100
0010
0000
0100
1000
0100
0000
1000
0001
1000
0000
0001
1000
0001
0000
,  // measure 24
1001
0000
1000
0000
0100
0000
0010
0000
0001
0010
0001
0000
1000
0010
1000
0000
,  // measure 25
0001
0100
0001
0000
1000
0100
1000
0000
0001
1000
0001
0000
1000
0001
1000
0000
,  // measure 26
0010
1000
0010
0000
1000
0100
1000
0000
0100
0001
0100
0000
0001
0010
0001
0000
,  // measure 27
0110
0000
0000
0000
2002
0000
3003
0010
,  // measure 28
1001
0000
1000
0000
0100
1000
0010
0100
0001
0100
0000
0001
0000
0010
0100
0010
,  // measure 29
0100
1000
0000
1000
0000
0001
1000
0001
0000
1000
0100
1000
0001
0100
0000
0110
,  // measure 30
0000
0000
0010
1000
0100
0010
0100
1000
0010
0100
0000
0100
0000
0100
0010
1000
,  // measure 31
0100
0010
0000
0010
0000
0001
0100
0010
0000
0010
1000
0001
0010
0100
0000
1100
,  // measure 32
0000
1000
0011
0000
0001
0001
1100
0000
,  // measure 33
1000
1000
0101
0000
0001
0001
1010
1000
,  // measure 34
0100
0000
0010
0001
0000
0000
0000
0001
0010
0000
0100
1000
0000
0010
0000
0210
,  // measure 35
0000
0000
0001
0000
1000
1000
0301
0101
,  // measure 36
0110
0000
0220
0000
0330
0000
0010
0000
1000
0100
0010
0001
1000
0000
0000
0010
,  // measure 37
1000
0001
0100
0010
1000
0001
0100
0001
0010
0100
1000
0010
0100
0000
0000
0000
,  // measure 38
0010
0000
0220
0000
0330
0000
0100
0000
0010
1000
0001
0010
0100
0000
0000
0010
,  // measure 39
0100
0000
0100
1000
0000
1000
0001
0100
0002
0000
1003
0000
0101
0000
0101
0000
,  // measure 40
0011
0000
0020
0000
0000
0000
0130
0000
0010
0100
1000
0100
0001
0000
0000
0001
,  // measure 41
0100
1000
0100
0001
0100
0010
0100
1000
0010
0100
0001
0100
0010
0000
0000
0000
,  // measure 42
0100
0000
0220
0000
0330
0000
0010
1000
0001
0010
0100
1000
0001
0000
0000
1000
,  // measure 43
0001
0000
0001
0100
0000
0100
0010
1000
0100
0000
0010
0000
0010
0000
0110
0000
,  // measure 44
1001
0000
0000
0000
;
