#TITLE:Discord (Euro-Chaos Mix);
#SUBTITLE:;
#ARTIST:Eurobeat Brony;
#TITLETRANSLIT:;
#SUBTITLETRANSLIT:;
#ARTISTTRANSLIT:;
#GENRE:Eurobeat;
#CREDIT:;
#BANNER:Discord (Euro-Chaos Mix).png;
#BACKGROUND:Discord (Euro-Chaos Mix)-bg.png;
#LYRICSPATH:;
#CDTITLE:;
#MUSIC:Discord (Euro-Chaos Mix).mp3;
#OFFSET:-0.060;
#SAMPLESTART:48.630;
#SAMPLELENGTH:15.000;
#SELECTABLE:YES;
#BPMS:0.000=158.000
;
#STOPS:
;
#BGCHANGES:;
#KEYSOUNDS:;
#ATTACKS:;

//---------------dance-single - ----------------
#NOTES:
     dance-single:
     :
     Hard:
     13:
     0.656,0.635,0.346,0.464,0.211,350.000,32.000,43.000,0.000,0.000,0.000,0.656,0.635,0.346,0.464,0.211,350.000,32.000,43.000,0.000,0.000,0.000:
0000
0000
0000
0000
,
0000
0000
0000
0000
,
0000
0000
0000
0000
,
0000
0000
0000
0000
,
1000
0100
0000
0001
0100
1000
1001
0000
,
0001
0100
0000
1000
0100
0001
1001
0000
,
1000
0010
0000
0001
0010
1000
1001
0000
,
2000
3020
0230
0301
,
1000
0000
0001
0000
0100
0010
0100
0010
0100
0000
0002
0000
0003
0000
1001
0000
,
0000
0000
1000
0000
0010
0100
0010
0100
0001
0000
2000
0000
3000
0000
0001
0100
,
0001
0000
0010
0000
0100
1000
0100
1000
0100
0000
0010
0000
0001
0000
2000
0000
,
3000
0000
0010
0000
0100
0001
0100
0001
1000
0000
0010
0000
0200
0000
0300
0000
,
0001
0000
1000
0000
0100
0010
0100
0010
0001
0000
2000
0000
3000
0000
1010
0000
,
0000
0000
0010
0000
0100
0001
0100
0001
0010
0000
0200
0000
0300
0000
1000
0001
,
1000
0000
0001
0000
1000
0010
1000
0010
0100
0000
0001
0000
1000
0000
0020
0000
,
0030
1000
0100
0010
0001
1000
1001
0000
,
1000
0000
0101
0000
0001
0100
1000
0100
,
0001
1000
0000
1001
0000
0001
0010
1000
,
0010
0001
0000
1001
0000
1000
0100
0010
,
0000
0100
1000
0010
1000
0100
0001
0010
,
1000
0000
0001
0100
0010
0100
0001
0010
,
0100
1000
0000
1001
0000
0001
0100
0010
,
1000
0001
0000
1001
0000
0001
0010
0100
,
0000
1000
0100
0010
0001
0100
1000
0010
,
0001
0011
0101
0110
,
2010
3001
1001
0101
,
0002
0203
2300
3020
,
0032
0100
0000
1000
0000
0010
0013
0000
,
2100
0000
0001
0001
0000
3010
0000
1000
,
0001
0000
0100
0020
0000
0130
0000
0010
,
1000
0000
0000
1000
0100
0000
0000
0100
0010
0000
0000
0010
0001
0000
0000
0001
,
1000
0000
0000
0000
0101
0000
0000
0001
0010
0000
0100
0000
1000
0001
1000
0001
,
0100
0102
1003
1001
,
1000
0100
0001
0100
2000
0000
3001
1000
,
0010
1000
0100
1000
0010
0100
0001
0100
,
0010
1000
0001
0100
0002
0000
0013
0000
,
0110
2100
3001
1001
,
0001
0010
1000
0010
0002
0000
1003
0001
,
0100
0000
0010
0100
0000
0001
0010
0100
,
2000
3200
0320
0031
,
0011
2100
3001
1001
,
1000
0100
0001
0010
2000
0000
3001
1000
,
0100
0010
0001
0010
0100
1000
0010
1000
,
0100
0010
0001
0100
0020
0000
0130
0000
,
0110
0000
2010
0000
3001
0000
1000
0100
,
0001
0100
1000
0010
0002
0000
0013
1000
,
0100
0000
0010
0001
0000
0100
0010
1000
,
0002
0203
0320
1030
,
0001
0000
1000
0000
0010
0100
0010
0100
0010
0000
2000
0000
3000
0000
1001
0000
,
0000
0000
0001
0000
0100
0010
0100
0010
1000
0000
0002
0000
0003
0000
1000
0010
,
1000
0000
0100
0000
0010
0001
0010
0001
0010
0000
0100
0000
1000
0000
0002
0000
,
0003
0000
0100
0000
0010
1000
0010
1000
0001
0000
0100
0000
0020
0000
0030
0000
,
1000
0000
0001
0000
0010
0100
0010
0100
1000
0000
0002
0000
0003
0000
0101
0000
,
0000
0000
0100
0000
0010
1000
0010
1000
0100
0000
0020
0000
0030
0000
0001
1000
,
0001
0000
1000
0000
0001
0100
0001
0100
0010
0000
1000
0000
0001
0000
0200
0000
,
0300
0001
0010
0100
1000
0001
2002
0000
,
3003
0000
0000
0000
;

//---------------dance-single - ----------------
#NOTES:
     dance-single:
     :
     Challenge:
     14:
     0.751,0.726,0.605,0.130,0.351,419.000,56.000,12.000,0.000,0.000,0.000,0.751,0.726,0.605,0.130,0.351,419.000,56.000,12.000,0.000,0.000,0.000:
1000
0010
0100
0010
1000
0100
0010
0100
,
1000
0001
0100
0010
1000
0001
0100
0010
,
1000
0100
0010
0100
1000
0010
0100
0010
,
0100
0010
1000
0001
0100
0010
1000
0001
,
0100
0001
0010
0100
0010
0001
0100
0010
,
1000
0100
0010
0001
1000
0100
0010
0001
,
0100
0000
0100
0000
0010
0000
0010
0000
1000
0100
1000
0100
0010
0100
1000
0001
,
0100
0000
0000
0000
0000
0000
0001
1000
0100
0010
0100
0010
0100
1000
0001
0000
,
0101
0000
0000
0000
0001
0010
0100
1000
0010
0000
1000
0000
0000
0000
1010
0000
,
0000
0000
1000
0100
1000
0010
0100
0001
0010
0000
0001
0000
0000
0000
1000
0000
,
0001
0000
0010
0001
0010
0001
0010
0000
0001
0000
0100
0000
0001
0000
1001
0000
,
0000
0000
1000
0010
0100
0001
1000
0000
1100
0000
0000
0000
0011
0000
0000
0000
,
1001
0000
0000
0000
0010
1000
0100
0001
1000
0000
0010
0000
0000
0000
0001
0000
,
0000
0000
1000
0100
0001
1000
0010
0001
0100
0000
0010
0000
0000
0000
0110
0000
,
0010
0000
1000
0100
1000
0100
1000
0000
0010
0000
0100
0000
0001
0000
0101
0000
,
0000
0001
0001
1000
1100
0100
0110
0000
,
0101
0000
0110
0000
0100
1000
0010
0100
,
0001
0010
0000
0011
0000
0010
0010
0100
,
1000
0001
0000
0101
0000
0001
1000
1100
,
0000
0100
0001
0100
0010
0001
0200
1300
,
0000
0000
0101
0001
1000
0010
0001
0010
,
0100
0001
0000
1100
0000
1000
0001
0100
,
1000
0001
0000
0011
0000
0010
0100
0001
,
1000
0100
1000
0000
0010
0000
1000
0000
1001
0000
0000
1000
0000
0000
0001
0000
,
0101
1010
0011
0101
,
2200
3300
0110
0110
,
0011
0000
1001
0000
0110
0000
1010
1100
,
0000
0101
0000
1100
0000
1000
0100
0010
,
1001
0000
0001
0101
0000
0000
0000
1000
,
1100
0000
0000
0000
0010
0000
0011
0000
0000
0000
1001
0000
0000
0000
1000
0100
,
1000
0000
0010
1000
0010
0000
1000
0100
0001
0000
0001
0100
0010
0000
0001
0010
,
0200
0000
0000
0000
0000
0000
0000
0000
1300
0000
0110
0000
0001
0010
0100
1000
,
0001
0021
0100
1030
,
1000
0001
0100
0010
0001
0100
0100
0010
,
0010
1000
0100
0001
0100
1000
0010
0100
,
0001
0000
0010
0000
0100
0000
1000
0000
1001
0000
1000
0000
0001
1000
0100
0001
,
1000
1020
0100
0031
,
0001
1000
0010
0100
0001
0000
0000
1000
,
1100
0000
0010
1010
0000
0001
0100
0010
,
0002
0000
0000
0000
1000
0000
0000
0000
0010
0000
0000
0000
0103
0001
0010
0100
,
1000
0021
1000
0130
,
0010
0001
0100
1000
0001
0000
0000
0010
,
1000
1000
0100
0001
0100
0010
0001
1000
,
0010
0000
0100
0000
0001
0000
0010
0000
1000
0000
0010
0000
0100
1000
0100
1000
,
0001
0000
1020
0000
0001
0000
0130
0100
,
0001
0100
1000
0001
0010
0000
0110
0100
,
0001
0000
1000
0001
0000
0010
0001
1000
,
0200
0000
0000
0000
0010
0000
0000
0000
0310
0000
0100
0000
1000
0001
0010
0100
,
1000
0000
0000
0000
0001
1000
0100
0001
1000
0000
0010
0000
0000
0000
0110
0000
,
0000
0000
0001
0010
1000
0001
0100
1000
0001
0000
0100
0000
0000
0000
0001
0010
,
0100
0000
1000
0010
0100
0001
1000
0100
0010
0000
0001
0000
0010
0000
0110
0000
,
0000
0000
1000
0010
1000
0100
0010
0001
0011
0000
0010
0000
0110
0000
0000
0000
,
1100
0000
0000
0000
1000
0001
0010
0100
1000
0010
1000
0000
0010
1000
0010
0000
,
1000
0100
0001
1000
0010
0001
1000
0100
0001
0000
0100
0000
0000
0000
0010
0100
,
1000
0000
0001
1000
0100
0010
0100
0001
0100
0000
0010
0000
0001
0000
0101
0000
,
0000
0001
0001
1001
1100
0100
0220
0000
,
0330
0000
0000
0000
;

//---------------dance-single - ----------------
#NOTES:
     dance-single:
     :
     Beginner:
     2:
     0.106,0.120,0.011,0.000,0.000,68.000,1.000,0.000,0.000,0.000,0.000,0.106,0.120,0.011,0.000,0.000,68.000,1.000,0.000,0.000,0.000,0.000: // measure 0
0000
0000
0000
0000
,  // measure 1
0000
0000
0000
0000
,  // measure 2
0000
0000
0000
0000
,  // measure 3
0000
0000
0000
0000
,  // measure 4
1000
0000
0000
0000
,  // measure 5
0001
0000
0000
0000
,  // measure 6
0100
0000
0000
0000
,  // measure 7
0000
0000
0000
0000
,  // measure 8
0010
0000
0000
0000
,  // measure 9
1000
0000
0000
0000
,  // measure 10
0001
0000
0000
0000
,  // measure 11
0100
0000
0100
0000
,  // measure 12
0100
0000
0000
0000
,  // measure 13
0001
0000
0000
0000
,  // measure 14
0010
0000
0000
0000
,  // measure 15
0100
0000
0100
0000
,  // measure 16
0100
0000
0000
0000
,  // measure 17
1000
0000
0000
0000
,  // measure 18
0001
0000
0000
0000
,  // measure 19
0010
0000
0010
0000
,  // measure 20
0010
0000
0000
0000
,  // measure 21
0001
0000
0000
0000
,  // measure 22
0100
0000
0000
0000
,  // measure 23
0010
0000
0010
0000
,  // measure 24
0010
0000
0000
0000
,  // measure 25
1000
0000
0000
0000
,  // measure 26
0001
0000
0001
0000
,  // measure 27
0001
0000
0000
0000
,  // measure 28
0100
0000
0000
0000
,  // measure 29
0010
0000
0010
0000
,  // measure 30
0010
0000
0000
0000
,  // measure 31
1001
0000
0000
0000
,  // measure 32
1000
1000
0000
0000
,  // measure 33
0001
0000
0000
0000
,  // measure 34
0010
0000
0000
0000
,  // measure 35
0100
0000
0100
0000
,  // measure 36
0100
0100
0000
0000
,  // measure 37
1000
0000
0000
0000
,  // measure 38
0010
0000
0010
0000
,  // measure 39
0010
0000
0000
0000
,  // measure 40
0100
0100
0000
0000
,  // measure 41
0001
0000
0000
0000
,  // measure 42
1000
0000
0000
0000
,  // measure 43
0010
0000
0010
0000
,  // measure 44
0010
0010
0000
0000
,  // measure 45
0100
0000
0000
0000
,  // measure 46
0001
0000
0001
0000
,  // measure 47
0001
0000
0000
0000
,  // measure 48
1000
0000
0000
0000
,  // measure 49
0010
0000
0000
0000
,  // measure 50
0100
0000
0000
0000
,  // measure 51
0001
0000
0001
0000
,  // measure 52
0001
0000
0000
0000
,  // measure 53
0010
0000
0000
0000
,  // measure 54
0100
0000
0000
0000
,  // measure 55
1000
0000
1000
1000
;

//---------------dance-single - ----------------
#NOTES:
     dance-single:
     :
     Easy:
     6:
     0.316,0.301,0.076,0.000,0.000,198.000,7.000,0.000,0.000,0.000,0.000,0.316,0.301,0.076,0.000,0.000,198.000,7.000,0.000,0.000,0.000,0.000:
0000
0000
0000
0000
,
0000
0000
0000
0000
,
0000
0000
0000
0000
,
0000
0000
0000
0000
,
1000
0001
0100
0101
,
0001
1000
0100
1100
,
1000
0001
0010
0011
,
0000
0000
0000
0000
,
0001
0100
0010
1000
,
0001
0010
0100
1000
,
0001
0100
1000
0100
,
0001
0001
1000
1000
,
0001
0010
0100
1000
,
0001
0100
0010
1000
,
0001
0010
1000
0010
,
0001
0001
1000
1000
,
0001
0100
0010
0100
,
0001
0100
0010
0100
,
0001
0010
0100
0010
,
0001
0010
0100
0010
,
0001
0100
1000
0100
,
0001
0100
1000
0100
,
0001
0010
1000
0010
,
0001
0010
1000
0010
,
0001
0001
0100
0100
,
0010
0010
1000
1000
,
0001
0001
0010
0010
,
0100
0100
1000
1000
,
0001
0001
0100
0100
,
0010
0010
1000
1000
,
1001
0001
1001
1000
,
1001
0000
0000
0000
,
1000
0100
0010
0001
,
1000
0010
0100
0001
,
1000
0010
0001
0010
,
1000
0100
0001
0100
,
1000
0100
0010
0001
,
1000
0010
0100
0001
,
1000
0010
0001
0010
,
1000
0100
0001
0100
,
1000
0010
0100
0001
,
1000
0100
0010
0001
,
1000
0010
0001
0010
,
1000
0100
0001
0100
,
1000
0010
0100
0001
,
1000
0100
0010
0001
,
1000
0010
0001
0100
,
1000
0000
0000
0000
,
0001
0100
0010
1000
,
0001
0010
0100
1000
,
0001
0100
1000
0100
,
0001
0001
1000
1000
,
0001
0010
0100
1000
,
0001
0100
0010
1000
,
0001
0010
1000
0010
,
0001
0001
1000
1001
;

//---------------dance-single - ----------------
#NOTES:
     dance-single:
     :
     Medium:
     8:
     0.437,0.421,0.356,0.086,0.000,242.000,33.000,8.000,0.000,0.000,0.000,0.437,0.421,0.356,0.086,0.000,242.000,33.000,8.000,0.000,0.000,0.000:
0000
0000
0000
0000
,
0000
0000
0000
0000
,
0000
0000
0000
0000
,
0000
0000
0000
0000
,
1000
0000
0100
0000
0010
0001
0010
0000
,
0001
0000
0100
0000
0010
1000
0010
0000
,
0100
0000
0001
0000
1000
0100
0010
0000
,
0000
0000
0000
0000
,
0001
0000
0100
0010
0100
0010
0000
0000
,
1000
0000
0100
0010
0100
0010
0000
0000
,
0100
0000
1000
0000
0001
0100
0001
0000
,
0010
0000
0100
0000
1000
0001
1000
0000
,
0010
0000
0100
0001
0100
0001
0000
0000
,
0010
0000
0100
1000
0100
1000
0000
0000
,
0010
0100
0001
1000
,
0001
0010
0100
1000
0100
0010
0001
0000
,
1000
1100
1000
1100
,
0001
0101
0001
0101
,
1000
0010
1000
0000
0001
0010
0001
0000
,
1100
0011
0101
1010
,
0001
0101
0001
0101
,
1000
1100
1000
1100
,
0001
0010
0001
0000
1000
0010
1000
0000
,
1010
0101
0011
1100
,
1000
1100
0001
0101
,
1000
1010
0001
0011
,
0002
0023
0230
2300
,
3002
0100
1003
1001
,
0001
0000
0100
0000
0010
1000
0100
0000
,
0010
0000
0001
0000
0100
0001
0010
0000
,
0011
0110
1100
1010
,
0220
0000
0000
0330
,
0100
0000
0001
0000
0010
0001
0010
0000
,
0001
0000
0100
0000
0010
1000
0010
0000
,
0100
0000
0001
0000
1000
0100
1000
0000
,
0010
0000
0100
0000
0001
0100
0001
0000
,
0010
0000
0100
0000
1000
0001
1000
0000
,
0001
0000
0010
0000
0100
1000
0100
0000
,
0010
0000
0001
0000
1000
0010
1000
0000
,
1010
0110
0101
1001
,
1100
0000
0100
0000
0010
0001
0100
0000
,
0010
0000
1000
0000
0100
1000
0010
0000
,
0100
0000
0001
0000
1000
0010
0100
0000
,
0001
0000
0010
0000
0100
1000
0001
0000
,
1001
0000
0001
0000
0010
0100
1000
0000
,
0010
0000
0100
0000
0001
1000
0010
0000
,
1000
0000
0001
0000
0010
0100
1000
0000
,
2001
0100
0010
3001
,
1000
0000
0010
0100
0010
0100
0000
0000
,
0001
0000
0010
0100
0010
0100
0000
0000
,
0010
0000
0001
0000
1000
0010
1000
0000
,
0100
0000
0010
0000
0001
1000
0001
0000
,
0100
0000
0010
1000
0010
1000
0000
0000
,
0100
0000
0010
0001
0010
0001
0000
0000
,
0100
0010
1000
0001
,
1000
0100
0010
0001
0010
0100
1000
0000
;
