#VERSION:0.81;
#TITLE:Daddy Discord;
#SUBTITLE:;
#ARTIST:dBPony;
#TITLETRANSLIT:;
#SUBTITLETRANSLIT:;
#ARTISTTRANSLIT:;
#GENRE:Rock;
#ORIGIN:;
#CREDIT:;
#BANNER:Daddy Discord.png;
#BACKGROUND:Daddy Discord-bg.png;
#PREVIEWVID:;
#JACKET:Daddy Discord-jacket.png;
#CDIMAGE:;
#DISCIMAGE:;
#LYRICSPATH:;
#CDTITLE:;
#MUSIC:Daddy Discord.mp3;
#OFFSET:-0.064;
#SAMPLESTART:22.120;
#SAMPLELENGTH:15.000;
#SELECTABLE:YES;
#BPMS:0.000=174.000,
127.000=165.634,
128.000=174.000,
240.000=87.000,
268.000=174.000,
284.000=87.000,
318.000=66.768,
319.000=31.531,
320.000=15.398;
#STOPS:;
#DELAYS:;
#WARPS:;
#TIMESIGNATURES:0.000=4=4;
#TICKCOUNTS:0.000=4;
#COMBOS:0.000=1;
#SPEEDS:0.000=1.000=0.000=0;
#SCROLLS:0.000=1.000;
#FAKES:;
#LABELS:0.000=Song Start;
#BGCHANGES:;
#KEYSOUNDS:;
#ATTACKS:
;

//---------------dance-single - ----------------
#NOTEDATA:;
#CHARTNAME:;
#STEPSTYPE:dance-single;
#DESCRIPTION:;
#CHARTSTYLE:;
#DIFFICULTY:Easy;
#METER:6;
#RADARVALUES:0.363,0.455,0.305,0.241,0.007,281.000,43.000,34.000,0.000,0.000,0.000,0.000,0.000,0.363,0.455,0.305,0.241,0.007,281.000,43.000,34.000,0.000,0.000,0.000,0.000,0.000;
#CREDIT:;
#NOTES:
0000
1000
0001
1000
,
0010
0010
0020
0000
,
0000
0130
0010
1000
,
0001
0001
0001
0010
,
0020
0000
0130
0000
,
0200
0000
1300
0000
,
2000
0000
3001
0000
,
0002
0000
0103
0000
,
0000
1001
0000
0011
,
0000
1001
1000
1001
,
0000
1010
0000
0110
,
0000
0101
0100
0101
,
0000
1001
0000
1100
,
0000
0110
0010
0110
,
0000
0011
0000
0101
,
0001
0010
0100
1000
,
0001
0001
1000
0010
,
1000
1000
0001
0010
,
0110
0100
1000
0100
,
0010
0001
0100
0001
,
1000
1000
0001
0010
,
0001
0001
1000
0010
,
0200
0000
0320
0000
,
2030
0000
3002
0000
,
0013
0001
1000
0100
,
0010
0010
0010
0110
,
0100
1000
0010
0001
,
1000
0100
0001
1000
,
0100
0010
0100
0010
,
0001
1000
0001
1000
,
0010
0010
0100
0100
,
0010
0000
0000
1000
0000
0001
0000
0000
,
2000
0000
3020
0000
,
0230
0000
0320
0000
,
2030
0000
3002
0000
,
0023
0000
0000
0000
,
0230
0000
0000
0000
0000
0000
0000
2300
,
0000
0000
0000
0000
0000
0000
0000
3002
,
0000
0000
0000
0000
0000
0000
0000
0203
,
0000
0000
0000
0000
,
0310
0000
0010
1000
,
0001
0010
0001
0100
,
0110
0000
0010
0010
,
1000
0100
0010
0001
,
1000
1000
1000
0000
,
0110
0010
0010
0000
,
0110
0100
0100
0000
,
0101
0001
0001
0010
,
0100
0000
2000
0000
0000
3002
0000
0000
,
2003
0000
0000
3020
0000
0000
0130
0000
,
0110
0000
0000
0010
0000
0010
0000
1000
,
0000
0001
0010
0100
,
1000
0100
1000
0100
,
0001
0100
0001
0100
,
1000
0010
1000
0010
,
0001
0010
0001
0010
,
0100
0010
1000
0001
,
0100
0010
1000
0001
,
0010
0000
0000
0001
0000
0100
0000
0100
,
0000
0010
1000
0100
,
0110
0000
0110
0000
0010
0001
0010
0000
,
0110
0000
0110
0000
0100
1000
0100
0010
,
0001
0000
1001
0000
1000
0010
1000
0000
,
0100
0000
0110
0000
0010
0001
0100
0010
,
0110
0000
1010
0000
0100
0001
0100
0000
,
0110
0000
0011
0000
1000
0100
0010
1000
,
1001
0000
0011
0000
0010
0100
1000
0010
,
0100
0100
0100
0100
,
0001
0001
0001
0001
,
1000
1000
1000
1000
,
0010
0010
0010
0010
,
0110
0000
0110
0000
0000
0000
0100
0000
0001
0000
0010
0000
0100
0000
0000
1000
,
0100
0001
0100
1000
0010
0001
0010
0000
,
0110
0000
0110
0000
0000
0000
0100
0000
0001
0000
0010
0000
0100
0000
0000
1000
,
0100
0100
0100
0100
0010
0010
0010
0010
,
0001
0001
0001
0001
1000
1000
1000
1000
,
2002
0000
0000
0000
0000
0000
0000
3003
,
0220
0000
0000
0000
0000
0000
0000
0330
,
2020
0000
0000
0000
0000
0000
0000
3030
,
0202
0000
0000
0000
0000
0000
0000
0303
,
2002
0000
0000
3003
1001
0000
0000
0000
0000
0000
0000
0000
0000
0000
0000
0000
;

//---------------dance-single - ----------------
#NOTEDATA:;
#CHARTNAME:;
#STEPSTYPE:dance-single;
#DESCRIPTION:;
#CHARTSTYLE:;
#DIFFICULTY:Hard;
#METER:17;
#RADARVALUES:0.762,0.968,0.731,0.270,0.472,611.000,103.000,38.000,0.000,0.000,0.000,0.000,0.000,0.762,0.968,0.731,0.270,0.472,611.000,103.000,38.000,0.000,0.000,0.000,0.000,0.000;
#CREDIT:;
#NOTES:
0110
0000
0100
0100
0001
1000
0100
1000
,
0001
0010
0001
0200
0000
0000
0310
0100
,
0100
0001
1000
0000
1100
0000
0100
0000
,
0110
0000
0110
0000
0010
0001
0100
0110
,
0000
0010
1000
0010
0110
0000
0100
0001
,
1000
0000
0010
0000
1000
0001
0000
0001
,
1000
0000
0010
0000
1000
0001
0000
0001
,
0100
0010
0100
0010
1000
0001
1000
0001
,
0010
0100
0110
0010
0100
1000
1100
1000
,
0001
0000
1000
0000
1001
0000
0001
0000
0100
0010
0000
0000
0110
0000
0000
0010
,
1000
0010
1010
1000
0001
1000
1001
0001
,
0010
0001
0000
0001
0010
0000
0100
0000
0010
0100
0000
0100
0010
0000
0001
0010
,
0100
1000
1001
1000
0010
1000
1010
1000
,
0010
0000
0100
0000
0110
0000
0100
0000
0001
0100
0000
0000
0101
0000
0000
0100
,
0001
1000
0001
1000
0010
0100
0010
0100
,
0010
0000
1000
0000
0001
0000
0010
0000
0100
1000
0100
1000
0010
0100
0001
0010
,
0100
0000
0010
0100
0010
0000
0100
1000
,
0100
0000
1000
0001
0000
0100
0000
0110
,
0000
0010
1000
0010
0100
0000
0001
0010
,
0001
0010
0000
0110
0000
0100
0100
1000
,
0100
0010
0000
0110
0000
0011
0000
1100
,
0000
1001
0000
0101
0000
0010
1000
1001
,
0000
0001
0010
0001
0210
0000
1300
0100
,
0120
0000
0000
0000
0031
0000
0010
0000
0100
0010
0000
0010
0100
0000
1000
0000
,
1001
0000
0011
0000
0110
0000
0010
0001
,
0100
0010
0000
0110
0000
0010
0010
1000
,
0010
0100
0001
1000
0100
0000
0010
0100
,
0110
0000
0010
0011
0000
1001
1001
1010
,
0000
0010
0100
0010
0100
0001
1000
0100
,
0010
0000
0001
0010
0000
0001
0001
1001
,
0000
1000
0010
1000
0100
0010
0100
0000
,
0120
0000
0000
0001
0000
0001
0001
0031
,
2002
3003
2020
3030
,
0202
0303
0021
0130
,
0220
0330
2002
3003
,
1010
0000
0000
0000
0010
0000
0000
0000
0100
0010
0100
0010
1000
0001
1000
0001
,
0010
0100
0010
0100
1000
0100
0010
0110
,
0000
0010
0100
0010
0001
0010
0100
0110
,
0000
0010
0001
0010
0001
0100
0010
0110
,
0000
0000
0010
0000
1000
0000
0010
1000
0100
0000
0010
0100
0010
0000
0110
0000
,
0000
0000
1001
0000
1000
0100
0010
0001
,
0000
0100
0001
0000
0100
0010
0000
1000
,
0010
1000
0000
0001
1000
1000
0001
0001
,
0010
0000
0010
0000
0001
0000
0001
0000
1000
0100
1000
0100
0010
0100
0010
0100
,
1000
0100
0010
0001
0100
0010
1000
0001
1000
0010
0100
0010
,
1000
0010
0100
0001
0010
0100
0010
0001
0100
0010
1000
0100
,
0010
0000
0001
0000
0010
0000
0100
0000
1000
0000
0100
0000
1000
0000
0010
0000
1000
0000
0001
0000
0000
1001
0000
0000
,
0000
0000
1000
0000
0010
0100
0010
0100
0001
0000
0010
0000
0100
0000
0210
0000
,
0000
1300
2100
0000
3001
1002
0000
0103
,
0201
0000
0000
0000
0000
0000
0310
0000
0000
0120
0000
0000
0000
0000
0000
0130
0000
0000
0010
0000
1000
0000
0010
0000
,
1000
0000
0010
1000
0000
1000
0001
0010
,
0000
0000
0100
0000
0010
0000
0010
0000
0001
0010
0001
0010
0100
1000
0100
1000
,
0010
1000
0010
1000
0010
1000
0010
1000
0001
1000
0001
0000
0000
0000
1000
0000
,
0001
0010
0001
0010
0001
0010
0001
0010
0100
0010
0100
0000
0000
0000
1000
0000
,
0100
1000
0100
1000
0100
1000
0100
1000
0001
1000
0001
0000
0000
0000
0100
0000
,
0010
0100
0010
0100
0010
0100
0010
0100
0001
0100
0001
0000
0001
0100
0001
0000
,
0100
0010
1000
0100
1000
0010
0100
0010
1000
0100
1000
0010
,
0100
0001
0010
0100
0010
0001
0100
0001
0010
0100
0010
0001
,
1000
0000
0001
1001
0000
1000
0010
0100
,
0010
0010
1000
1000
1001
1010
0101
1001
,
0001
0000
0001
0000
0101
0000
0100
0010
1000
0001
1000
0100
0010
0000
0100
0000
,
1000
0000
1000
0000
1100
0000
0100
0010
0001
1000
0001
0100
0010
0000
0100
0000
,
0001
0000
0001
0000
0011
0000
0010
0100
1000
0001
1000
0100
0010
0000
0100
0000
,
1000
0000
1000
0000
1010
0000
0010
0100
0001
1000
0001
0100
0010
0000
1000
0000
,
0001
0000
0010
0000
0011
0000
0010
0100
1000
0010
0001
1000
0100
0000
0001
0000
,
1000
0000
0010
0000
1010
0000
0010
0100
0001
0010
1000
0001
0100
0000
1000
0000
,
0010
0000
0000
0000
0100
0000
0000
0000
0110
0000
0000
0000
0100
0000
0001
0000
1000
0000
0100
0000
0010
0000
0001
0000
0100
0000
0000
0000
0010
0000
0100
0010
,
0100
0101
0101
0101
,
0001
1001
1001
1001
,
1000
0000
1100
0000
0100
0100
1000
0010
,
0220
0000
0000
0000
0330
0000
1000
0001
1000
0000
0000
0000
1001
0000
0000
0000
,
0011
0000
0011
0000
0000
0000
0010
0000
0100
1000
0010
0100
0001
0000
0000
0100
,
0001
0000
0100
0000
1000
0000
0100
0000
0001
0000
0010
0000
1000
0000
0010
0000
0001
0000
1000
0000
0010
0000
0100
0001
0100
0000
0000
0000
0110
0000
0000
0000
,
1010
0000
1010
0000
0000
0000
0010
0000
0100
0001
0010
0100
1000
0000
0000
0100
,
0110
0011
0110
0011
1001
1010
1001
1010
,
1100
0000
0000
0000
0110
0000
0000
0000
1100
0000
0000
0000
0110
0000
0000
0000
1001
0000
0000
0000
1001
0000
1000
0001
1000
0000
0010
0000
0100
0000
0001
0000
,
2002
0000
0000
0000
0000
0000
0000
0000
0000
0000
0000
0000
0000
0000
0000
3003
,
2020
0000
0000
0000
0000
0000
0000
0000
0000
0000
0000
0000
0000
0000
0000
3030
,
0220
0000
0000
0000
0000
0000
0000
0000
0000
0000
0000
0000
0000
0000
0000
0330
,
0202
0000
0000
0303
0022
0000
0000
0033
0220
0000
0000
0330
2200
0000
0000
3300
,
2002
3003
0000
0000
;

//---------------dance-single - ----------------
#NOTEDATA:;
#CHARTNAME:;
#STEPSTYPE:dance-single;
#DESCRIPTION:;
#CHARTSTYLE:;
#DIFFICULTY:Beginner;
#METER:4;
#RADARVALUES:0.204,0.284,0.085,0.177,0.000,164.000,12.000,25.000,0.000,0.000,0.000,0.000,0.000,0.204,0.284,0.085,0.177,0.000,164.000,12.000,25.000,0.000,0.000,0.000,0.000,0.000;
#CREDIT:;
#NOTES:
1000
0000
1000
0000
,
1000
0000
2000
0000
,
3001
0000
0001
0000
,
0001
0000
0001
0000
,
0010
0000
0010
0000
,
0010
0000
0010
0000
,
0200
0300
0200
0300
,
0200
0000
0000
0000
,
0300
1000
0000
1000
,
0000
1000
0000
0001
,
0000
0010
0000
0010
,
0000
0010
0000
0001
,
0000
0100
0000
0100
,
0000
0100
0000
0001
,
0000
0010
0000
0010
,
0100
0000
0100
0000
,
1000
0000
1000
0000
,
0001
0000
0001
0000
,
0101
0000
0100
0000
,
0010
0000
0010
0000
,
0011
0000
0001
0000
,
1000
0000
1000
0000
,
1100
0000
0100
0000
,
0010
0000
0010
0000
,
1010
0000
1000
0000
,
0001
0000
0001
0000
,
0011
0000
0010
0000
,
0100
0000
0100
0000
,
0101
0000
0001
0000
,
1000
0000
1000
0000
,
1010
0000
0010
0000
,
0100
0000
0100
0000
,
2000
0000
3200
0000
,
0320
0000
0032
0000
,
2003
0000
3020
0000
,
0230
0000
0000
0000
,
0320
0000
0000
0000
0000
0000
0000
2030
,
0000
0000
0000
0000
0000
0000
0000
3002
,
0000
0000
0000
0000
0000
0000
0000
0023
,
0000
0000
0000
0000
0000
0000
0000
0230
,
0000
0000
0010
0000
,
0010
0000
0010
0000
,
0310
0000
0000
0000
,
1000
0000
1000
0000
,
0001
0000
0001
0000
,
0010
0000
0010
0000
,
0100
0000
0100
0000
,
1000
0000
1000
0000
,
0000
0000
0001
0000
0000
0001
0000
0000
,
0001
0000
0000
0001
0000
0000
0000
0000
,
0010
0000
0010
0000
,
0100
0000
0100
0000
,
0010
0000
0001
0000
,
0010
0000
0001
0000
,
1000
0000
0100
0000
,
1000
0000
0100
0000
,
1000
0000
0010
0000
,
0100
0000
0001
0000
,
1001
0000
0000
0000
,
1001
0000
1000
0000
,
0100
0100
0100
0000
,
0010
0010
0010
0000
,
0001
0001
0001
0000
,
1000
1000
1000
0000
,
0010
1000
0010
0000
,
0100
0001
0100
0000
,
0010
1000
0001
0000
,
0010
0000
0010
0000
,
0010
0000
0010
0000
,
0010
0000
0010
0000
,
0220
0000
0000
0330
,
0110
0000
0100
0000
,
1000
0100
0010
0001
,
1001
0000
1000
0000
,
0001
0001
0010
0100
,
0010
0100
1000
0001
,
2000
0000
0000
0000
,
3002
0000
0000
0000
,
2003
0000
0000
0000
,
3020
2030
3002
0203
,
0301
0000
0000
0000
;

//---------------dance-single - ----------------
#NOTEDATA:;
#CHARTNAME:;
#STEPSTYPE:dance-single;
#DESCRIPTION:;
#CHARTSTYLE:;
#DIFFICULTY:Medium;
#METER:12;
#RADARVALUES:0.531,0.655,0.418,0.163,0.213,442.000,59.000,23.000,0.000,0.000,0.000,0.000,0.000,0.531,0.655,0.418,0.163,0.213,442.000,59.000,23.000,0.000,0.000,0.000,0.000,0.000;
#CREDIT:;
#NOTES:
// measure 0
0000
0000
1000
0000
0001
0100
0001
0000
,  // measure 1
0010
0100
0010
0200
0000
0000
0000
0000
,  // measure 2
0000
1300
0100
0000
1000
0000
0010
0000
,  // measure 3
0110
0000
0110
0000
0110
0000
0010
1000
,  // measure 4
0000
1000
0001
0000
0010
0000
0100
0010
,  // measure 5
0100
0000
1000
0000
0100
0010
0000
0010
,  // measure 6
0100
0000
1000
0000
0100
0010
0000
0010
,  // measure 7
0002
0000
0000
1003
,  // measure 8
0001
0101
0100
0110
,  // measure 9
0010
0000
0000
0000
1010
0000
0000
0000
0000
1000
0000
0000
1001
0000
0000
0001
,  // measure 10
0010
0011
0010
0110
,  // measure 11
0000
0100
0000
0000
1100
0000
0000
0000
0000
1000
0000
0000
1001
0000
0000
0001
,  // measure 12
0100
0110
0010
1010
,  // measure 13
1000
0000
0000
0000
1001
0000
0000
0000
0000
0001
0000
0000
0011
0000
0000
0010
,  // measure 14
0100
1100
1000
1001
,  // measure 15
0001
0100
0010
1000
0010
0100
0010
1000
,  // measure 16
0100
0000
0010
0100
0010
0000
0100
1000
,  // measure 17
0001
0000
0100
0001
0000
0010
0000
0110
,  // measure 18
0000
0100
1000
0010
0100
0000
0010
1000
,  // measure 19
0010
1000
0000
0001
0000
0000
1000
0001
,  // measure 20
0010
0010
0000
0001
0000
0010
0000
1100
,  // measure 21
0000
0101
0000
1100
0000
1000
0000
1010
,  // measure 22
0000
0000
0010
0000
1010
0000
1000
0001
,  // measure 23
1000
0000
0001
0010
0001
0000
0010
0000
,  // measure 24
0100
0000
1000
0000
0100
0000
0001
0100
,  // measure 25
0010
0100
0000
0110
0000
0000
0010
0001
,  // measure 26
0010
0001
0100
0010
0100
0000
0010
1000
,  // measure 27
0100
0000
0010
0100
0000
1000
0000
1002
,  // measure 28
0000
0103
0000
0000
0001
0100
0010
1000
,  // measure 29
0010
0000
1000
0001
0000
1000
0001
2000
,  // measure 30
0000
3100
0000
0000
0100
0010
0100
0000
,  // measure 31
0210
0000
0000
1000
0000
1000
0000
1300
,  // measure 32
0200
0000
2300
0000
,  // measure 33
3002
0000
0100
1003
,  // measure 34
2001
0000
3100
0000
,  // measure 35
0220
0000
0000
0330
,  // measure 36
0010
0100
1000
0010
0100
0100
0000
0110
,  // measure 37
0000
0100
0001
0010
0100
0100
0000
0110
,  // measure 38
0000
0010
0001
0100
0010
0010
0000
0110
,  // measure 39
0000
0010
1000
0100
0010
0010
0010
0000
,  // measure 40
0001
0000
0010
0000
0100
1000
0100
1000
,  // measure 41
0000
0000
0001
0000
1000
0010
0000
1000
,  // measure 42
0010
0100
0000
0000
0010
1000
0010
0000
,  // measure 43
1000
0001
1000
0001
0010
0100
0010
0100
,  // measure 44
1000
0000
1000
0100
0000
0100
1000
0000
1000
0001
0000
0001
,  // measure 45
0100
0000
0100
0001
0000
0001
1000
0000
1000
0010
0000
0000
,  // measure 46
1000
0000
0010
0000
0100
0000
0001
0000
0000
0000
0000
0000
0001
0000
0010
0000
0100
0000
1000
0000
0000
1001
0000
0000
,  // measure 47
0000
0000
0000
1000
0000
0000
0010
0000
0100
0000
0010
0000
0100
0000
0000
0010
0000
0000
1000
0000
0000
1100
0000
0000
,  // measure 48
0000
0000
0101
0000
0000
1010
0000
0000
,  // measure 49
0011
0000
0000
0000
0000
0000
0000
0000
0000
0110
0000
0000
0000
0000
0000
0100
0000
0000
1000
0000
0100
0000
1000
0000
,  // measure 50
0100
0000
1000
0001
0000
0001
0100
0001
,  // measure 51
0000
0100
0010
0100
0010
1000
0100
0010
,  // measure 52
0001
1000
0001
1000
0010
0100
0000
0010
,  // measure 53
1000
0001
1000
0001
0010
0100
0000
0010
,  // measure 54
0001
1000
0001
1000
0100
0010
0000
0100
,  // measure 55
1000
0001
1000
0001
0100
0010
1000
0100
,  // measure 56
0010
0000
0010
0100
0000
0100
1000
0000
1000
0001
0000
0001
,  // measure 57
0100
0000
0100
0010
0000
0010
1000
0000
1000
0001
0000
0001
,  // measure 58
0010
0000
0010
0100
0000
0010
0100
0010
,  // measure 59
0000
0100
1000
0100
2000
0000
3001
0000
,  // measure 60
1001
0000
0000
0000
1001
0000
0000
1000
0000
0100
0010
0000
0110
0000
0000
0000
,  // measure 61
0011
0000
0000
0000
0011
0000
0000
0010
0000
0100
1000
0000
1001
0000
0000
0000
,  // measure 62
0101
0000
0000
0000
0101
0000
0000
0100
0000
0010
1000
0000
1001
0000
0000
0000
,  // measure 63
1100
0000
0000
0000
1100
0000
0000
0100
0000
0010
0100
0000
0110
0000
0000
0000
,  // measure 64
0011
0000
0000
0000
0011
0000
0001
0010
0100
1000
0010
0000
1010
0000
0000
0000
,  // measure 65
1100
0000
0000
0000
1100
0000
0100
0010
0001
0100
0010
1000
1100
0000
0000
0000
,  // measure 66
0110
0000
0000
0000
0110
0000
0010
0001
0100
0010
1000
0000
0001
0000
1000
0001
,  // measure 67
1000
1000
1000
1000
,  // measure 68
0010
0010
0010
0010
,  // measure 69
0100
0000
0110
0000
0100
0010
0100
0000
,  // measure 70
0102
0000
1003
0000
,  // measure 71
0010
0000
0020
0000
0000
0000
0130
0000
0010
0001
0100
0010
1000
0000
0000
0001
,  // measure 72
1000
0100
0001
0100
1000
0100
0001
0100
1000
0010
0001
0010
1000
0000
0000
0000
,  // measure 73
0100
0000
0200
0000
0000
0000
0310
0000
0100
1000
0010
0100
0001
0000
0000
1000
,  // measure 74
0001
0001
0001
0001
0010
0010
0010
0010
,  // measure 75
0100
0000
0100
0000
0100
0000
0100
0000
1000
0000
1000
0000
0001
1000
0100
1000
,  // measure 76
0002
0000
0000
0000
,  // measure 77
0203
0000
0000
0000
,  // measure 78
0320
0000
0000
0000
,  // measure 79
2030
3200
2300
3002
,  // measure 80
0203
0300
0000
0000
;
