#VERSION:0.81;
#TITLE:DROP THE BOMB;
#SUBTITLE:;
#ARTIST:Scotty D.;
#TITLETRANSLIT:;
#SUBTITLETRANSLIT:;
#ARTISTTRANSLIT:;
#GENRE:Techno;
#ORIGIN:;
#CREDIT:;
#BANNER:DROP THE BOMB.png;
#BACKGROUND:DROP THE BOMB-bg.png;
#PREVIEWVID:;
#JACKET:DROP THE BOMB-jacket.png;
#CDIMAGE:;
#DISCIMAGE:;
#LYRICSPATH:DROP THE BOMB.lrc;
#CDTITLE:;
#MUSIC:DROP THE BOMB.mp3;
#OFFSET:-0.058;
#SAMPLESTART:72.860;
#SAMPLELENGTH:15.000;
#SELECTABLE:YES;
#DISPLAYBPM:150.000;
#BPMS:0.000=150.140;
#STOPS:;
#DELAYS:;
#WARPS:;
#TIMESIGNATURES:0.000=4=4;
#TICKCOUNTS:0.000=4;
#COMBOS:0.000=1;
#SPEEDS:0.000=1.000=0.000=0;
#SCROLLS:0.000=1.000;
#FAKES:;
#LABELS:0.000=Song Start;
#BGCHANGES:27.500=DROP THE BOMB.avi=1.000=0=0=0=StretchNoLoop====,
99999=-nosongbg-=1.000=0=0=0 // don't automatically add -songbackground-
;
#KEYSOUNDS:;
#ATTACKS:
;

//---------------dance-single - ----------------
#NOTEDATA:;
#CHARTNAME:;
#STEPSTYPE:dance-single;
#DESCRIPTION:;
#CHARTSTYLE:;
#DIFFICULTY:Easy;
#METER:5;
#RADARVALUES:0.323,0.357,0.159,0.000,0.000,199.000,15.000,0.000,0.000,0.000,0.000,0.000,0.000,0.323,0.357,0.159,0.000,0.000,199.000,15.000,0.000,0.000,0.000,0.000,0.000,0.000;
#CREDIT:;
#DISPLAYBPM:150.000;
#NOTES:
0000
0000
0000
0000
,
0000
0000
0000
0000
,
0010
0010
0001
0100
,
0010
0010
1000
0100
,
0010
0001
0100
1000
,
0000
0000
0000
0000
,
0000
0000
0000
0000
,
0010
0001
0010
1000
,
0100
0001
0010
1000
,
0100
0010
0001
0100
,
0010
0010
0010
1001
,
0010
0001
0010
1000
,
0010
1000
0100
0001
,
0010
1000
0100
0001
,
0100
1000
0010
0001
,
1001
0010
1000
0001
,
0100
0100
0010
1000
,
0010
0001
1000
0010
,
0100
0100
0010
0010
,
1001
0001
0100
1000
,
0001
1000
0010
0100
,
0010
0001
0100
1000
,
0100
0100
0001
0100
,
1001
0010
0001
0100
,
0010
0010
1000
0100
,
0010
0001
0100
1000
,
0001
1000
0010
0100
,
1001
0010
1000
0100
,
0010
0010
0001
0100
,
0010
1000
0100
0001
,
0010
0010
0010
1001
,
0000
0000
0000
0000
,
0001
1000
0001
1000
,
0010
0100
0001
1000
,
0010
1000
0010
0001
,
0100
0100
1000
0000
,
1001
0010
0100
0001
,
0010
0010
0100
1000
,
0010
0010
1000
0001
,
0010
0010
0010
1000
,
1001
0100
1000
0100
,
0010
0001
0100
1000
,
0010
0001
1000
0001
,
0100
0100
0100
1001
,
0000
0000
0001
0000
,
1000
0000
1000
0000
,
1001
0010
0001
0100
,
0010
0010
1000
0100
,
0010
0001
0100
1000
,
0001
1000
0010
0100
,
0010
0010
1000
0100
,
0010
0001
0100
0100
,
0010
1000
0100
0001
,
0010
0010
1000
1000
,
0010
0010
0001
0001
,
0110
0110
1001
1001
,
0000
0110
0000
0000
;

//---------------dance-single - ----------------
#NOTEDATA:;
#CHARTNAME:;
#STEPSTYPE:dance-single;
#DESCRIPTION:;
#CHARTSTYLE:;
#DIFFICULTY:Medium;
#METER:7;
#RADARVALUES:0.374,0.416,0.106,0.000,0.032,238.000,10.000,0.000,0.000,0.000,0.000,0.000,0.000,0.374,0.416,0.106,0.000,0.032,238.000,10.000,0.000,0.000,0.000,0.000,0.000,0.000;
#CREDIT:;
#DISPLAYBPM:150.000;
#NOTES:
0000
0000
0000
0000
,
0000
0000
0000
0000
,
1001
0010
0001
0100
,
0010
0001
0010
0000
0001
0000
0100
0000
,
0010
1000
0100
0001
,
0000
0000
0010
0000
,
0010
0000
0010
0000
,
0010
0001
0100
1000
,
0100
0000
0001
0000
0010
0001
1000
0000
,
0110
0000
0010
0000
0001
1000
0100
0000
,
0010
0000
0010
0000
1000
0001
1000
0000
,
0110
0001
0100
0001
,
0010
0000
1000
0000
0100
0001
1000
0000
,
0010
0000
1000
0000
0010
0001
1000
0000
,
0100
0001
0010
1100
,
0001
1000
0001
0000
0100
0000
0010
0000
,
1000
0000
0001
0000
0100
0000
0010
1000
,
0001
0100
0001
1000
,
0010
0010
0001
0100
,
0010
1000
0001
0000
0100
0000
0010
0000
,
1000
0000
0001
0000
0100
0000
0010
0001
,
1000
0100
0001
1000
,
0100
0100
0010
0100
,
0001
1000
0010
0000
0001
0000
0100
0000
,
0010
1000
0010
0000
0001
0000
0100
0000
,
0010
1000
0001
0100
,
0010
0000
1000
0000
0010
0001
0100
0000
,
0010
1000
0100
0000
0001
0000
1000
0000
,
0010
1000
0010
0000
0001
0000
0100
0000
,
0010
1000
0100
0001
,
0100
0000
0001
0000
0010
0001
0010
0000
,
0100
0000
0000
0000
,
0010
0000
0000
0010
0000
0000
0001
0000
1000
0000
0000
0000
0000
0000
0000
0000
,
0010
0000
0000
0010
0000
0000
1000
0000
0001
0000
0000
0000
0000
0000
0000
0000
,
0010
0000
0000
0010
0000
0000
0001
0000
1000
0000
0000
0000
0000
0000
0000
0000
,
0010
0000
0000
0010
0000
0000
1000
0000
0001
0000
0000
0000
0000
0000
0000
0000
,
0010
0010
0100
0001
,
0010
1000
0100
0001
,
0010
0010
1000
0001
,
0010
0010
0010
1001
,
0010
0100
0010
0000
1000
0000
1100
0000
,
0010
0000
1000
0000
0001
0000
0100
1000
,
0010
0001
1000
0101
,
0010
0010
1000
0001
,
0010
0000
0000
0010
0000
0000
1000
0000
0001
0000
0000
0000
0000
0000
0000
0000
,
0010
0000
0000
0010
0000
0000
0001
0000
1000
0000
0000
0000
0000
0000
0000
0000
,
0001
0100
0010
0000
1000
0000
0100
0000
,
1000
0100
1000
0000
0001
0000
0100
0000
,
0010
0001
0100
1000
,
0010
0000
1000
0000
0010
1000
0100
0000
,
0010
0001
0100
0000
1000
0000
0010
0000
,
0001
0100
0001
0000
1000
0000
0010
0000
,
0100
0001
1000
0100
,
0011
0000
0100
0000
0010
1000
0001
0000
,
1010
0000
0100
0000
0001
1000
0001
0000
,
0010
1000
0100
0001
0010
1000
0100
0001
,
0000
1001
0000
0000
;

//---------------dance-single - ----------------
#NOTEDATA:;
#CHARTNAME:;
#STEPSTYPE:dance-single;
#DESCRIPTION:;
#CHARTSTYLE:;
#DIFFICULTY:Hard;
#METER:10;
#RADARVALUES:0.480,0.535,0.148,0.000,0.074,304.000,14.000,0.000,0.000,0.000,0.000,0.000,0.000,0.480,0.535,0.148,0.000,0.074,304.000,14.000,0.000,0.000,0.000,0.000,0.000,0.000;
#CREDIT:;
#DISPLAYBPM:150.000;
#NOTES:
0000
0000
0000
0000
,
0000
0000
0000
0000
,
0010
0100
0010
0000
0001
0001
0100
1000
,
0010
0001
0100
0000
1000
1000
0001
0100
,
0010
1000
0010
0000
0001
0001
1000
0100
,
0000
0000
0100
0100
,
0100
0100
0100
0100
,
0010
0001
0100
1000
,
0001
0000
1000
0000
0010
1000
0010
1000
,
1010
0000
0010
0000
0001
0100
1000
0000
,
0010
0000
0010
0000
0100
0001
0100
0001
,
0101
1000
0100
0001
,
0010
0000
1000
0000
0010
1000
0001
1000
,
0100
0000
1000
0000
0010
0001
1000
0000
,
0010
0001
0100
1000
,
0010
1000
0001
0000
0010
0000
0000
0010
,
1001
0000
0000
0100
0000
0100
0000
0010
,
0001
1000
0001
0100
,
0010
1000
0010
1000
0001
0100
1000
0000
,
0010
1000
0001
0000
0010
0000
0000
0010
,
1001
0000
0000
0010
0000
0010
0000
0100
,
0001
1000
0010
0100
0001
0010
1000
0000
,
0001
1000
0001
0100
0010
0001
1000
0000
,
0010
0100
0010
0000
0001
1000
0010
1000
,
0010
0001
0010
0000
1000
1000
0001
1000
,
0010
0100
0010
0000
0001
0001
1000
1000
,
0010
0100
0010
0000
0001
1000
0010
1000
,
0010
0001
0010
0000
1000
1000
0001
1000
,
0010
0100
0010
0000
0001
1000
0100
0001
,
1000
0001
1000
0000
0010
0010
0001
1000
,
0010
0100
0010
0000
1000
1000
0001
0001
,
0010
0000
0000
0000
,
0010
0000
0000
0010
0000
0000
0001
0000
1000
0000
0000
0000
0000
0000
0000
0000
,
0010
0000
0000
0010
0000
0000
1000
0000
0001
0000
0000
0000
0000
0000
0000
0000
,
0010
0000
0000
0011
0000
0000
1001
0000
1001
0000
0000
0000
0000
0000
0000
0000
,
0010
0000
0000
1010
0000
0000
1001
0000
1001
0000
0000
0000
0000
0000
0000
0000
,
0010
0000
0100
0000
0001
0000
1000
0001
,
0100
0000
0000
0010
0000
0010
0000
1000
,
0010
0100
0001
1000
,
0010
0010
0010
1001
,
0011
0000
0100
0000
0010
0000
1000
0010
,
0001
0000
0000
0010
0000
0010
0000
1000
,
0001
0100
0001
1000
0010
0001
1000
0000
,
0010
1000
0001
0100
0010
1000
0001
0000
,
0010
0000
0000
0010
0000
0000
1000
0000
0001
0000
0000
0000
0000
0000
0000
0000
,
0010
0000
0000
0010
0000
0000
0001
0000
1000
0000
0000
0000
0000
0000
0000
0000
,
0010
0100
0010
0000
0001
1000
0010
1000
,
0010
0001
0010
0000
1000
0001
1000
0001
,
0100
0010
0100
0000
0001
0001
1000
1000
,
0010
0100
0010
0000
1000
0001
1000
0001
,
0100
0010
0100
0000
1000
1000
0001
1000
,
0010
0100
0010
0000
1000
1000
0001
1000
,
0010
0100
0010
0000
1000
0001
0100
0001
,
0100
0001
1000
0000
0001
1000
0001
0000
,
1010
0000
0100
0000
0001
1000
0001
0000
,
0010
0000
0000
0000
0000
0001
0000
0000
0000
0000
1000
0000
0000
0000
0000
0000
0100
0000
0000
0000
0000
0010
0000
0000
0000
0000
0001
0000
0000
0000
0000
0000
1000
0000
0000
0000
0000
0100
0000
0000
0000
0000
0010
0000
0000
0000
0000
0000
0001
0000
0000
0000
0000
1000
0000
0000
0000
0000
0100
0000
0000
0000
0000
0000
,
0000
1001
0000
0000
;

//---------------dance-double - ----------------
#NOTEDATA:;
#CHARTNAME:;
#STEPSTYPE:dance-double;
#DESCRIPTION:;
#CHARTSTYLE:;
#DIFFICULTY:Easy;
#METER:5;
#RADARVALUES:0.317,0.297,0.116,0.000,0.000,199.000,11.000,0.000,0.000,0.000,0.000,0.000,0.000,0.317,0.297,0.116,0.000,0.000,199.000,11.000,0.000,0.000,0.000,0.000,0.000,0.000;
#CREDIT:;
#DISPLAYBPM:150.000;
#NOTES:
00000000
00000000
00000000
00000000
,
00000000
00000000
00000000
00000000
,
00001000
00000001
00000100
00000010
,
00010000
00100000
10000000
00010000
,
00100000
00010000
01000000
10000000
,
00000000
00000000
00000000
00000000
,
00000000
00000000
00000000
00000000
,
10000000
01000000
00010000
00001000
,
00000010
00000001
00001000
00000001
,
00000100
00000010
00010000
00100000
,
10000000
00010000
01000000
00001000
,
00000010
00000001
00001000
00000010
,
00001000
00000001
00000100
00000010
,
00010000
00100000
10000000
01000000
,
01000000
00010000
01000000
01000000
,
10010000
01000000
00100000
00010000
,
00001000
00000010
00000001
00000100
,
00001000
00010000
00100000
10000000
,
01000000
10000000
00010000
01000000
,
01100000
00010000
01000000
10000000
,
00010000
00001000
00000001
00000100
,
00000001
00001000
00000010
00000001
,
00000100
00000100
00000001
00000100
,
00001001
00000010
00001000
00010000
,
00100000
10000000
00010000
01000000
,
00000100
00001000
00000001
00000100
,
00000010
00001000
00100000
10000000
,
01100000
00010000
10000000
00010000
,
01000000
00000100
00001000
00000001
,
00000100
00000010
00010000
00100000
,
10000000
00010000
10000000
00000000
,
01100000
00000000
00000000
00000000
,
10000000
00010000
00001000
00000001
,
00001000
00000100
00000010
00010000
,
00100000
10000000
00010000
01000000
,
00001000
00001000
00001000
00000000
,
00001001
00000010
00000100
00000001
,
00001000
00010000
10000000
00100000
,
01000000
01000000
00001000
00000100
,
00000010
00000001
00000001
00001000
,
00000110
00001000
00010000
00100000
,
10000000
00100000
00010000
10000000
,
00010000
00001000
00000010
00000100
,
00000001
00000001
00001000
00001000
,
00000000
00000000
00001000
00000000
,
00100000
00000000
10000000
00000000
,
01100000
10000000
00010000
01000000
,
00000100
00001000
00000010
00000100
,
00000001
00000010
00001000
00010000
,
00100000
10000000
01000000
00100000
,
00010000
00001000
00000100
00000010
,
00000001
00001000
00010000
10000000
,
00100000
10000000
01000000
00010000
,
01000000
01000000
00001000
00001000
,
00000010
00000010
00000001
00000001
,
00000100
00000100
00001001
00001001
,
00000000
00000110
00000000
00000000
;

//---------------dance-double - ----------------
#NOTEDATA:;
#CHARTNAME:;
#STEPSTYPE:dance-double;
#DESCRIPTION:;
#CHARTSTYLE:;
#DIFFICULTY:Medium;
#METER:8;
#RADARVALUES:0.370,0.416,0.085,0.000,0.021,237.000,8.000,0.000,0.000,0.000,0.000,0.000,0.000,0.370,0.416,0.085,0.000,0.021,237.000,8.000,0.000,0.000,0.000,0.000,0.000,0.000;
#CREDIT:;
#DISPLAYBPM:150.000;
#NOTES:
00000000
00000000
00000000
00000000
,
00000000
00000000
00000000
00000000
,
10010000
00100000
01000000
00000100
,
00001000
00000001
00001000
00000000
00000010
00000000
00001000
00000000
,
00010000
10000000
00010000
01000000
,
00000000
00000000
00100000
00000000
,
00100000
00000000
00100000
00000000
,
10000000
00010000
00001000
00000001
,
00000010
00000000
00000001
00000000
00000100
00000010
00001000
00000000
,
00000110
00000000
00001000
00000000
00100000
00010000
01000000
00000000
,
00100000
00000000
10000000
00000000
00010000
01000000
00100000
00000000
,
10010000
01000000
10000000
00010000
,
00001000
00000000
00000001
00000000
00000010
00001000
00000100
00000000
,
00000010
00000000
00000010
00000000
00000001
00000100
00001000
00000000
,
00000010
00010000
00100000
01000000
,
00100000
01000000
00100000
00000000
10000000
00000000
00010000
00000000
,
00100000
10000000
00010000
00000000
01000000
00000000
00010000
00000000
,
00010000
00001000
00000100
00000001
,
00000100
00001000
00010000
10000000
,
00100000
10000000
00010000
00000000
01000000
00000000
00001000
00000000
,
00000010
00000000
00000001
00000000
00000010
00000000
00001000
00000001
,
00000100
00000001
00000010
00001000
,
00000010
00010000
00100000
01000000
,
00010000
10000000
00100000
00000000
01000000
00000000
00010000
00000000
,
01000000
00010000
10000000
00000000
01000000
00000000
00010000
00000000
,
00001000
00000001
00000100
00000010
,
00001000
00000000
00000001
00000000
00000010
00001000
00000100
00000000
,
00000010
00001000
00000100
00000000
00001000
00000000
00010000
00000000
,
00100000
01000000
00100000
00000000
10000000
00000000
01000000
00000000
,
00100000
00001000
00000010
00000001
,
00001000
00000000
00000100
00000000
00000010
00001000
00000100
00000000
,
00010000
00000000
00000000
00000000
,
00100000
00000000
00000000
00100000
00000000
00000000
10000000
00000000
00010000
00000000
00000000
00000000
00000000
00000000
00000000
00000000
,
00001000
00000000
00000000
00001000
00000000
00000000
00001000
00000000
00010000
00000000
00000000
00000000
00000000
00000000
00000000
00000000
,
00000010
00000000
00000000
00000010
00000000
00000000
00000001
00000000
00001000
00000000
00000000
00000000
00000000
00000000
00000000
00000000
,
00000010
00000000
00000000
00000010
00000000
00000000
00001000
00000000
00000001
00000000
00000000
00000000
00000000
00000000
00000000
00000000
,
00000001
00001000
00010000
10000000
,
00010000
00100000
10000000
00100000
,
01000000
01000000
00010000
10000000
,
01000000
01000000
01000000
10010000
,
00001000
00010000
00001000
00000000
00000100
00000000
00000101
00000000
,
00000010
00000000
00001000
00000000
00000100
00000000
00000001
00001000
,
00000100
00001000
00010000
01010000
,
00100000
01000000
00010000
10000000
,
00100000
10000000
00000000
00100000
01000000
00000000
00000000
00000000
,
00001000
00010000
00000000
00000010
00000100
00000000
00000000
00000000
,
00000001
00001000
00000100
00000000
00010000
00000000
00010000
00000000
,
01000000
00100000
01000000
00000000
00010000
00000000
10000000
00000000
,
01000000
00100000
00001000
00001000
,
00000010
00000000
00000001
00000000
00001000
00000100
00001000
00000000
,
00000010
00010000
00100000
10000000
,
00010000
10000000
00010000
00000000
01000000
00000000
00001000
00000000
,
00000010
00000001
00000100
00000010
,
00010000
00000000
00100000
00000000
01000000
00100000
01000000
00000000
,
10010000
00000000
00100000
00000000
10000000
00010000
10000000
00000000
,
00100000
10000000
01000000
00010000
00100000
10000000
01000000
00010000
,
00000000
01100000
00000000
00000000
;

//---------------dance-double - ----------------
#NOTEDATA:;
#CHARTNAME:;
#STEPSTYPE:dance-double;
#DESCRIPTION:;
#CHARTSTYLE:;
#DIFFICULTY:Hard;
#METER:10;
#RADARVALUES:0.465,0.416,0.095,0.000,0.032,299.000,9.000,0.000,0.000,0.000,0.000,0.000,0.000,0.465,0.416,0.095,0.000,0.032,299.000,9.000,0.000,0.000,0.000,0.000,0.000,0.000;
#CREDIT:;
#DISPLAYBPM:150.000;
#NOTES:
00000000
00000000
00000000
00000000
,
00000000
00000000
00000000
00000000
,
00100000
01000000
00010000
00000000
10000000
10000000
01000000
01000000
,
00010000
10000000
00010000
00000000
01000000
01000000
00001000
00001000
,
00000100
00001000
00000001
00000000
00000100
00000100
00001000
00000001
,
00000000
00000000
00000010
00000010
,
00000010
00000010
00000010
00000010
,
00000001
00001000
00010000
10000000
,
00100000
00000000
10000000
00000000
00100000
01000000
00010000
01000000
,
01010000
00000000
00001000
00000000
01000000
00000100
00001000
00000000
,
00000010
00000000
00000001
00000000
00001000
00000100
00001000
00000100
,
00001100
00000010
00010000
00100000
,
10000000
00000000
00010000
00000000
01000000
00010000
01000000
00010000
,
01000000
00000000
00010000
00000000
00001000
00010000
00000100
00000000
,
00001000
00000010
00000001
00001000
,
00000010
00001000
00000001
00000000
00000100
00000000
00000000
00000100
,
00000010
00000000
00000000
00010000
00000000
00010000
00000000
00100000
,
01000000
00010000
10000000
01000000
,
00010000
00001000
00000100
00001000
,
00000010
00000100
00000001
00000000
00001000
00000000
00000000
00000010
,
00001001
00000000
00000000
00000010
00000000
00000010
00000000
00010000
,
00001000
00100000
00010000
10000000
00100000
00010000
10000000
00010000
,
00100000
10000000
00010000
01000000
00001000
00010000
00000100
00000000
,
00001000
00000001
00001000
00000000
00000010
00001000
00000010
00001000
,
00000001
00001000
00000100
00000000
00010000
00001000
00010000
00001000
,
01000000
00010000
00100000
00000000
00010000
10000000
00100000
01000000
,
00100000
10000000
00010000
00000000
00100000
10000000
00010000
01000000
,
00100000
10000000
00010000
00000000
00100000
10000000
00010000
01000000
,
00010000
00001000
00010000
00000000
00001000
00000100
00000010
00000001
,
00000100
00001000
00000001
00000000
00001000
00000100
00000010
00000001
,
00001000
00000001
00001000
00000000
00000001
00001000
00000010
00001000
,
00000100
00000000
00000000
00000000
,
00100000
00000000
00000000
00100000
00000000
00000000
00010000
00000000
10000000
00000000
00000000
00000000
00000000
00000000
00000000
00000000
,
00100000
00000000
00000000
00100000
00000000
00000000
10000000
00000000
00010000
00000000
00000000
00000000
00000000
00000000
00000000
00000000
,
00001000
00000000
00000000
00001000
00000000
00000000
00010000
00000000
00001000
00000000
00000000
00000000
00000000
00000000
00000000
00000000
,
00000010
00000000
00000000
00000110
00000000
00000000
00001001
00000000
00001001
00000000
00000000
00000000
00000000
00000000
00000000
00000000
,
00000001
00000000
00001000
00000000
00010000
00000000
10000000
00010000
,
01000000
00000000
00000000
00100000
00000000
00100000
00000000
10000000
,
00100000
01000000
00010000
10000000
,
00010000
00010000
00001000
00001000
,
00001010
00000000
00000001
00000000
00001000
00000000
00000010
00001000
,
00000001
00000000
00000000
00000010
00000000
00000010
00000000
00001000
,
00000010
00000001
00000100
00000010
00001000
00000001
00000100
00000000
,
00001000
00010000
00001000
01000000
00100000
00010000
10000000
00000000
,
00100000
00000000
00000000
00100000
00000000
00000000
00010000
00000000
10000000
00000000
00000000
00000000
00000000
00000000
00000000
00000000
,
00100000
00000000
00000000
00100000
00000000
00000000
10000000
00000000
00010000
00000000
00000000
00000000
00000000
00000000
00000000
00000000
,
00100000
01000000
00010000
00000000
10000000
10000000
00010000
00010000
,
00100000
10000000
00010000
00000000
01000000
01000000
00001000
00001000
,
00000100
00001000
00000001
00000000
00000100
00000100
00001000
00000001
,
00000100
00000001
00001000
00000000
00000001
00000001
00000010
00000100
,
00001000
00010000
00100000
00000000
10000000
10000000
00010000
00010000
,
00100000
10000000
00010000
00000000
01000000
00010000
00100000
10000000
,
00010000
01000000
00100000
00000000
10000000
00010000
01000000
00001000
,
00010000
00000100
00000100
00000000
00001000
00000001
00000100
00000000
,
00001010
00000000
00000100
00000000
00000001
00001000
00000100
00000000
,
00000010
00001000
00000100
00000001
00000010
00001000
00000100
00000001
,
00000100
00001001
00000000
00000000
;

//---------------dance-single - ----------------
#NOTEDATA:;
#CHARTNAME:;
#STEPSTYPE:dance-single;
#DESCRIPTION:;
#CHARTSTYLE:;
#DIFFICULTY:Beginner;
#METER:3;
#RADARVALUES:0.193,0.208,0.063,0.000,0.000,122.000,6.000,0.000,0.000,0.000,0.000,0.000,0.000,0.193,0.208,0.063,0.000,0.000,122.000,6.000,0.000,0.000,0.000,0.000,0.000,0.000;
#CREDIT:;
#DISPLAYBPM:150.000;
#NOTES:
0000
0000
0000
0000
,
0000
0000
0000
0000
,
0010
0010
0000
0100
,
0000
0010
0000
0100
,
0000
0001
0000
1000
,
0000
0000
0000
0000
,
0000
0000
0000
0000
,
0000
0010
0000
0010
,
0000
0100
0000
0010
,
0000
0100
0000
0001
,
0000
1000
1000
1000
,
1000
0000
0010
0000
,
0010
0000
1000
0000
,
0001
0000
0100
0000
,
0001
0000
0100
0000
,
1001
0000
0100
0000
,
0100
0000
0100
0000
,
0001
0000
0100
0000
,
0100
0000
0010
0000
,
0001
0000
1000
0000
,
1000
0000
0001
0000
,
0001
0000
1000
0000
,
1000
0000
0001
0000
,
0100
0100
0100
0100
,
0100
0100
0100
0000
,
0001
0001
0001
0001
,
0001
0001
0001
0000
,
1000
1000
1000
1000
,
1000
1000
1000
0000
,
0010
0010
0010
0010
,
0010
0010
0010
0010
,
0000
0000
0000
0000
,
1000
0000
1000
0000
,
0001
0000
0001
0000
,
0010
0000
0010
0000
,
0100
0000
0100
0000
,
1001
0000
0100
0000
,
0010
0000
1000
0000
,
0100
0000
0001
0000
,
0100
0000
0010
0000
,
1000
1000
0000
0000
,
0010
0010
0000
0000
,
0001
0001
0000
0000
,
0100
0100
0000
0000
,
0000
0000
0000
0000
,
0000
0000
0000
0000
,
1001
0000
0001
0001
,
0001
0001
0001
0000
,
0110
0000
0100
0100
,
0100
0100
0100
0000
,
1001
0000
1000
1000
,
1000
1000
1000
0000
,
0110
0000
0010
0010
,
0010
0010
0010
0000
,
1000
0000
0010
0000
,
0100
0000
0001
0000
,
0000
1000
0000
0000
;

//---------------dance-single - Blank----------------
#NOTEDATA:;
#CHARTNAME:;
#STEPSTYPE:dance-single;
#DESCRIPTION:Blank;
#CHARTSTYLE:;
#DIFFICULTY:Challenge;
#METER:14;
#RADARVALUES:0.791,0.693,0.137,0.032,0.761,508.000,13.000,3.000,0.000,0.000,0.000,0.000,0.000,0.791,0.693,0.137,0.032,0.761,508.000,13.000,3.000,0.000,0.000,0.000,0.000,0.000;
#CREDIT:;
#DISPLAYBPM:150.000;
#NOTES:
// measure 0
0010
0010
0010
0010
,  // measure 1
0100
0000
0100
0000
0100
0001
1000
0100
,  // measure 2
0010
0000
0001
0000
0010
0000
0001
0000
0000
0100
0001
0100
0001
0000
0100
0000
,  // measure 3
0010
0000
1000
0000
0010
0000
1000
0000
0000
0100
1000
0100
1000
0000
0010
0000
,  // measure 4
1000
0000
0001
0000
0010
0000
0100
0000
0000
1000
0001
0100
0001
0000
0100
0000
,  // measure 5
0010
1010
1000
1010
,  // measure 6
0010
1010
1000
1010
,  // measure 7
1000
0000
0001
1000
0001
0000
1000
0100
0000
0100
1000
0000
0001
0000
0100
0000
,  // measure 8
0010
0000
1000
0001
0000
0001
0010
0000
0100
1000
0100
0000
1000
0000
0010
0000
,  // measure 9
0100
0000
0010
0100
0010
0000
0100
0000
0001
0000
1000
0001
0000
0000
0010
0000
,  // measure 10
0100
1000
0100
1000
0001
1000
0001
0000
1000
0001
1000
0000
0100
0000
0010
0000
,  // measure 11
0110
0000
0100
0000
1000
0000
0001
1000
0000
0000
0001
0010
0001
0000
0010
0100
,  // measure 12
0000
1000
0100
0000
1000
0000
0001
0000
0100
0001
0100
0000
0010
0000
1000
0000
,  // measure 13
0100
0000
0100
0000
0010
0000
0001
0000
0100
0010
0000
1000
0000
0001
1000
0100
,  // measure 14
0010
0001
0010
0000
0001
0000
0010
0100
1000
0100
1000
0100
0010
0001
0100
0000
,  // measure 15
0010
0010
1000
0001
0010
0100
0010
0011
,  // measure 16
0001
0100
0000
0001
0100
0010
1000
0000
0001
0000
1000
0000
0010
0000
0100
0000
,  // measure 17
0010
0000
1000
0010
0000
1000
0010
0000
0100
0000
0001
1000
0001
1000
0000
0100
,  // measure 18
0010
0100
0010
0000
0100
1000
0000
0001
1000
0001
0100
0000
1000
0100
0000
0000
,  // measure 19
0010
0000
0010
0000
1000
0000
0001
1000
0000
0001
0000
0010
0100
0000
0110
0000
,  // measure 20
0100
1000
0000
0100
0000
0010
0000
0001
0100
0000
0010
0000
1000
0001
0000
0000
,  // measure 21
0100
0000
0001
0000
0010
0100
1000
0010
0000
0010
0000
0010
0000
0000
0100
0000
,  // measure 22
0001
1000
0001
0000
0100
0000
0010
0000
1000
0000
0100
0000
0010
0000
0001
0000
,  // measure 23
0010
0000
0001
0000
0010
0000
0001
0000
0000
0001
0100
0001
0100
0000
0010
0000
,  // measure 24
1000
0000
0010
0000
1000
0000
0010
0000
0000
1000
0100
1000
0100
0000
0010
0000
,  // measure 25
0100
0000
1000
0000
0100
0000
1000
0000
0000
0010
1000
0010
1000
0000
0100
0000
,  // measure 26
0010
0001
0010
0001
0100
0001
0000
1000
0000
0100
0010
0000
0001
0000
0100
0000
,  // measure 27
0010
0000
1000
0000
0010
0000
1000
0000
0000
0001
1000
0001
1000
0000
0100
0000
,  // measure 28
0010
0000
0001
0000
0010
0000
0001
0000
1000
0001
1000
0001
1000
0000
0100
0000
,  // measure 29
0010
0000
0001
0000
0100
0000
0010
0000
0000
0010
1000
0001
0010
0000
0100
0000
,  // measure 30
1000
0001
1000
0000
0001
1000
0001
0000
1000
0100
1000
0000
0100
0010
0100
0000
,  // measure 31
0020
0000
0000
0000
,  // measure 32
0130
0000
1000
0100
0000
1000
0100
0000
0010
0000
0001
0000
0100
0000
0010
0000
,  // measure 33
1000
0000
0001
1000
0001
0000
1000
0000
0001
0000
0010
0000
0100
0000
1000
0000
,  // measure 34
0001
0000
0100
0001
0100
0000
0010
0000
1000
0000
0001
0000
0010
0000
0100
0000
,  // measure 35
0110
0000
0100
0000
0100
0000
0100
1000
,  // measure 36
1010
0000
0010
0100
0010
0000
0100
0000
0001
0000
1000
0000
0100
0000
1000
0000
,  // measure 37
0100
0010
0000
0010
0100
1000
0010
0000
0100
0000
0001
0000
0100
0000
0010
0000
,  // measure 38
1000
0000
0001
1000
0000
1000
0001
0000
0010
0000
0100
0010
0100
0010
0000
0100
,  // measure 39
1000
0100
0010
0000
0001
1000
0000
0001
1000
0010
0001
0000
0010
1000
0000
0100
,  // measure 40
0010
0000
0100
0000
1000
0001
0000
0100
0000
0010
0000
1000
0001
0000
1000
0000
,  // measure 41
0100
0010
0000
0100
0000
1000
0010
0000
0100
0000
0001
0000
0010
0100
0000
0000
,  // measure 42
1000
0000
0100
0000
0010
0001
0010
0001
0000
1000
0000
0001
0000
0001
1000
0000
,  // measure 43
0100
0000
0010
0100
0000
0000
1000
0000
0100
0000
0010
0000
0001
0000
0000
0000
,  // measure 44
1000
0000
0001
1000
0000
0001
1000
0000
0010
0000
0100
0000
0010
0000
0100
0000
,  // measure 45
0001
0000
1000
0001
0000
1000
0001
0000
0010
0000
0100
0000
0010
0000
0100
0000
,  // measure 46
0110
0000
0100
0000
1000
0000
0001
0000
0000
0100
0001
0100
0001
0000
0010
0000
,  // measure 47
0100
0000
0010
0000
0001
0000
1000
0000
0000
0010
1000
0010
1000
0000
0100
0000
,  // measure 48
0010
0000
0001
0000
0100
0000
0010
0000
0000
1000
0010
0001
0010
0000
1000
0000
,  // measure 49
0010
1000
0010
0000
1000
0001
1000
0000
0001
0100
0001
0000
0100
0010
0100
0000
,  // measure 50
0010
0000
1000
0000
0100
0000
0001
0000
0000
0100
1000
0100
0001
0000
0100
0000
,  // measure 51
1000
0000
0010
0000
0001
0000
0010
0000
0100
0010
1000
0001
1000
0000
0100
0000
,  // measure 52
0010
0000
0001
0000
0100
0000
1000
0000
0000
0001
0010
0001
0010
0000
1000
0000
,  // measure 53
1001
0000
0001
0000
0010
0000
0100
0000
0000
0100
1000
0100
1000
0000
0001
0000
,  // measure 54
1001
0000
0001
0000
0010
0000
0100
0000
0000
1000
0100
0010
0001
0000
0100
0000
,  // measure 55
0010
1000
0010
0100
0001
0100
0010
0100
0001
0010
0100
1000
,  // measure 56
0000
2002
0000
0000
,  // measure 57
3003
0000
0000
0000
;
