#TITLE:D.A.N.C.E.;
#SUBTITLE:;
#ARTIST:Justice;
#TITLETRANSLIT:;
#SUBTITLETRANSLIT:;
#ARTISTTRANSLIT:;
#GENRE:Dance;
#CREDIT:;
#BANNER:D.A.N.C.E..png;
#BACKGROUND:D.A.N.C.E.-bg.png;
#LYRICSPATH:;
#CDTITLE:;
#MUSIC:D.A.N.C.E..mp3;
#OFFSET:0.010;
#SAMPLESTART:50.920;
#SAMPLELENGTH:15.000;
#SELECTABLE:YES;
#BPMS:0.000=113.000
;
#STOPS:
;
#BGCHANGES:-0.500=D.A.N.C.E..avi=1.000=0=0=0=StretchNoLoop====,
99999=-nosongbg-=1.000=0=0=0 // don't automatically add -songbackground-
;
#KEYSOUNDS:;
#ATTACKS:;

//---------------dance-single - ----------------
#NOTES:
     dance-single:
     :
     Easy:
     5:
     0.243,0.203,0.113,0.051,0.020,150.000,11.000,5.000,0.000,0.000,0.000,0.243,0.203,0.113,0.051,0.020,150.000,11.000,5.000,0.000,0.000,0.000:
0010
0010
0100
0000
,
0010
0001
1000
0000
,
0010
0010
0100
0000
,
0001
1000
0001
0000
,
0010
0010
0010
0000
,
0100
1000
0001
0000
,
0100
0100
0100
0000
,
0010
0010
1000
0001
,
0100
0100
0010
1000
,
0100
0100
0010
0001
,
1000
0010
0100
0001
,
1000
1000
0002
1003
,
0011
0000
0000
0000
0010
0000
0000
0000
0100
0000
0000
0000
0000
0000
0000
1001
,
0000
0100
0010
0000
,
1010
0000
0000
0000
0010
0000
0000
0000
0100
0000
0000
0000
0000
0000
0000
1001
,
0000
0100
0010
0000
,
0101
0000
0000
0000
0100
0000
0000
0000
0010
0000
0000
0000
0000
0000
0000
1001
,
0000
0010
0100
0000
,
1100
0000
0000
0000
0100
0000
0000
0000
0010
0000
0000
0000
0000
0000
0000
1001
,
0000
0010
0100
0000
,
0010
0010
1000
0001
,
1000
1000
0002
1003
,
0100
0100
0001
1000
,
0001
0001
2000
3001
,
0010
0100
0001
1000
,
0100
0100
0020
0130
,
0010
0001
1000
0010
,
0100
0100
0020
0130
,
0000
0010
0000
0000
0010
0000
0000
0010
,
0000
0100
0000
0000
0100
0000
0000
0100
,
0000
0001
0000
0000
0001
0000
0000
0001
,
0000
1000
1000
1000
,
0000
0100
0000
0000
0100
0000
0000
0100
,
0000
0010
0000
0000
0010
0000
0000
0010
,
0000
0001
0000
0000
0001
0000
0000
0001
,
0000
1000
1000
1000
,
0001
0010
0100
1000
,
0010
0000
0110
0000
,
0100
0001
1000
0100
,
0010
0010
0100
0100
,
1000
0010
0100
0001
,
0010
0000
0110
0000
,
0100
1000
0001
0100
,
0010
1000
0001
0010
,
0110
0000
0000
0000
;

//---------------dance-single - ----------------
#NOTES:
     dance-single:
     :
     Hard:
     13:
     0.655,0.566,0.614,0.143,0.399,374.000,60.000,14.000,0.000,0.000,0.000,0.655,0.566,0.614,0.143,0.399,374.000,60.000,14.000,0.000,0.000,0.000:
0010
0010
1000
0001
0010
0100
1000
0000
,
0010
1000
0001
0100
0110
0000
0000
0000
,
0010
1000
0001
0010
0001
0100
1000
0100
,
0001
0010
0100
1000
1001
0000
1000
0001
,
0200
0000
0010
0000
0310
0000
0100
0001
2000
0000
0100
0000
3100
0000
0000
0000
,
0020
0001
0100
1030
0200
0010
1300
0000
,
0100
0010
0001
1000
0010
0010
0110
0100
,
0001
0000
1000
0000
0100
0000
0010
0000
0001
0000
1000
0000
0001
0010
0001
0000
,
0100
0000
0010
0000
1000
0000
0100
1000
0100
0000
0010
0001
0010
0000
0100
1000
,
0100
0000
1000
0000
0010
0000
0100
0000
0001
0010
0100
0000
0010
0000
0100
0010
,
0001
0000
0100
0000
0010
0000
1000
0001
1000
0000
0001
1000
0001
0000
0010
0100
,
0010
0000
0001
0000
0010
0000
0001
0000
0100
0000
0000
0000
0110
0000
0000
0010
,
1000
0000
0001
0000
0010
0000
0100
0000
0010
0000
0001
0000
1001
0000
0000
1010
,
0000
0010
0100
0001
0010
1000
0001
0101
,
0000
0000
0100
0000
1100
0000
1000
0000
0010
0100
0010
0000
0100
0010
0000
1010
,
0000
0000
1000
0000
0001
0000
0010
0000
0100
1000
0001
0000
0100
0010
0000
0000
,
0110
0000
0010
0000
1010
0000
0000
0000
0101
0000
0001
0000
1001
0000
0000
1100
,
0000
0100
0010
0001
0100
1000
0001
0011
,
0000
0000
0010
0000
1000
0010
1000
0000
0001
1000
0001
0000
0100
0001
0000
0101
,
0000
0000
0001
0000
0010
0000
0100
0000
1000
0010
1000
0000
0100
0010
0000
0010
,
0100
0000
1000
0000
0100
0000
0001
0100
1000
0000
0010
0000
0001
0000
0000
0001
,
0010
0000
0010
0000
0200
0000
0310
0100
0010
0000
0010
1000
0001
0000
0000
0000
,
0010
0000
0100
0000
0010
0000
0011
0000
0101
0000
1010
0000
1100
0000
0100
0010
,
0100
0000
0100
0000
0020
0000
0130
0010
0100
0000
0000
0000
1001
0000
0000
0000
,
0011
0000
0100
0000
1000
0000
0001
1000
0010
0000
0100
0001
0100
0010
0100
0000
,
0010
0000
0010
0000
0200
0000
0310
0000
0100
0000
0100
0010
0200
0000
0310
0000
,
0010
0000
1000
0000
0001
0000
0011
0000
0101
0000
1010
0000
1100
0000
0100
0010
,
0100
0000
0000
0100
0000
0000
0020
0000
0000
0130
0000
0000
0110
0000
0000
0000
0000
0000
1001
0000
0000
1000
0001
1000
,
0001
0000
0011
0000
0000
0110
0000
0000
1100
0000
0000
1001
0000
0000
0001
0100
,
0000
0000
0110
0000
0000
1010
0000
0000
1001
0000
0000
0011
0000
0000
0110
0000
,
0100
0000
0110
0000
0000
1001
0000
0000
1010
0000
0000
0101
0000
0000
0001
1000
,
0001
0000
0001
0000
2000
0000
3001
1000
0100
0000
0100
0000
0020
0000
0130
0000
,
0010
0000
0011
0000
0000
0101
0000
0000
1010
0000
0000
1100
0000
0000
0100
0010
,
0000
0000
0011
0000
0000
1010
0000
0000
0101
0000
0100
1000
0100
0000
0010
0000
,
0110
0000
0011
0000
0000
1001
0000
0000
1010
0000
0000
0110
0000
0000
0010
1000
,
0001
0000
0001
0000
2000
0000
3001
1000
0010
0000
0000
0000
0110
0000
0000
0010
,
1000
0000
0001
0000
0010
0000
0100
0010
0100
1000
0001
0000
0100
0000
0001
0010
,
0000
0000
0010
0000
0100
1000
0100
0000
1000
0000
0001
0000
1000
0000
0010
0000
,
0100
0010
1000
0000
0100
0000
0001
0100
1000
0100
1000
0000
0010
0000
0010
0000
,
1000
0010
1000
0000
0010
0100
0010
0000
0100
0001
0100
0000
0001
1000
0000
0000
,
0011
0000
0010
0000
0110
0000
0100
0000
1100
0000
1001
0000
1001
0000
1000
0010
,
0000
0000
0100
0000
0010
1000
0010
0000
1000
0000
0001
0000
0010
0000
0100
0000
,
0010
0001
0010
0000
0001
0000
0100
0010
1000
0010
1000
0000
0001
0000
0001
0010
,
0100
1000
0100
0000
1000
0010
1000
0000
0010
0001
0010
0000
0001
0100
0000
0000
,
0220
0330
0000
0000
;

//---------------dance-single - ----------------
#NOTES:
     dance-single:
     :
     Medium:
     8:
     0.404,0.344,0.194,0.113,0.138,246.000,19.000,11.000,0.000,0.000,0.000,0.404,0.344,0.194,0.113,0.138,246.000,19.000,11.000,0.000,0.000,0.000:
0010
1000
0010
1000
0001
0000
0001
0000
,
0010
0001
0010
0001
0100
0000
0000
0000
,
0010
1000
0010
1000
0100
0000
0100
0000
,
0010
0100
0010
0100
1000
0000
0000
0000
,
0001
1000
0001
1000
0100
0000
0100
0000
,
0010
0100
0010
0001
0010
0000
0000
0000
,
0001
1000
0001
1000
0100
0000
0100
0000
,
1000
0010
1000
0100
1000
0000
0001
0000
,
1000
0000
1000
0000
0010
0100
0010
0000
,
1000
0000
1000
0000
0001
0010
0001
0000
,
0010
0000
0010
0000
0100
1000
0100
0000
,
1000
0100
0010
0001
0100
0000
0100
0000
,
0110
0000
0000
0000
0010
0000
0000
0000
1000
0000
0000
0000
0001
0000
0000
1001
,
0000
1000
0100
0010
0100
1000
0001
0100
,
0000
0000
0010
0000
0100
0000
0000
0000
0010
0000
0000
0000
1000
0000
0000
1001
,
0000
0000
0000
0000
1000
0000
0000
0000
0010
0000
1000
0000
0000
1001
0000
0000
,
0001
0000
0010
0000
0001
0000
0000
0000
0010
0000
0000
0000
0100
0000
0000
0110
,
0000
0100
1000
0010
0100
0001
1000
0100
,
0000
0000
0010
0000
0100
0000
0000
0000
1000
0000
0000
0000
0001
0000
0000
1001
,
0000
0000
0000
0000
1000
0000
0000
0000
0100
0000
0010
0000
0000
0110
0000
0000
,
0010
0000
0001
0000
0010
0000
0001
0000
0100
0000
0000
0000
0100
0000
0000
0110
,
0000
0010
1000
0000
0010
0010
0100
0000
,
0001
0000
1000
0000
0001
0000
1000
0000
0100
0000
0000
0000
0100
0000
0000
0110
,
0000
0000
0010
0000
0001
0000
0000
0020
0000
0000
0000
0000
0230
0000
0000
0000
,
1300
0000
0100
0000
1000
0000
0010
0000
0001
0000
0010
0000
1000
0000
0000
1001
,
0000
0001
0010
0000
0010
0010
0100
0000
,
0010
0000
0001
0000
0010
0000
1000
0000
0100
0000
1000
0000
0010
0000
0000
0110
,
0000
0100
1000
0000
0020
0000
0230
0000
,
0300
0000
0001
0000
0000
0001
0000
0000
1000
0000
0000
1000
0000
0000
1000
0000
,
0000
0000
0100
0000
0000
0100
0000
0000
0010
0000
0000
0010
0000
0000
0010
0000
,
0000
0000
0001
0000
0000
0010
0000
0000
0100
0000
0000
0010
0000
0000
0001
0000
,
1000
1000
2000
0000
3001
0001
0002
0000
,
0003
0000
0010
0000
0000
0010
0000
0000
0100
0000
0000
0100
0000
0000
0100
0000
,
0000
0000
1000
0000
0000
1000
0000
0000
0001
0000
0000
0001
0000
0000
0001
0000
,
0000
0000
0100
0000
0000
0010
0000
0000
1000
0000
0000
0010
0000
0000
0100
0000
,
0001
0001
0002
0000
2003
0000
3020
0000
,
0130
0000
0000
0000
0110
0000
0000
0000
0010
0000
0000
0000
1010
0000
0000
1001
,
0000
0001
0010
0100
0010
0001
1000
0010
,
0000
1000
0001
0000
1000
0000
0001
0000
,
0010
0000
0001
0000
0010
0000
0100
0000
0010
0000
0001
0000
0000
1001
0000
0000
,
1000
0000
0000
0000
1010
0000
0000
0000
0010
0000
0000
0000
0110
0000
0000
1010
,
0000
1000
0100
0001
0100
0010
0001
1000
,
0000
0010
1000
0000
0010
0000
0100
0000
,
0010
0000
1000
0000
0010
0000
0100
0000
0010
0000
1000
0000
0000
1001
0000
0000
,
0020
0030
0020
0030
;

//---------------dance-single - ----------------
#NOTES:
     dance-single:
     :
     Beginner:
     3:
     0.105,0.158,0.092,0.061,0.031,57.000,9.000,6.000,0.000,0.000,0.000,0.105,0.158,0.092,0.061,0.031,57.000,9.000,6.000,0.000,0.000,0.000: // measure 0
0000
0000
0000
0000
,  // measure 1
0000
0000
0000
0000
,  // measure 2
0000
0000
0000
0000
,  // measure 3
0000
0000
0000
0000
,  // measure 4
2000
0000
3200
0000
,  // measure 5
2300
0000
0100
0000
,  // measure 6
3002
0000
0023
0000
,  // measure 7
0032
0000
0010
0000
,  // measure 8
0103
0000
0100
0000
,  // measure 9
0100
0000
0000
0000
,  // measure 10
0010
0000
0010
0000
,  // measure 11
0010
0000
0000
0000
,  // measure 12
1001
0000
0000
0000
,  // measure 13
0110
0000
0000
0000
,  // measure 14
1001
0000
0000
0000
,  // measure 15
0110
0000
0000
0000
,  // measure 16
0011
0000
0000
0000
,  // measure 17
0011
0000
0000
0000
,  // measure 18
1100
0000
0000
0000
,  // measure 19
1100
0000
0000
0000
,  // measure 20
1000
0000
1000
0000
,  // measure 21
0001
0000
0000
0000
,  // measure 22
1000
0000
1000
0000
,  // measure 23
0001
0000
0000
0000
,  // measure 24
0100
0000
0100
0000
,  // measure 25
0010
0000
0000
0000
,  // measure 26
0100
0000
0100
0000
,  // measure 27
0010
0000
0000
0000
,  // measure 28
1000
0000
0000
0000
0000
0000
0000
0000
0000
0000
0000
0000
0000
0000
0000
0100
,  // measure 29
0000
0000
0000
0000
,  // measure 30
0010
0000
0000
0000
0000
0000
0000
0000
0000
0000
0000
0000
0000
0000
0000
0001
,  // measure 31
0000
0000
0000
0000
0000
0000
0000
1000
0000
0000
0000
0000
0000
0000
0000
0000
,  // measure 32
0001
0000
0000
0000
0000
0000
0000
0000
0000
0000
0000
0000
0000
0000
0000
0010
,  // measure 33
0000
0000
0000
0000
,  // measure 34
0100
0000
0000
0000
0000
0000
0000
0000
0000
0000
0000
0000
0000
0000
0000
1000
,  // measure 35
0000
0000
0000
0000
0000
0000
0000
0001
0000
0000
0000
0000
0000
0000
0000
0000
,  // measure 36
1000
0000
1000
0000
,  // measure 37
1000
0000
0000
0000
,  // measure 38
0100
0000
0100
0000
,  // measure 39
0100
0000
0000
0000
,  // measure 40
0001
0000
0001
0000
,  // measure 41
0001
0000
0000
0000
,  // measure 42
0010
0000
0010
0000
,  // measure 43
0010
0000
0000
0000
,  // measure 44
0110
0000
0000
0000
;
