#VERSION:0.81;
#TITLE:Crush. Kill. Destroy. Swag.;
#SUBTITLE:;
#ARTIST:General Mumble;
#TITLETRANSLIT:;
#SUBTITLETRANSLIT:;
#ARTISTTRANSLIT:;
#GENRE:Electro;
#ORIGIN:;
#CREDIT:;
#BANNER:Crush. Kill. Destroy. Swag..png;
#BACKGROUND:Crush. Kill. Destroy. Swag.-bg.png;
#PREVIEWVID:;
#JACKET:Crush. Kill. Destroy. Swag.-jacket.png;
#CDIMAGE:;
#DISCIMAGE:;
#LYRICSPATH:;
#CDTITLE:;
#MUSIC:Crush. Kill. Destroy. Swag..ogg;
#OFFSET:-11.320;
#SAMPLESTART:33.900;
#SAMPLELENGTH:15.000;
#SELECTABLE:YES;
#BPMS:0.000=85.001,
16.000=170.008,
17.000=169.997,
18.000=170.008,
20.000=169.997,
23.000=170.008,
24.000=169.997,
26.000=170.008,
27.000=169.997,
29.000=170.008,
30.000=169.997,
33.000=170.008,
34.000=169.997,
36.000=170.008,
37.000=169.997,
40.000=170.008,
41.000=169.997,
43.000=170.008,
44.000=169.997,
46.000=170.008,
47.000=169.997,
50.000=170.008,
51.000=169.997,
53.000=170.008,
54.000=169.997,
57.000=170.008,
58.000=169.997,
60.000=170.008,
61.000=169.997,
63.000=170.008,
64.000=169.997,
67.000=170.008,
68.000=169.997,
70.000=170.008,
71.000=169.997,
74.000=170.008,
75.000=169.997,
77.000=170.008,
78.000=169.997,
81.000=170.008,
82.000=169.997,
84.000=170.008,
85.000=169.997,
88.000=170.008,
89.000=169.997,
91.000=170.008,
92.000=169.997,
94.000=170.008,
95.000=169.997,
98.000=170.008,
99.000=169.997,
101.000=170.008,
102.000=169.997,
105.000=170.008,
106.000=169.997,
108.000=170.008,
109.000=169.997,
111.000=170.008,
112.000=169.997,
115.000=170.008,
116.000=169.997,
118.000=170.008,
119.000=169.997,
122.000=170.008,
123.000=169.997,
125.000=170.008,
126.000=169.997,
128.000=170.008,
129.000=169.997,
132.000=170.008,
133.000=169.997,
135.000=170.008,
136.000=169.997,
139.000=170.008,
140.000=169.997,
142.000=170.008,
143.000=169.997,
146.000=170.008,
147.000=169.997,
149.000=170.008,
150.000=169.997,
152.000=170.008,
153.000=169.997,
156.000=170.008,
157.000=169.997,
159.000=170.008,
160.000=169.997,
162.000=170.008,
163.000=169.997,
166.000=170.008,
167.000=169.997,
169.000=170.008,
170.000=169.997,
173.000=170.008,
174.000=169.997,
176.000=170.008,
177.000=169.997;
#STOPS:;
#DELAYS:;
#WARPS:;
#TIMESIGNATURES:0.000=4=4;
#TICKCOUNTS:0.000=4;
#COMBOS:0.000=1;
#SPEEDS:0.000=1.000=0.000=0;
#SCROLLS:0.000=1.000;
#FAKES:;
#LABELS:0.000=Song Start;
#BGCHANGES:;
#KEYSOUNDS:;
#ATTACKS:
;

//---------------dance-single - ----------------
#NOTEDATA:;
#CHARTNAME:;
#STEPSTYPE:dance-single;
#DESCRIPTION:;
#CHARTSTYLE:;
#DIFFICULTY:Beginner;
#METER:2;
#RADARVALUES:0.161,0.192,0.012,0.000,0.000,89.000,1.000,0.000,0.000,0.000,0.000,0.000,0.000,0.161,0.192,0.012,0.000,0.000,89.000,1.000,0.000,0.000,0.000,0.000,0.000,0.000;
#CREDIT:;
#NOTES:
// measure 0
1000
0000
0000
0000
,  // measure 1
0001
0000
0000
0000
,  // measure 2
0100
0000
0000
0000
,  // measure 3
0010
0000
0000
0000
,  // measure 4
0000
1000
0000
1000
,  // measure 5
0000
0001
0000
0001
,  // measure 6
0000
0100
0000
0100
,  // measure 7
0000
0010
0000
0010
,  // measure 8
0000
0100
0000
0100
,  // measure 9
0000
0001
0000
0001
,  // measure 10
0000
1000
0000
1000
,  // measure 11
0000
0000
0000
0000
,  // measure 12
1000
1000
1000
1000
,  // measure 13
1000
1000
1000
0000
,  // measure 14
0010
0010
0010
0010
,  // measure 15
0010
0010
0010
0000
,  // measure 16
0100
0100
0100
0100
,  // measure 17
0100
0100
0100
0000
,  // measure 18
0001
0001
0001
0001
,  // measure 19
0001
0001
0001
0000
,  // measure 20
0010
0000
0010
0000
,  // measure 21
0010
0000
0010
0000
,  // measure 22
0001
0000
0001
0000
,  // measure 23
0001
0000
0001
0000
,  // measure 24
0100
0000
0100
0000
,  // measure 25
0100
0000
0100
0000
,  // measure 26
1000
0000
1000
0000
,  // measure 27
1000
0000
1000
0000
,  // measure 28
0010
0000
0100
0000
,  // measure 29
0010
0000
0000
0000
,  // measure 30
1000
0000
0001
0000
,  // measure 31
1000
0000
0000
0000
,  // measure 32
0010
0000
0100
0000
,  // measure 33
0010
0000
0000
0000
,  // measure 34
0001
0000
1000
0000
,  // measure 35
0001
0000
0000
0000
,  // measure 36
0100
0000
0010
0000
,  // measure 37
0100
0000
0010
0000
,  // measure 38
1000
0000
0001
0000
,  // measure 39
1000
0000
0001
0000
,  // measure 40
0010
0000
0100
0000
,  // measure 41
0010
0000
0000
0000
,  // measure 42
0001
0000
1000
0000
,  // measure 43
0001
0000
0000
0000
,  // measure 44
1001
0000
0000
0000
;

//---------------dance-single - ----------------
#NOTEDATA:;
#CHARTNAME:;
#STEPSTYPE:dance-single;
#DESCRIPTION:;
#CHARTSTYLE:;
#DIFFICULTY:Easy;
#METER:6;
#RADARVALUES:0.302,0.275,0.012,0.000,0.000,168.000,1.000,0.000,0.000,0.000,0.000,0.000,0.000,0.302,0.275,0.012,0.000,0.000,168.000,1.000,0.000,0.000,0.000,0.000,0.000,0.000;
#CREDIT:;
#NOTES:
1000
0000
0010
0010
0010
0000
0100
0000
,
0001
0000
1000
1000
1000
0000
0010
0000
,
0100
0000
0001
0001
0001
0000
0010
0000
,
0100
0000
1000
0001
1000
0000
0000
0000
,
0010
1000
0100
0001
,
0100
1000
0010
0000
,
0010
0100
0001
1000
,
0100
0010
0001
0000
,
0010
0001
0100
0010
,
1000
0001
0010
0000
,
0100
1000
0010
0100
,
0001
1000
0010
0000
,
0010
1000
0010
1000
,
0001
0100
0001
0100
,
0001
0010
0001
0010
,
0100
1000
0100
1000
,
0001
0100
0010
1000
,
0001
0010
0100
0010
,
0001
1000
0010
0100
,
0010
1000
0001
0010
,
0100
0100
1000
1000
,
0010
0010
0001
0001
,
0100
0100
0001
0001
,
0010
0010
1000
1000
,
0010
0010
0001
0001
,
0100
0100
1000
1000
,
0100
0100
0001
0001
,
0010
0010
1000
1000
,
0010
1000
0100
1000
,
0010
0100
0001
0000
,
0010
0001
0100
0010
,
1000
0001
0010
0000
,
0010
0001
0100
1000
,
0100
0001
0010
0000
,
0010
1000
0100
0001
,
0100
1000
0010
0000
,
1000
0010
0100
0001
,
1000
0100
0010
0000
,
0010
0100
1000
0001
,
0100
0010
1000
0000
,
0100
1000
0010
0001
,
0010
1000
0100
0000
,
0100
0001
0010
1000
,
0010
0001
0100
0000
,
1001
0000
0000
0000
;

//---------------dance-single - ----------------
#NOTEDATA:;
#CHARTNAME:;
#STEPSTYPE:dance-single;
#DESCRIPTION:;
#CHARTSTYLE:;
#DIFFICULTY:Hard;
#METER:12;
#RADARVALUES:0.566,0.440,0.100,0.100,0.256,301.000,8.000,8.000,0.000,0.000,0.000,0.000,0.000,0.566,0.440,0.100,0.100,0.256,301.000,8.000,8.000,0.000,0.000,0.000,0.000,0.000;
#CREDIT:;
#NOTES:
2001
0000
3010
1000
0100
0000
1100
0000
,
2010
0000
3010
0001
0100
0000
0101
0000
,
2100
0000
3001
0100
1000
0000
1100
0000
,
0012
0000
0013
1000
0200
0000
0000
0000
,
1300
0000
0000
0000
0010
0000
0000
1000
0000
0000
1000
0000
0001
0000
0100
0000
,
0010
0000
0000
0000
1000
0000
0000
0001
0000
0000
0001
0000
0010
0000
0100
0000
,
1000
0000
0000
0000
0100
0000
0000
0010
0000
0000
0001
0000
0100
0000
0010
0000
,
1000
0000
0000
0000
0010
0000
0000
0100
0000
0000
0001
0000
0100
0000
0010
0000
,
1000
0000
0000
0000
0001
0000
0000
0010
0000
0000
0100
0000
0010
0000
0001
0000
,
1000
0000
0000
0000
0010
0000
0000
0100
0000
0000
0001
0000
0100
0000
0010
0000
,
1000
0000
0000
0000
0001
0000
0000
0010
0000
0000
0100
0000
0010
0000
0001
0000
,
1000
0000
0000
0000
0010
0000
0000
0100
0000
0000
0001
0000
0100
0000
0010
0000
,
1000
0100
1000
0010
0100
0001
0010
0001
,
0100
0010
1000
0001
0010
0100
1000
0010
,
0100
0001
0010
0001
1000
0100
1000
0010
,
0100
0001
0010
0100
1000
0010
0100
0001
,
0010
0100
1000
0001
0100
0010
1000
0100
,
0001
0010
0001
1000
0010
0100
0001
1000
,
0010
1000
0001
0100
0010
0100
0001
1000
,
0010
0100
0001
0010
0100
1000
0010
0100
,
0001
0000
0000
0001
0010
0000
0000
0010
0100
0000
0000
0100
1000
0000
0000
1000
,
0010
0000
0000
0010
0100
0000
0000
0100
0001
0000
0000
0001
0010
0000
0000
0010
,
0001
0000
0000
0001
0100
0000
0000
0100
0010
0000
0000
0010
1000
0000
0000
1000
,
0100
0000
0000
0100
0010
0000
0000
0010
0001
0000
0000
0001
1000
0000
0010
0000
,
0100
0001
0000
0000
0001
0100
0000
0000
0010
1000
0000
0000
1000
0010
0000
0000
,
0100
0001
0000
0000
1000
0100
0000
0000
0010
0001
0000
0000
0100
0010
0000
0000
,
1000
0001
0000
0000
0001
1000
0000
0000
1000
0010
0000
0000
0010
0100
0000
0000
,
0100
0001
0000
0000
0001
0010
0000
0000
0010
0100
0000
0000
0100
1000
0000
0000
,
1000
0000
0000
0000
0001
0000
0000
0100
0000
0000
0010
0000
0100
0000
0001
0000
,
1000
0100
1000
0010
0100
0001
0010
0001
,
0100
0010
1000
0001
0010
0100
1000
0100
,
0010
0000
0010
0001
0100
0010
1000
0001
,
0010
0001
0100
0010
1000
0000
1000
0000
,
0001
0100
0200
0310
,
1000
0000
0100
1000
0001
0100
0010
1000
,
0001
0000
0010
0000
2000
0000
3001
0100
,
0010
0000
0000
0000
1000
0000
0000
0001
0000
0000
1000
0000
0010
0000
0100
0000
,
0001
0010
0100
0010
0001
0100
0010
1000
,
0001
0010
0100
1000
0100
0010
0001
1000
,
0010
0000
0010
1000
0100
0001
0100
1000
,
0010
0100
0001
0100
0010
1000
0001
0010
,
0100
0000
1000
0000
2000
0000
3010
0100
,
0001
0010
0100
1000
0100
0010
0001
1000
,
0010
0100
0001
1000
,
1001
0000
0000
0000
;

//---------------dance-single - ----------------
#NOTEDATA:;
#CHARTNAME:;
#STEPSTYPE:dance-single;
#DESCRIPTION:;
#CHARTSTYLE:;
#DIFFICULTY:Challenge;
#METER:17;
#RADARVALUES:0.876,0.889,0.300,0.050,0.837,463.000,24.000,4.000,0.000,0.000,0.000,0.000,0.000,0.876,0.889,0.300,0.050,0.837,463.000,24.000,4.000,0.000,0.000,0.000,0.000,0.000;
#CREDIT:RIME;
#NOTES:
1000
0000
0000
0001
0010
0100
1000
0000
0010
0100
0000
0001
0010
0000
0000
0100
1000
0001
0010
0000
0100
1000
0000
0001
,
0100
0000
0000
0010
1000
0001
0010
0000
0100
1000
0000
1000
0010
0000
0000
0100
0001
1000
0100
0000
0010
0001
0000
0001
,
0100
0000
0000
0001
0010
0001
0010
0000
0100
1000
0000
1000
0010
0000
0000
1000
0010
1000
0010
0000
0100
0001
0000
0001
,
0010
0000
0000
0100
0010
0001
1000
0000
0010
1000
0000
0001
0200
0000
0000
0300
0000
0000
1001
0000
0000
0000
0000
0000
,
1000
0000
0000
0000
1100
0000
0100
0010
0100
0010
0100
0000
1000
0000
0001
0000
,
0100
0000
0000
0000
0101
0000
0001
0010
0001
0010
0001
0000
0100
0000
0010
0000
,
0110
0000
0000
0000
0010
0000
1000
0100
0010
0001
1000
0000
0100
0000
0010
0000
,
0110
0000
0000
0000
0100
0000
1000
0010
1000
0010
0100
0000
0001
0000
0010
0000
,
0011
0000
0000
0000
0001
0010
0001
0100
0010
0000
1000
0000
0100
0000
0010
0000
,
0011
0000
0000
0000
0010
0100
1000
0010
0100
0000
0001
0000
1000
0000
0100
0000
,
0010
0000
0000
0000
0110
0000
0100
0010
0001
1000
0010
0000
0100
0000
0001
0000
,
1000
0000
0000
0000
1001
0000
1000
0010
1000
0010
1000
0000
0001
0000
0100
0000
,
0101
0000
0001
0000
1000
0000
0100
1000
0010
0100
0001
0000
0100
0000
0001
0000
,
1000
0000
0010
0000
0001
0000
0010
0100
0001
1000
0100
0000
0010
0000
0000
0000
,
0100
0000
1000
0000
0020
0000
0130
0001
0100
0001
0100
0000
0001
0000
0010
0000
,
0100
0000
0001
0000
0100
0000
1000
0010
0100
0001
1000
0000
1001
0000
0000
0000
,
1000
0000
0100
0000
0010
0000
0100
1000
0001
0100
0010
0000
1000
0000
0100
0000
,
0001
0000
0100
0000
0010
0000
0001
0100
0010
1000
0100
0000
0110
0000
0000
0000
,
0100
0000
1000
0000
0010
0000
0100
0001
0010
0001
0100
0000
0010
0000
1000
0000
,
0100
0000
0010
0000
0100
1000
0100
0001
0100
0000
0010
0000
0110
0000
0000
0000
,
1000
0100
1000
0100
1000
0001
1000
0001
0100
0001
0100
0001
0010
0001
0010
0001
,
0010
0100
1000
0010
0100
0001
0010
0100
,
1000
0001
1000
0001
0100
0001
0100
0001
0010
0100
0010
0100
1000
0010
0100
0001
,
1000
0000
0000
0000
1001
0000
1000
0001
1000
0001
1000
0000
1100
0000
0000
0000
,
0100
0010
0100
0010
0001
0010
1000
0010
0001
0010
0100
1000
0001
0100
0001
0100
,
0010
1000
0100
0010
0100
1000
0001
0100
,
0010
1000
0100
0010
0001
1000
0001
0100
0010
1000
0100
0010
0001
1000
0010
0100
,
0010
0000
0000
0000
1010
0000
1000
0010
1000
0010
1000
0000
1001
0000
0000
0000
,
0001
0000
0001
0000
1000
0000
0010
1000
0010
0000
1000
0000
0100
0000
0001
0000
,
0100
0000
0100
0000
1000
0000
0010
0100
1000
0100
0010
0000
1000
0000
0000
0000
,
1000
0000
1000
0000
0001
0000
0010
0001
0010
0000
0001
0000
0100
0000
1000
0000
,
0100
0000
0100
0000
0001
0000
0010
0100
0001
0100
0010
0000
0001
0000
0000
0000
,
1000
0001
1000
0010
0001
1000
0001
0010
,
1000
0000
0001
0000
1000
0000
0010
0000
0110
0000
0100
0010
0100
0010
0100
0000
,
0001
1000
0001
0100
1000
0001
1000
0100
,
0001
0000
1000
0000
0001
0000
0100
0000
0110
0000
0010
0100
0010
0100
0010
0000
,
1000
0000
0000
0000
1100
0000
0100
0010
0001
1000
0100
0010
0100
1000
0001
0000
,
1000
0000
0000
0000
1001
0000
0001
0100
0010
1000
0100
1000
0100
0010
0001
0000
,
1000
0000
0000
0000
1100
0000
0100
0010
0001
1000
0001
0010
0100
1000
0001
0000
,
1000
0000
0000
0000
1100
0000
0100
0010
0001
1000
0010
0100
0001
0010
0100
0000
,
1000
0000
0001
0000
1000
0000
0100
0001
0100
0001
0100
0001
0100
0000
1000
0000
,
0001
0000
1000
0000
0001
0000
0100
1000
0100
1000
0100
1000
0100
0000
0001
0000
,
1000
0000
0001
0000
1000
0000
0010
0001
0010
0001
0010
0001
0010
0000
1000
0000
,
0001
0000
1000
0000
0001
0000
0010
1000
0010
1000
0010
1000
0010
0000
0001
0000
,
2002
0000
3003
0000
;

//---------------dance-single - Blank----------------
#NOTEDATA:;
#CHARTNAME:;
#STEPSTYPE:dance-single;
#DESCRIPTION:Blank;
#CHARTSTYLE:;
#DIFFICULTY:Medium;
#METER:9;
#RADARVALUES:0.400,0.330,0.387,0.000,0.000,193.000,31.000,0.000,0.000,0.000,0.000,0.000,0.000,0.400,0.330,0.387,0.000,0.000,193.000,31.000,0.000,0.000,0.000,0.000,0.000,0.000;
#CREDIT:;
#NOTES:
1000
0000
0100
0100
0010
0000
0110
0000
,
0001
0000
0100
0100
0010
0000
0110
0000
,
0010
0000
1000
1000
0001
0000
1001
0000
,
0010
0000
0001
0001
1000
0000
1001
0000
,
1000
0000
0100
0000
1000
0100
1000
0000
,
0001
0000
1000
0000
0001
0100
0001
0000
,
1000
0000
0100
0000
0010
0100
1000
0000
,
0001
0000
0100
0000
0010
0100
0001
0000
,
1000
0000
0001
0000
1000
0001
0100
0000
,
0001
0000
0010
0000
0001
0010
0001
0000
,
0010
0000
0100
0000
1000
0100
1000
0000
,
0001
0000
1000
0000
0001
1000
0001
0000
,
1000
0000
0100
0100
,
0110
0000
1001
0000
,
0001
0000
0100
0100
,
0110
0000
1001
0000
,
1000
0000
0001
0001
,
0011
0000
0000
0000
0010
0100
1000
0000
,
0010
0000
1000
1000
,
1010
0000
0000
0000
1000
0001
1000
0000
,
0001
0100
1000
0100
,
0001
0100
1000
0100
0001
0000
0000
0000
,
0001
0010
1000
0010
,
0001
0010
1000
0010
0001
0000
0000
0000
,
1000
0100
0001
0100
,
1000
0100
0001
0100
1000
0000
0000
0000
,
1000
0010
0001
0010
,
1000
0010
0001
0010
1000
0000
0000
0000
,
1001
0000
0001
0000
0100
0010
0100
0000
,
0110
0000
0010
0000
1000
0001
1000
0000
,
1001
0000
0001
0000
0100
0010
0100
0000
,
0010
0000
1010
0000
1000
0001
1000
0000
,
0100
1100
0100
0101
,
0100
0110
0010
0110
,
0010
0011
0010
1010
,
0010
0110
0010
0110
,
0100
0000
1000
0000
0010
1000
0010
0000
,
1000
0000
0001
0000
0010
0001
0010
0000
,
0100
0000
1000
0000
0001
1000
0001
0000
,
0100
0000
0001
0000
1000
0001
1000
0000
,
0100
0101
0100
1100
,
0100
0110
0010
0110
,
0010
1010
0010
0011
,
0010
0110
0100
0110
,
1001
0000
0000
0000
;

//---------------dance-double - ----------------
#NOTEDATA:;
#CHARTNAME:;
#STEPSTYPE:dance-double;
#DESCRIPTION:;
#CHARTSTYLE:;
#DIFFICULTY:Easy;
#METER:6;
#RADARVALUES:0.303,0.305,0.337,0.037,0.000,140.000,27.000,3.000,0.000,0.000,0.000,0.000,0.000,0.303,0.305,0.337,0.037,0.000,140.000,27.000,3.000,0.000,0.000,0.000,0.000,0.000;
#CREDIT:;
#NOTES:
// measure 0
00001000
00000100
00001000
00000010
,  // measure 1
00001000
00000100
00001000
00010000
,  // measure 2
00001000
00000100
00001000
00000001
,  // measure 3
00001001
00000000
00000100
00000100
00000100
00000000
00000020
00000000
,  // measure 4
00001030
00001100
00000000
00000010
,  // measure 5
00001000
00001010
00000000
00000001
,  // measure 6
00001000
00001100
00000000
00000100
,  // measure 7
00010000
00011000
00000000
00010000
,  // measure 8
01000000
01100000
00010000
10000000
,  // measure 9
01000000
01000000
10000000
00010000
,  // measure 10
01010000
00000000
00100000
00001000
,  // measure 11
00101000
00000000
00010000
00000100
,  // measure 12
00010100
00000010
00000001
00001000
,  // measure 13
00000001
00000000
00001100
00000000
,  // measure 14
00101000
01000000
10000000
00010000
,  // measure 15
10000000
00000000
01010000
00000000
,  // measure 16
00011000
00000000
00010000
01000000
,  // measure 17
10000000
00000000
10010000
00000000
,  // measure 18
00011000
00000000
00001000
00000100
,  // measure 19
00000001
00000000
00001001
00000000
,  // measure 20
00000010
00000010
00000010
00000010
,  // measure 21
00001000
00000100
00001000
00000100
,  // measure 22
00010000
00010000
00010000
00010000
,  // measure 23
00100000
00100000
10000000
00010000
,  // measure 24
01000000
01000000
01000000
01000000
,  // measure 25
00010000
00100000
00010000
00100000
,  // measure 26
00001000
00001000
00001000
00001000
,  // measure 27
00000010
00000010
00000001
00000001
,  // measure 28
00001001
00001000
00000000
00000001
,  // measure 29
00000000
00000100
00000010
00001000
,  // measure 30
00000100
00000000
00010000
00000000
,  // measure 31
01000000
00000000
10000000
00100000
,  // measure 32
01100000
00000000
00010000
00100000
,  // measure 33
01000000
00000000
00101000
00000000
,  // measure 34
00000110
00000000
00001000
00000100
,  // measure 35
00000010
00000000
00010100
00000000
,  // measure 36
00011000
00001000
00000000
00000100
,  // measure 37
00000000
00000100
00000010
00001000
,  // measure 38
00000100
00000000
00010000
00000000
,  // measure 39
01000000
00000000
10000000
00100000
,  // measure 40
01100000
00000000
00010000
00100000
,  // measure 41
01000000
00000000
00101000
00000000
,  // measure 42
00000110
00000000
00001000
00000100
,  // measure 43
00000010
00000000
00010100
00000000
,  // measure 44
00022000
00000000
00000000
00033000
00000000
00000000
00000000
00000000
;

//---------------dance-double - ----------------
#NOTEDATA:;
#CHARTNAME:;
#STEPSTYPE:dance-double;
#DESCRIPTION:;
#CHARTSTYLE:;
#DIFFICULTY:Medium;
#METER:9;
#RADARVALUES:0.444,0.387,0.475,0.050,0.025,207.000,38.000,4.000,0.000,0.000,0.000,0.000,0.000,0.444,0.387,0.475,0.050,0.025,207.000,38.000,4.000,0.000,0.000,0.000,0.000,0.000;
#CREDIT:;
#NOTES:
00020000
00000000
00000100
00001000
00030100
00000000
00011000
00000000
,
00002000
00000000
00010000
00100000
00013000
00000000
00011000
00000000
,
00000100
00000000
00000100
00001000
00000010
00000000
00000100
00000010
,
00001001
00000000
00000001
00000100
00001000
00000000
00200000
00300000
,
11000000
00000000
00000000
00000000
10000000
00000000
00000000
00010000
00000000
00000000
01000000
00000000
00010000
00000000
00000000
00000000
,
01000000
00000000
00000000
00000000
00010000
00000000
00000000
00100000
00000000
00000000
00001000
00000000
00010000
00000000
00000000
00000000
,
00000100
00000000
00000000
00000000
00001000
00000000
00000000
00000010
00000000
00000000
00001000
00000000
00000001
00000000
00000000
00000000
,
00000010
00000000
00000000
00000000
00000100
00000000
00000000
00001000
00000000
00000000
00000010
00000000
00000100
00000000
00000000
00000000
,
00000001
00000000
00000001
00000000
00000001
00000100
00001000
00000100
,
00000001
00000000
00000001
00000000
00001000
00000100
00010000
00001000
,
00010000
00000000
00010000
00000000
00010000
01000000
10000000
01000000
,
00010000
00000000
00010000
00000000
00010000
00001000
00010000
00000000
,
00001100
00000000
00000011
00000110
,
00000011
00000000
00001001
00000000
,
00001100
00000000
00011000
00101000
,
00011000
00000000
01010000
00000000
,
10000000
00010000
01000000
00010000
,
01010000
00100000
00011000
00010000
,
00001000
00000010
00000001
00000100
,
00001010
00000100
00011000
00001000
,
01000000
00100000
01000000
00000000
00100000
00000000
00100000
00000000
,
10000000
10000000
01000000
01000000
,
00100000
00010000
00100000
00000000
00001000
00000000
00001000
00000000
,
00010000
00000000
00010000
00000000
00000010
00001000
00000010
00001000
,
00000010
00000100
00000010
00000000
00000100
00000000
00000100
00000000
,
00000001
00000001
00001000
00001000
,
00000100
00010000
00000100
00000000
00010000
00000000
00010000
00000000
,
00001000
00000000
00001000
00000000
00100000
00010000
00100000
00010000
,
01000000
00000000
01100000
00000000
00010000
10000000
01000000
00000000
,
00100000
00000000
00010000
00000000
01000000
00000000
00010000
01000000
,
00100000
00000000
10000000
00000000
00010000
01000000
00010000
00000000
,
00100000
00000000
00001000
00000000
00010000
00000100
00010000
00000000
,
00001100
00000100
00001100
00001001
,
00000011
00000100
00001001
00000010
,
00000011
00000010
00000011
00001001
,
00001100
00000000
00000010
00000000
00000001
00000100
00000001
00000100
,
00000010
00000000
00001100
00000000
00010000
00001000
01000000
00000000
,
00100000
00000000
10000000
00000000
01000000
00000000
00100000
00010000
,
01000000
00000000
00100000
00000000
10000000
00100000
10000000
00000000
,
01000000
00000000
00010000
00000000
00000100
00010000
00000100
00000000
,
00001100
00000010
00000110
00000101
,
00001010
00000100
00001001
00001000
,
00000011
00000100
00001010
00010010
,
00011000
00000000
00001000
00000000
00010000
01000000
10000000
00100000
,
02000000
03000000
00000000
00000000
;

//---------------dance-double - ----------------
#NOTEDATA:;
#CHARTNAME:;
#STEPSTYPE:dance-double;
#DESCRIPTION:;
#CHARTSTYLE:;
#DIFFICULTY:Hard;
#METER:13;
#RADARVALUES:0.642,0.584,0.450,0.162,0.206,311.000,36.000,13.000,0.000,0.000,0.000,0.000,0.000,0.642,0.584,0.450,0.162,0.206,311.000,36.000,13.000,0.000,0.000,0.000,0.000,0.000;
#CREDIT:;
#NOTES:
00000002
00000000
00000000
00000000
00000000
00000000
00000103
00000000
00000010
00000100
00000000
00000000
00002000
00000000
00000000
00000000
00000000
00000000
00003100
00000000
00010000
00001000
00000000
00000000
,
02000000
00000000
00000000
00000000
00000000
00000000
03010000
00000000
10000000
01000000
00000000
00000000
00020000
00000000
00000000
00000000
00000000
00000000
00030010
00000000
00001000
00010000
00000000
00000000
,
00000200
00000000
00000000
00000000
00000000
00000000
00000301
00000000
00000001
00001000
00000000
00001000
00000001
00000000
00000000
00000000
00000000
00000000
00001000
00000000
00001000
00000100
00000000
00000100
,
00010000
00000000
00000000
00000000
00000000
00000000
00001000
00000000
00001000
00100000
00000000
00100000
00010000
00000000
00000000
00000000
00000000
00000000
20020000
00000000
00000000
00000000
30030000
00000000
,
01100000
00000000
00000000
00000000
01000000
00000000
00000000
00010000
00000000
00000000
00100000
00000000
01000000
00000000
10000000
00000000
,
00010000
00000000
00000000
00000000
00101000
00000000
00000000
00100000
00000000
00000000
00010000
00000000
00001000
00000000
00010000
00000000
,
01000000
00000000
00000000
00000000
00011000
00000000
00000000
00001000
00000000
00000000
00000100
00000000
00000001
00000000
00000100
00000000
,
00001000
00000000
00000000
00000000
00001001
00000000
00000000
00000001
00000000
00000000
00000010
00000000
00000100
00000000
00001000
00000000
,
00001000
00000000
00000000
00000000
00001100
00000000
00000000
00001000
00000000
00000000
00000100
00000000
00010000
00000000
00001000
00000000
,
00011000
00000000
00000000
00000000
01010000
00000000
00000000
00010000
00000000
00000000
00100000
00000000
00001000
00000000
00100000
00000000
,
00110000
00000000
00000000
00000000
10100000
00000000
00000000
01000000
00000000
00000000
00010000
00000000
00100000
00000000
01000000
00000000
,
00010000
00000000
00000000
00000000
00010100
00000000
00000000
00000100
00000000
00000000
00000010
00000000
00000001
00000000
00001000
00000000
,
00000100
00001000
00000010
00001000
00000100
00001000
00010000
00001000
,
00000010
00000100
00000001
00000010
00000200
00000000
00010300
00000000
,
00001000
00010000
00001000
00100000
00001000
00010000
01000000
10000000
,
00100000
01000000
00010000
01000000
00200000
00000000
00301000
00000000
,
00000100
00001000
00000010
00001000
00000100
00001000
00010000
00001000
,
00000010
00000100
00000001
00000010
00000200
00000000
00010300
00000000
,
00001000
00010000
00001000
00100000
00001000
00010000
01000000
10000000
,
00100000
01000000
00010000
01000000
00200000
00000000
00301000
00000000
,
10010000
00000000
00000000
10000000
00100000
00000000
01000000
00100000
01000000
00000000
00010000
00000000
01000000
00000000
00100000
00000000
,
01000000
00000000
00000000
00001000
00100000
00000000
00001000
00010000
00001000
00000000
00010000
00000000
00000100
00000000
00001000
00000000
,
00000100
00000000
00010000
00001000
00010000
00000000
00001000
01000000
00001000
00000000
00100000
00000000
00010000
00000000
10000000
00000000
,
01000000
00100000
00010000
10000000
00100000
00100000
01000000
01000000
,
10010000
00000000
00000000
10000000
00100000
00000000
01000000
00100000
01000000
00000000
00010000
00000000
00001000
00000000
00000010
00000000
,
00001000
00000000
00000000
00001000
01000000
00000000
00100000
10000000
00100000
00000000
01000000
00000000
00010000
00000000
10000000
00000000
,
01000000
00000000
00010000
00001000
00010000
00000000
00001000
01000000
00001000
00000000
00100000
00000000
00010000
00000000
10000000
00000000
,
01000000
00100000
00010000
10000000
00100000
00100000
01000000
01000000
,
00010000
00000000
10010000
00000000
00010000
00001000
00010000
00001000
,
00010000
00000100
00010000
00001000
00010000
00000100
00000010
00000001
,
00001000
00000000
00001001
00000000
00001000
00010000
00001000
00010000
,
00001000
00100000
01000000
10000000
00100000
01000000
00010000
10000000
,
10010000
00000000
01000000
00100000
01100000
00000000
10000000
00000000
,
00110000
00000000
00010000
00000000
00001010
00000000
00000001
00000100
,
00001001
00000000
00000010
00000100
00000110
00000000
00001000
00000000
,
00010100
00000000
01000000
00100000
11000000
00000000
00001000
01000000
,
00110000
00000000
00100000
00000000
00010000
01000000
00001000
00010000
,
00000100
00000000
00010000
00000000
00001000
00000000
01000000
00000000
00100000
00000000
10000000
01000000
10000000
00000000
00100000
00000000
,
10000000
00000000
00010000
00000000
00001000
00000100
00001000
00010000
,
00000010
00000000
00001000
00000100
00001000
00000000
00000001
00000100
00000001
00000000
00001000
00000000
00001100
00000000
00100000
00000000
,
00101000
00000000
10100000
00000000
00010000
00100000
11000000
00000000
,
00011000
00000000
00010000
00000100
00001100
00000000
01000000
00000000
,
01010000
00000000
00100000
00001000
00011000
00000000
00000110
00000000
,
00000011
00000000
00001000
00000000
01100000
10000000
00010000
01000000
,
00002200
00000000
00003300
00000000
;

//---------------dance-double - ----------------
#NOTEDATA:;
#CHARTNAME:;
#STEPSTYPE:dance-double;
#DESCRIPTION:;
#CHARTSTYLE:;
#DIFFICULTY:Challenge;
#METER:18;
#RADARVALUES:0.890,0.889,0.737,0.075,0.693,434.000,59.000,6.000,0.000,0.000,0.000,0.000,0.000,0.890,0.889,0.737,0.075,0.693,434.000,59.000,6.000,0.000,0.000,0.000,0.000,0.000;
#CREDIT:;
#NOTES:
10010000
00000000
00000000
01000000
00000000
00000000
00010000
00000000
00100000
00010000
00000000
00100000
00001000
00000000
00000000
00110000
00000000
00000000
00001000
00000000
01000000
00001000
00000000
00100000
,
00001000
00000000
00000000
00001100
00000000
00000000
00001000
00000000
00000010
00010000
00000000
00000100
00010000
00000000
00000000
00001001
00000000
00000000
00000010
00000000
00000100
00001000
00000000
00000100
,
00000001
00000000
00000000
00000011
00000000
00000000
00001000
00000000
00001000
00010000
00000000
00100000
10000000
00000000
00000000
10100000
00000000
00000000
00010000
00000000
00010000
00001000
00000000
00000010
,
00000011
00000000
00001000
00000000
00011000
00000000
10000000
00000000
02020000
00000000
00000000
03030000
00000020
00000000
00000030
00000000
,
00000100
00000000
00001000
00000000
00000100
00000000
00000001
00000010
00000000
00000010
00000001
00000010
00000001
00000000
00001000
00000000
,
00000100
00000000
00001000
00000000
00100000
00000000
10000000
01000000
00000000
01000000
10000000
01000000
10000000
00000000
00010000
00000000
,
01000000
00000000
00100000
00000000
00010000
00000000
00001000
00000010
00000000
00000010
00001000
00000010
00000100
00000000
00000010
00000000
,
00000001
00000000
00000100
00000000
00010000
00000000
01000000
10000000
00000000
10000000
01000000
00100000
10000000
00000000
01000000
00000000
,
00011000
00000000
00000000
00000000
00001010
00000000
00001000
00000010
00000000
00001000
00000100
00000000
00000100
00000000
00010000
00000000
,
00010100
00000000
00000000
00000000
01010000
00000000
01000000
00010000
00000000
00100000
00010000
00000000
00010000
00000000
01000000
00000000
,
01001000
00000000
00000000
00000000
00011000
00000000
00000100
00010000
00000000
00001000
00010000
00000000
00000100
00000000
00001000
00000000
,
00000110
00000000
00000000
00000000
00011000
00000000
01000000
00010000
00000000
00100000
00010000
00000000
01000000
00000000
00001000
00000000
,
00011000
00000000
00010000
00001000
00000100
00000000
00000010
00000000
00001010
00000000
00000001
00000000
00000101
00000000
00000010
00000000
,
00001100
00000000
00010000
00000000
00100000
00000000
00010000
00000000
00001100
00000000
00000000
00000000
00100000
00010000
00001000
00000000
,
00011000
00000000
00001000
00010000
00100000
00000000
00010000
00000000
01010000
00000000
10000000
00000000
11000000
00000000
00100000
00000000
,
01100000
00000000
00001000
00000000
00010000
00000000
00001000
00000000
01100000
00000000
00000000
00000000
00010000
00100000
00001000
00000000
,
00011000
00000000
00010000
00000100
00001000
00000000
00000010
00000000
00000011
00000000
00001000
00000000
00001100
00000000
00100000
00000000
,
00101000
00000000
00000100
00000000
00001000
00000000
00010000
00000000
01100000
00000000
00000000
00000000
00010000
10000000
01000000
00000000
,
01100000
00000000
00100000
00010000
01000000
00000000
00001000
00000000
00101000
00000000
00010000
00000000
00010100
00000000
00001000
00000000
,
00001001
00000000
00000200
00000300
,
00001000
00000010
00000100
00000010
00001000
00000010
00000100
00000010
00001000
00000010
00000100
00000010
00001000
00000000
00000001
00000000
,
00000010
00000000
00000100
00000000
00001000
00000000
00000001
00000100
00000010
00000000
00010000
00000100
00001000
00000000
00100000
00000000
,
01000000
00010000
00100000
00010000
01000000
00010000
00100000
00010000
01000000
00010000
00100000
00010000
01000000
00000000
10000000
00000000
,
01000000
00000000
00100000
00000000
00010000
00000000
01000000
00000000
00001000
00010000
00100000
00000000
00010000
00100000
10000000
00000000
,
01000000
00010000
00001000
00010000
01000000
00010000
00001000
00010000
01000000
00010000
00001000
00010000
01000000
00000000
00100000
00000000
,
00010000
00000000
00000100
00000000
00000001
00000000
00000010
00000000
00001000
00000010
00000001
00000000
00001000
00010000
00000100
00000000
,
00000010
00001000
00010000
00001000
00000010
00001000
00010000
00001000
00000010
00001000
00010000
00001000
00000010
00001000
00010000
00100000
,
10000000
00100000
00010000
00001000
00100000
01000000
00010000
00001000
00000010
00000001
00000010
00001000
00000100
00000010
00001000
00010000
,
00100000
00000000
00000000
00000000
11000000
00000000
00010000
01000000
00010000
01000000
00010000
00000000
00100000
00000000
00001000
00000000
,
00010000
00000000
00000100
00000000
00000010
00000100
00001000
00000001
00000100
00000000
00000010
00000000
00001010
00000000
00010000
00000000
,
00101000
00000000
00000000
00000000
00000011
00000000
00001000
00000100
00001000
00000100
00001000
00000000
00000010
00000000
00001000
00000000
,
00000100
00000000
00010000
00000000
00100000
10000000
01000000
00100000
00010000
00000000
00001000
00000000
01100000
00000000
00001000
00000000
,
00011000
00000000
00000100
00001000
00000100
00000000
00010000
00000100
00010000
00000000
00001000
00100000
00001000
00000000
10000000
00100000
,
00010000
00000000
00001000
00000000
01000000
00000000
00100000
00000000
00001100
00000000
00000000
00000000
00000001
00000100
00000001
00000100
,
00000101
00000000
00000010
00000100
00001000
00000000
00000001
00000100
00001000
00000000
00000100
00001000
00100000
00000000
00010000
00001000
,
00010000
00000100
00010000
00100000
10010000
00000000
01000000
00000000
,
00101000
00000000
00001000
00000000
00100000
00000000
00010000
00000100
00001000
00100000
00010000
00000000
00010000
00000000
01000000
00000000
,
00010000
00000000
00000100
00000000
00000010
00001000
00010000
01000000
00010000
00000000
00010000
00000000
10000000
00000000
00010000
00000000
,
01010000
00000000
00000000
00000000
00110000
00000000
00000010
00001000
00010000
00000010
00000001
00000000
00001000
00000000
00000010
00000000
,
00001000
00000000
00000100
00000000
00010000
00100000
10000000
01000000
00010000
00000000
01000000
00000000
11000000
00000000
00010000
00000000
,
00101000
00000000
00010000
10000000
01000000
00000000
00010000
00000000
00101000
00000000
10000000
00000000
00101000
00000000
01000000
00000000
,
00011000
00000000
00100000
00000000
00010000
00000000
00000010
00000000
00001100
00000000
00000000
00000000
00000001
00000100
00001000
00000100
,
00000001
00000000
00001000
00000100
00010000
00000000
00010000
00100000
10100000
00000000
00010000
00000000
11000000
00000000
00100000
00010000
,
00110000
10000000
01000000
00100000
00011000
10000000
00100000
00001000
,
00000022
00000000
00000033
00000000
;
