#VERSION:0.81;
#TITLE:Cowboy Casanova;
#SUBTITLE:;
#ARTIST:Carrie Underwood;
#TITLETRANSLIT:;
#SUBTITLETRANSLIT:;
#ARTISTTRANSLIT:;
#GENRE:Country;
#ORIGIN:;
#CREDIT:;
#BANNER:Cowboy Casanova.png;
#BACKGROUND:Cowboy Casanova-bg.png;
#PREVIEWVID:;
#JACKET:Cowboy Casanova-jacket.png;
#CDIMAGE:;
#DISCIMAGE:;
#LYRICSPATH:;
#CDTITLE:;
#MUSIC:Cowboy Casanova.mp3;
#OFFSET:-0.058;
#SAMPLESTART:47.780;
#SAMPLELENGTH:15.000;
#SELECTABLE:YES;
#BPMS:0.000=118.347,
1.000=121.220,
2.000=119.810,
3.000=119.804,
4.000=119.967,
8.000=120.054,
12.000=119.929,
16.000=120.147,
20.000=119.967,
24.000=120.229,
28.000=119.620,
32.000=120.076,
36.000=119.951,
37.000=122.796,
38.000=117.225,
39.000=119.946,
40.000=120.038,
44.000=120.054,
48.000=119.924,
52.000=120.022,
56.000=119.989,
60.000=120.712,
64.000=119.404,
68.000=119.447,
72.000=120.442,
75.000=120.426,
76.000=119.967,
80.000=120.142,
84.000=119.837,
88.000=120.142,
92.000=121.109,
96.000=118.783,
99.000=118.767,
100.000=126.000,
101.000=114.804,
102.000=120.147,
104.000=120.273,
108.000=119.664,
112.000=119.967,
116.000=127.506,
117.000=113.504,
118.000=120.098,
120.000=119.837,
124.000=119.361,
126.000=122.183,
127.000=119.361,
128.000=123.213,
129.000=120.344,
130.000=113.723,
131.000=123.219,
132.000=116.502,
133.000=120.580,
134.000=122.003,
136.000=119.880,
144.000=119.664,
148.000=120.844,
152.000=118.209,
156.000=119.318,
160.000=120.011,
164.000=119.361,
168.000=119.750,
172.000=121.021,
176.000=118.889,
180.000=122.500;
#STOPS:;
#DELAYS:;
#WARPS:;
#TIMESIGNATURES:0.000=4=4;
#TICKCOUNTS:0.000=4;
#COMBOS:0.000=1;
#SPEEDS:0.000=1.000=0.000=0;
#SCROLLS:0.000=1.000;
#FAKES:;
#LABELS:0.000=Song Start;
#BGCHANGES:;
#KEYSOUNDS:;
#ATTACKS:
;

//---------------dance-single - ----------------
#NOTEDATA:;
#CHARTNAME:;
#STEPSTYPE:dance-single;
#DESCRIPTION:;
#CHARTSTYLE:;
#DIFFICULTY:Easy;
#METER:5;
#RADARVALUES:0.281,0.244,0.074,0.266,0.000,153.000,7.000,25.000,0.000,0.000,0.000,0.000,0.000,0.281,0.244,0.074,0.266,0.000,153.000,7.000,25.000,0.000,0.000,0.000,0.000,0.000;
#CREDIT:;
#NOTES:
0000
0002
0003
2000
,
3000
0010
1000
0100
,
0010
0002
0003
2000
,
3000
0010
0100
0001
,
1000
0200
0300
0020
,
0030
0001
0010
0100
,
1000
0020
0030
0200
,
0300
0001
0100
0001
,
1000
0002
0003
2000
,
3000
0010
0010
0010
,
0000
2000
3000
0002
,
0003
0010
0010
0010
,
0000
0100
1000
0100
,
0001
1000
0010
0001
,
0010
0200
0000
0000
,
0000
0000
1000
1000
,
1300
2000
0010
3010
,
0000
0010
1000
0100
,
0010
0002
0010
0013
,
0000
0001
1000
0100
,
1000
0010
0001
0010
,
1000
0100
0001
0100
,
1000
0002
0000
1000
,
1003
2000
0000
0001
,
3001
0000
1001
0110
,
0000
0010
1000
0100
,
0010
0001
0001
0100
,
0100
0020
1000
0100
,
1030
0010
1001
0110
,
0010
0001
0100
0010
,
1000
0001
0100
1000
,
0001
0020
1000
0100
,
1030
0010
0010
0100
,
0100
0001
1000
0001
,
1000
0100
0100
0010
,
0010
0001
1000
0001
,
1000
0010
1000
0100
,
0010
0001
1001
0000
,
1001
2000
3000
0002
,
0003
0010
0100
0010
,
0100
2000
3000
0002
,
0003
0010
0001
0100
,
1000
0002
0003
2000
,
3000
0001
0010
1000
,
0100
0010
0010
0100
,
0100
1000
0001
1000
,
1001
0000
0000
0000
,
0000
0000
0000
0000
;

//---------------dance-single - ----------------
#NOTEDATA:;
#CHARTNAME:;
#STEPSTYPE:dance-single;
#DESCRIPTION:;
#CHARTSTYLE:;
#DIFFICULTY:Hard;
#METER:12;
#RADARVALUES:0.548,0.538,0.191,0.106,0.924,333.000,18.000,10.000,0.000,0.000,0.000,0.000,0.000,0.548,0.538,0.191,0.106,0.924,333.000,18.000,10.000,0.000,0.000,0.000,0.000,0.000;
#CREDIT:;
#NOTES:
2000
0000
0000
3001
0000
0000
1000
0000
0010
1000
0000
1000
,
0001
0000
0000
0000
0010
0000
0100
0000
0000
0000
1000
0100
1000
0000
0000
0000
0010
0000
1000
0000
0000
0000
0001
0000
,
1000
0000
0100
0010
0000
0000
0001
0000
0010
0100
0000
0010
,
0001
0000
0000
0000
0100
0000
0001
0000
0000
0000
1000
0001
1000
0000
0000
0000
0100
0000
0010
0000
0000
0000
0100
0000
,
1000
0000
0001
1000
0000
0000
0010
0000
1000
0001
0000
0010
,
0001
0000
0000
0000
0010
0000
0100
0000
0000
0000
1000
0100
0010
0000
0000
0000
0001
0000
0100
0000
0000
0000
0010
0000
,
1000
0000
0100
0010
0000
0000
0100
0000
0100
0000
0000
0010
,
0100
0000
0100
1000
0000
1000
0001
0000
0001
0100
0000
0100
,
0020
0000
1030
0010
0000
0000
1010
0000
1000
0001
0000
0000
,
0010
0000
0011
0000
0000
0011
0000
0000
0010
0100
0000
1000
,
0000
0010
0000
1010
0000
0000
1000
0000
0001
0010
0000
0000
,
0011
0000
0110
0000
0000
0110
0000
0000
0100
1000
0000
0000
,
0001
0000
1000
0100
1000
0100
0001
0100
0001
0100
1000
0010
,
0100
0001
0010
1000
0010
0001
1000
0000
0100
0010
0000
0001
,
0000
0000
0100
0010
0000
0000
1000
0000
0010
1000
0000
0000
,
0001
0000
1000
0001
0000
1000
0010
0000
0100
0001
0000
0010
,
0001
0000
0010
0100
0000
0000
1000
0100
0010
0002
0000
0000
,
0000
0000
1003
0001
0000
1000
0001
0000
0010
0100
0000
0010
,
0100
0000
1000
0100
0000
0000
0220
0030
0000
0020
0030
0000
,
0000
0000
0000
0000
0310
0100
1000
0000
0000
0000
0001
0000
1000
0000
0001
0000
1000
0000
0100
0000
0000
0000
0000
0000
,
0010
0000
0100
1000
0100
1000
0001
1000
0001
0100
0001
0100
,
0010
1000
0010
1000
0001
1000
0001
0010
0001
0010
0000
0100
,
0000
0000
0100
0010
0000
0000
0010
0000
0000
0001
0000
1000
,
0001
0000
0000
0000
1000
0000
0010
0000
0000
0000
1000
0000
0010
1000
0100
0000
0010
0000
0001
0000
0100
0000
0001
0000
,
1000
0001
1000
0000
0000
0100
0010
0000
0000
0110
0000
0000
,
0010
0000
0101
0000
0000
0001
1000
0000
0100
1000
0000
0010
,
0100
0000
0001
1000
0000
0100
0010
0000
0001
1000
0000
0010
,
1000
0000
0200
0000
0000
0000
0010
0000
0000
0310
0100
0010
,
0100
0000
0010
0001
0000
1000
0001
0000
0000
1001
0000
0000
,
0010
0000
1100
0000
0000
1001
0000
0000
0001
0100
0000
0100
,
0010
0000
0010
1000
0000
1000
0100
0000
0100
0001
0000
0100
,
0010
0000
0010
0001
0000
0000
0100
0000
1010
0000
0000
0002
,
0000
0000
1003
0001
1000
0010
0100
0000
0110
0000
0000
0000
,
0010
0000
0000
0000
1000
0000
0000
0100
0000
0000
1000
0000
0000
0000
0000
0000
0001
0000
0000
0000
0000
0000
0101
0000
,
0000
0000
0001
1000
0000
1000
0100
0000
0000
0010
0000
0100
,
0010
0000
0220
0000
0000
0000
0000
0000
0330
0000
0000
0000
,
0100
0000
1000
0001
0000
0001
0100
0000
0001
1000
0000
1000
,
0100
0000
0010
0000
0000
0100
0010
0000
0010
0100
0000
0010
,
0001
0010
0001
0100
0000
0000
0010
0000
1000
0001
0000
0001
,
0010
0000
0000
0000
0010
0000
0100
0000
0000
0000
1000
0100
0010
0000
0000
0000
0010
0000
0001
0000
0000
0000
0001
0000
,
0100
0000
0010
1000
0000
0000
0001
0000
1000
0001
0000
0001
,
0010
0000
0000
0000
0010
0000
0100
0000
0000
0000
0010
0100
0010
0000
0000
0000
0001
0000
0010
0000
0000
0000
0001
0000
,
0100
0000
0010
1000
0000
0000
0001
0000
1000
0001
0000
0001
,
0010
0000
0000
0000
0010
0000
0100
0000
0000
0000
1000
0100
1000
0000
0000
0000
0010
0000
1000
0000
0000
0000
0001
0000
,
0100
0000
0010
0100
0000
0000
0010
0000
1000
0001
0000
0000
,
0010
0000
0001
1000
0000
0000
0100
0000
1000
0001
0000
1000
,
1001
0000
0000
0000
;

//---------------dance-single - ----------------
#NOTEDATA:;
#CHARTNAME:;
#STEPSTYPE:dance-single;
#DESCRIPTION:;
#CHARTSTYLE:;
#DIFFICULTY:Beginner;
#METER:1;
#RADARVALUES:0.070,0.049,0.000,0.000,0.000,46.000,0.000,0.000,0.000,0.000,0.000,0.000,0.000,0.070,0.049,0.000,0.000,0.000,46.000,0.000,0.000,0.000,0.000,0.000,0.000,0.000;
#CREDIT:;
#NOTES:
// measure 0
0000
1000
0000
0000
,  // measure 1
0000
0010
0000
0000
,  // measure 2
0000
0100
0000
0000
,  // measure 3
0000
0001
0000
0000
,  // measure 4
0000
0010
0000
0000
,  // measure 5
0000
0100
0000
0000
,  // measure 6
0000
1000
0000
0000
,  // measure 7
0000
0001
0000
0000
,  // measure 8
0000
0100
0000
0000
,  // measure 9
0000
0010
0000
0000
,  // measure 10
0000
1000
0000
0000
,  // measure 11
0000
0001
0000
0000
,  // measure 12
0000
0010
0000
0000
,  // measure 13
0000
0100
0000
0000
,  // measure 14
0000
1000
0000
0000
,  // measure 15
0000
0001
0000
0000
,  // measure 16
0000
0100
0000
0000
,  // measure 17
0000
0001
0000
0000
,  // measure 18
0000
0010
0000
0000
,  // measure 19
0000
0100
0000
0000
,  // measure 20
0000
1000
0000
0000
,  // measure 21
0000
0001
0000
0000
,  // measure 22
0000
0100
0000
0000
,  // measure 23
0000
0000
0000
0000
,  // measure 24
0000
0010
0000
0000
,  // measure 25
0000
0010
0000
0000
,  // measure 26
0000
0100
0000
0000
,  // measure 27
0000
0100
0000
0000
,  // measure 28
0000
0001
0000
0000
,  // measure 29
0000
0001
0000
0000
,  // measure 30
0000
1000
0000
0000
,  // measure 31
0000
1000
0000
0000
,  // measure 32
0000
0100
0000
0000
,  // measure 33
0000
0100
0000
0000
,  // measure 34
0000
0010
0000
0000
,  // measure 35
0000
0010
0000
0000
,  // measure 36
0000
0001
0000
0000
,  // measure 37
0000
0001
0000
0000
,  // measure 38
0000
0100
0000
0000
,  // measure 39
0000
0010
0000
0000
,  // measure 40
0000
1000
0000
0000
,  // measure 41
0000
0001
0000
0000
,  // measure 42
0000
0010
0000
0000
,  // measure 43
0000
0100
0000
0000
,  // measure 44
0000
1000
0000
0000
,  // measure 45
0000
0001
0000
0000
,  // measure 46
0001
0000
0000
0000
;

//---------------dance-single - ----------------
#NOTEDATA:;
#CHARTNAME:;
#STEPSTYPE:dance-single;
#DESCRIPTION:;
#CHARTSTYLE:;
#DIFFICULTY:Medium;
#METER:8;
#RADARVALUES:0.382,0.340,0.053,0.149,0.308,233.000,5.000,14.000,0.000,0.000,0.000,0.000,0.000,0.382,0.340,0.053,0.149,0.308,233.000,5.000,14.000,0.000,0.000,0.000,0.000,0.000;
#CREDIT:;
#NOTES:
1000
0000
0000
0010
0000
0000
0100
0000
0000
0001
0000
0001
,
0010
0100
1000
0001
,
0100
0000
0000
0010
0000
0000
1000
0000
0000
0100
0000
0100
,
1000
0001
0100
0010
,
1000
0000
0000
0100
0000
0000
0010
0000
0000
0100
0000
0100
,
1000
0000
0000
0001
0000
0000
0100
0000
0000
0010
0000
0010
,
0100
0001
1000
0001
,
1000
0000
0000
0100
0000
0000
0010
0000
0001
0010
0000
0000
,
0001
0000
0000
0100
0000
0010
1000
0000
0000
0100
0000
0100
,
1000
0010
0200
0301
,
0001
0000
0000
0000
0000
0010
0100
0000
0000
1000
0000
1000
,
0001
0000
0000
0100
0000
0100
0020
0000
0000
2030
0000
0000
,
3100
0000
0000
1000
0000
1000
0001
0000
0000
0100
0000
0100
,
0010
1000
0200
2300
,
0000
0000
3001
0100
0000
0010
0100
0000
0000
1000
0000
1000
,
0100
0000
0000
0010
0000
0010
0001
0000
0000
1001
0000
0000
,
1000
0000
0000
0010
0000
0010
0100
0000
0000
0001
0000
0001
,
1000
0100
1000
0010
,
0100
0000
0000
0001
0000
0100
0001
0000
0000
1000
0000
1000
,
0100
0000
0000
0010
0000
0001
1000
0000
0000
0110
0000
0000
,
0100
0000
0000
0001
0000
0010
0100
0000
0000
1000
0000
0001
,
0100
0000
0000
0010
0000
1000
0100
0000
0000
0110
0000
0000
,
2001
0001
0001
3001
,
0001
0000
0100
0010
0000
1000
0100
0000
0010
0002
0000
0000
,
0103
0010
1000
0100
,
1000
0000
0000
0001
0000
0001
0100
0000
0100
0010
0000
0000
,
1000
0000
0000
0100
0000
0000
0010
0000
0000
0001
0000
2000
,
0000
0000
0000
3010
0000
0010
0100
0000
0100
0001
0000
0000
,
1000
0100
0010
0001
,
0100
0000
0000
0010
0000
0010
1000
0000
1000
0001
0000
0000
,
0010
0000
0000
0100
0000
0000
1000
0000
1000
0100
0000
0020
,
0000
0000
0000
0031
0000
1000
0001
0000
1000
0010
0000
0000
,
0100
0000
0000
0001
0000
0001
1000
0000
1000
0100
0000
0000
,
0010
0000
0000
0001
0000
0001
1000
0000
0000
0010
0000
0100
,
0010
0000
0000
1000
0000
0100
0010
0000
0001
1000
0000
0020
,
0000
0000
0000
0130
0000
0000
0001
0000
0001
0100
0000
0000
,
0010
0000
0000
1000
0000
1000
0100
0000
0000
0010
0000
0002
,
0000
0000
0000
0103
0000
0100
0010
0000
0010
2000
0000
0000
,
3001
0000
0000
0100
0000
0000
0010
0000
0000
0010
0000
1000
,
0000
0000
1000
0100
0000
0000
0010
0000
0000
0001
0000
0000
,
0100
0000
0000
0010
0000
0000
0100
0000
0000
0001
0000
1000
,
0000
0000
1000
0001
0000
0000
0010
0000
0000
0100
0000
0000
,
1000
0000
0000
0010
0000
0000
0100
0000
0000
0001
0000
1000
,
0000
0000
1000
0100
0000
0000
1000
0000
0000
0010
0000
0000
,
0100
0000
0000
0001
0000
0000
0020
0000
0000
0031
0000
0010
,
0002
0000
0000
0013
0000
0001
1000
0000
0000
1001
0000
0000
;
