#TITLE:Cloudsdale EVOLVED (ver C);
#SUBTITLE:;
#ARTIST:xRGTMx Underground;
#TITLETRANSLIT:;
#SUBTITLETRANSLIT:;
#ARTISTTRANSLIT:;
#GENRE:Happy Hardcore;
#CREDIT:;
#BANNER:Cloudsdale EVOLVED (ver C).png;
#BACKGROUND:Cloudsdale EVOLVED (ver C)-bg.png;
#LYRICSPATH:;
#CDTITLE:;
#MUSIC:Cloudsdale EVOLVED (ver C).mp3;
#OFFSET:-0.046;
#SAMPLESTART:2.720;
#SAMPLELENGTH:15.000;
#SELECTABLE:YES;
#BPMS:0.000=175.000
,72.000=87.500
,112.000=175.000
;
#STOPS:
;
#BGCHANGES:;
#KEYSOUNDS:;
#ATTACKS:;

//---------------dance-single - ----------------
#NOTES:
     dance-single:
     :
     Hard:
     16:
     0.759,1.000,0.621,0.069,0.625,536.000,72.000,8.000,0.000,0.000,0.000,0.759,1.000,0.621,0.069,0.625,536.000,72.000,8.000,0.000,0.000,0.000:
0000
0000
0000
0000
,
2000
0000
0000
0000
0000
0000
0000
0000
3010
1000
0010
0000
1000
0000
0001
0000
,
0010
0000
0100
0010
0000
0001
1001
0000
,
0010
0000
0100
0010
0000
0001
1001
1000
,
0100
0000
0010
0100
0000
1000
1001
0001
,
0100
0000
0010
0100
0000
0001
1001
1000
,
0100
0000
0010
0011
0000
0010
0110
0000
,
0100
0000
1000
1010
0000
0010
0100
0001
,
1000
0100
0010
0000
0010
0100
0010
0000
0000
0000
0001
0000
0010
0000
0001
0000
,
0100
0010
1000
1100
0000
0100
0010
0001
,
1001
0000
1000
0010
0000
1000
0010
0001
,
0010
0000
0100
0001
0000
0001
0010
1000
,
0010
0100
0010
0000
0000
0000
0100
1000
0100
0000
0000
0000
1000
0000
0001
0000
,
0100
0001
0100
0000
0001
0000
0010
0000
0000
0000
0010
0000
0100
0000
0010
0000
,
0220
0000
0000
0330
,
0100
0000
0100
1000
0000
0010
0100
0001
,
1000
0100
1000
0000
1000
0001
0100
0000
0000
0000
0001
0010
0001
0000
0010
0000
,
0100
1000
0001
0010
0100
0010
0001
1000
0010
0100
0010
1000
0100
0000
0100
0000
,
0220
0000
0000
0000
,
0000
0000
0000
0000
0000
0330
0110
0100
,
1000
0000
0000
0000
0001
0000
0000
0000
0000
0000
0000
0010
0100
0010
0100
0001
,
1000
0000
0000
0000
0000
0000
0100
0000
1000
0000
0000
0000
0000
0000
0000
0000
1100
0000
0000
0000
0000
0000
0100
0010
0001
0000
0010
0000
0001
0000
0100
0000
,
1000
0000
0000
0000
0000
0000
0100
0010
1000
0000
0000
0000
0000
0000
0000
0000
1001
0000
0000
0000
1000
0001
1000
0001
1000
0000
0100
0000
0010
0000
0001
0000
,
1000
0000
0000
0000
0000
0000
0010
1000
0010
0000
0000
0000
0000
0000
0000
0000
1000
0000
0001
0000
0100
0000
0010
0000
1000
0000
0100
0000
0001
0000
0100
0000
,
0020
0000
0000
0000
0000
0000
0000
0000
0030
0000
0000
0100
1000
0001
0010
0100
,
0010
0000
0000
0001
0000
0100
0001
0000
0010
0100
0000
1000
0010
0100
0010
0001
,
0010
0000
0000
0000
0000
0000
0100
0010
1000
0000
0000
0000
0000
0000
0000
0000
0000
0000
0100
0000
0010
0001
0010
0001
0010
0000
0001
0000
1000
0000
0100
0000
,
1000
0000
0000
0000
0000
0000
0000
0000
0010
1000
0010
1000
0100
0010
0100
0010
0001
1000
0001
1000
0100
0010
0001
0010
0100
1000
0001
1000
0100
0010
0100
1000
,
0001
1000
1100
0100
1000
0010
0110
0100
,
0001
0010
0011
0010
0100
1000
1010
1000
,
0001
0010
0011
0010
0100
1000
1100
0100
,
0001
0100
0101
0100
1000
0010
1010
1000
,
0001
0010
0011
0010
0100
1000
1100
1000
,
0001
1000
1001
1000
0100
0001
0101
0100
,
0010
0001
0011
0001
1000
0010
1010
1000
,
0001
1000
1001
1000
0001
0010
0100
1000
,
0010
1000
1010
1000
0001
0010
0011
0010
,
0100
0010
0110
0100
1000
0010
1010
1000
,
0001
0010
0110
0100
1000
0010
0110
0100
,
0001
1000
1001
1000
0100
0010
0110
0110
,
1001
0000
0000
0000
0000
0000
1000
0001
1000
0000
0001
0000
0010
0000
0100
0000
,
1000
0000
0010
0000
1000
0010
0100
0001
1000
0000
0001
0000
1000
0000
0100
0000
,
1000
0110
0001
0110
,
1000
0100
1000
0100
0010
0001
0010
0001
1000
0001
1000
0001
0010
0100
0010
0001
,
1000
0000
0000
0101
0000
0000
0011
0000
,
0001
0000
0000
1100
0000
0000
1010
0000
,
1001
0000
0000
0110
0000
0000
1001
0000
,
1010
0000
0000
0101
0000
0000
0011
0000
,
0110
1000
1000
1000
,
0110
0001
0001
0001
,
1000
1000
0110
0001
0001
0001
0110
1000
,
1001
0000
0000
0000
0000
0000
0000
0000
1000
0100
0010
0001
0010
0100
1000
0010
,
0100
0010
0000
0100
0010
0000
0010
1000
0000
0010
1000
0000
0100
0010
0001
0000
,
1000
0001
0000
1000
0001
0000
0001
0010
0000
0001
0010
0000
0010
0100
1000
0000
,
0010
1000
0000
0100
0010
0000
0001
1000
0000
0100
0010
0000
0001
0100
0010
0000
,
1000
0010
0000
0100
0001
0000
0001
0010
0000
0100
1000
0000
0010
0100
0010
0000
,
1000
0001
0000
0100
0001
0000
1000
0001
0000
0100
0001
0000
0001
0010
0100
0000
,
0001
1000
0000
0001
0100
0000
0100
0010
0000
0010
0001
0000
0001
0100
1000
0000
,
0100
0110
0000
0010
0110
0000
0100
1001
,
1000
0101
0000
0001
1100
0000
1000
0011
,
0001
1000
0000
1000
0001
0000
0001
0010
0000
0010
0100
0000
0100
1000
0010
0000
,
1000
0001
0000
0001
0100
0000
0100
0010
0000
0010
0001
0000
0001
0010
1000
0000
,
0100
0010
0000
0100
0010
0000
0010
0001
0000
0001
1000
0000
1000
0010
0100
0000
,
0010
0100
0000
0010
0100
0000
0100
0001
0000
0001
1000
0000
0100
1000
0001
1000
,
1001
0000
0000
0110
0000
0000
1001
0000
,
1010
0000
0000
0101
0000
0000
0011
0000
,
1010
0000
0000
0000
0000
0000
0101
0000
0000
0000
0000
0000
1000
0100
1000
0100
,
0010
0001
0010
0001
1000
0001
1000
0001
0010
0100
1000
0010
0100
0000
0010
0000
,
0110
0000
2002
0000
,
0000
0000
0000
0000
,
0000
0000
3003
0000
;

//---------------dance-single - Blank----------------
#NOTES:
     dance-single:
     Blank:
     Easy:
     11:
     0.335,0.426,0.009,0.155,0.000,253.000,1.000,18.000,0.000,0.000,0.000,0.335,0.426,0.009,0.155,0.000,253.000,1.000,18.000,0.000,0.000,0.000:
0000
0000
0000
0000
,
0000
0000
0000
0000
,
0010
0000
1000
0100
0000
0100
1000
0000
,
0001
0000
0100
0010
0000
0100
0001
0010
,
0100
0000
1000
0001
0000
0100
0010
1000
,
0001
0000
0010
0100
0000
0010
0001
1000
,
0010
0000
0100
0001
0000
0001
0100
0000
,
0010
0000
1000
0100
0000
0100
1000
0001
,
0100
0000
0010
0100
0000
0001
1000
0100
,
0010
0000
0100
1000
0000
0001
0100
0010
,
1000
0000
0001
0010
0000
0010
0001
0000
,
0100
0000
0010
1000
0000
1000
0010
0000
,
0100
0000
0001
0100
0000
0010
1000
0000
,
0001
0000
0010
0100
0000
1000
0001
0000
,
0200
0000
0000
0000
,
0310
0000
0000
1000
0000
0000
0001
0000
,
0100
0000
0010
0100
0000
0001
0010
0100
,
1000
0001
0100
0010
1000
0001
0010
0100
,
2000
0000
0000
0000
,
0000
0000
0000
3000
,
0010
0000
0100
0000
0000
0000
0001
0010
,
0100
0000
1000
0000
0000
0000
0010
0100
,
0001
0000
1000
0000
0000
0100
0010
0001
,
0100
0000
0010
0000
0000
0000
1000
0100
,
2000
0000
0000
0000
0000
0000
3010
0100
,
0002
0203
0320
2030
,
3001
0000
0010
0000
0000
0100
1000
0010
,
0200
0302
2003
3020
,
1030
0100
0010
0001
,
0100
0010
0100
0000
0001
0000
0010
0000
,
0100
0000
0000
0100
1000
0000
0000
0000
,
0010
0100
0001
0100
,
0010
0000
0000
1000
0001
0000
0000
0000
,
1000
0000
0010
0100
0010
0000
1000
0000
,
0001
0000
0000
0010
0001
0000
0000
0000
,
0100
0010
1000
0001
,
0010
0100
1000
0001
,
0100
0000
0010
0000
1000
0100
1000
0000
,
0010
0100
0001
0010
,
0100
0010
0001
0100
,
0010
0000
0000
0010
2000
0000
0000
0000
,
0000
3001
0010
0100
,
2000
0000
0000
0000
,
0010
0010
0010
0010
,
3010
0000
0000
0000
,
1000
0000
0000
0000
,
0100
0000
0000
0000
,
0001
0000
0000
0000
,
0010
0000
1000
0000
,
0100
0000
0010
0000
,
0001
0100
0001
0100
,
0020
0000
1000
1000
,
1030
0100
1000
0100
,
0010
0001
0010
0001
,
0100
0010
0100
0010
,
1000
0000
0001
0000
1000
0000
0001
1000
,
0001
0010
0001
0010
,
0100
1000
0100
1000
,
0001
0100
0001
0100
,
0010
0000
1000
0000
0010
0000
1000
0010
,
1000
0001
1000
0001
,
0100
0010
0100
0010
,
1000
0100
1000
0100
,
0010
0000
0001
0000
0010
0000
0001
0010
,
0002
0000
0000
0000
,
2003
0000
0000
0000
,
3010
0000
0100
0000
,
0001
1000
0100
0010
,
0001
0000
2002
0000
,
0000
0000
0000
0000
,
0000
0000
3003
0000
;

//---------------dance-single - FoRCeDNaTuRe----------------
#NOTES:
     dance-single:
     FoRCeDNaTuRe:
     Medium:
     14:
     0.572,0.815,0.242,0.043,0.194,431.000,28.000,5.000,0.000,0.000,0.000,0.572,0.815,0.242,0.043,0.194,431.000,28.000,5.000,0.000,0.000,0.000:
0000
0000
0000
0000
,
0000
0000
0000
0000
,
0000
0000
0000
0000
,
0000
0000
0000
0000
,
0000
0000
0000
0000
,
0000
0000
0000
0000
,
1000
0100
0010
0000
1010
0000
0000
0000
,
0001
0010
0100
0000
0101
0000
1100
0000
,
1000
0010
0001
0100
0000
0001
0010
0000
,
1000
1001
0110
0000
,
1000
0100
0001
0000
1000
0100
0001
0000
,
0001
0100
1000
0000
0001
0100
1000
0000
,
1001
0000
0110
0000
1000
0010
0001
0010
,
0000
1000
1010
0000
1000
0000
0011
0000
,
0100
0000
0100
0110
0000
0000
1001
0000
,
0100
0000
1000
0110
0000
0000
1001
0000
,
0001
0100
0010
0100
0000
0001
0100
0000
,
0010
0000
1000
0001
0010
0000
0001
0000
,
0022
0000
0033
0000
,
0010
0001
0100
0010
,
1000
0000
0000
0000
0001
0000
0010
0000
0100
0000
1000
0000
0001
0100
0001
1000
,
0100
0000
1000
0000
0010
0000
0100
0000
0001
0000
0010
0000
1000
0010
0001
0010
,
1000
0000
0001
0000
0010
0000
0100
0000
1000
0001
0100
0001
1000
0100
1000
0010
,
0100
0001
0010
0000
0011
0000
0110
0000
1000
0010
0100
0001
0010
0001
0100
0010
,
1000
0000
1000
0000
1000
0000
1000
0000
1000
0100
0001
0100
1000
0010
0001
0010
,
1000
0000
1000
0000
1000
0000
1000
0000
0001
0010
1000
0010
0001
0100
1000
0100
,
0001
0000
0001
0000
0001
0000
0001
0000
0001
0010
1000
0100
1000
0010
0001
0000
,
0110
0000
1000
0001
0010
0100
1000
0001
0100
0010
1000
0001
0010
0100
1000
0010
,
1000
0000
1000
0000
1000
0100
0001
0100
,
1000
0100
0001
0100
1000
0100
0001
0100
,
1000
0000
1000
0000
1000
0010
0001
0010
,
1000
0010
0001
0010
1000
0010
0001
0010
,
1000
0000
0001
0010
1000
0010
0001
0100
,
1000
0100
0001
0010
1000
0001
0100
1000
,
0001
1000
0100
0010
0001
1000
0001
0010
,
1000
0001
0100
1000
0001
0100
0010
1000
,
0100
0001
1000
0010
0001
0010
1000
0001
,
0100
1000
0100
0001
1000
0010
0001
0010
,
1000
0100
0001
0100
1000
0010
0001
0010
,
0001
0010
1000
0010
0001
1000
0100
0001
,
1000
0010
0001
0010
1000
0010
0001
1000
,
0100
0001
1000
0010
0001
0010
1000
0001
,
0100
1000
0001
0100
0010
1000
0001
0000
,
1000
0100
0010
0001
0100
0000
0110
0000
,
1001
0000
0000
0000
,
0000
0000
0000
0000
,
0000
0000
0000
0000
,
0000
0000
0000
0000
,
1001
0000
0000
0000
0110
0000
1000
0010
,
0100
0001
0010
0000
0011
0000
0000
0000
,
0110
0000
0000
0000
1001
0000
0100
0001
,
2000
0000
0000
0000
0000
0000
0000
0000
3010
1000
0010
1000
0001
1000
0001
1000
,
0001
0000
0001
0100
1000
0100
0001
1000
,
0010
0001
0010
1000
0001
0010
1000
0010
,
0001
0100
1000
0100
0001
0100
1000
0100
,
0001
0010
1000
0010
1000
0010
0001
0100
,
1000
0100
0001
0100
1000
0001
0010
1000
,
0010
0001
1000
0100
0001
1000
0010
0001
,
0010
1000
0010
0001
0010
1000
0100
0001
,
0100
0000
1000
0000
0001
0000
0100
0000
0001
0100
0001
0100
0001
0000
0000
0000
,
0100
0010
1000
0001
0010
0100
1000
0001
,
0100
0000
0001
0000
1000
0000
0100
0000
0010
0100
0010
0100
0010
0000
0000
0000
,
0010
0001
1000
0010
0100
0001
1000
0100
,
1000
0000
0010
0000
0100
0000
0001
0000
0010
0001
0010
0001
0010
0000
0000
0000
,
0100
0010
1000
0000
1001
0000
0101
0000
,
0100
0010
1000
0001
0010
0000
0011
0000
,
0010
0001
0100
0010
1000
0100
1000
0001
,
1000
0000
0010
0000
1000
0000
0010
0000
1000
0010
1000
0010
1000
0010
1000
0010
,
1000
0000
2002
0000
,
0000
0000
0000
0000
,
3003
0000
0000
0000
;

//---------------dance-single - ----------------
#NOTES:
     dance-single:
     :
     Challenge:
     18:
     0.944,1.000,0.474,0.302,0.988,676.000,55.000,35.000,0.000,0.000,0.000,0.944,1.000,0.474,0.302,0.988,676.000,55.000,35.000,0.000,0.000,0.000:
0000
0000
0000
0000
,
2000
0000
0000
0000
0000
0000
0000
0000
3001
0010
0001
0000
0100
0000
0010
0000
,
1010
0000
1000
0000
0100
0000
0110
0000
0000
0000
0010
0001
0100
0000
0010
0000
,
1010
0000
1000
0000
0001
0010
0100
0000
1000
0000
0010
0000
0100
0000
0010
0000
,
1000
0100
0001
0100
1000
0001
0200
0000
0000
0000
0310
0000
1000
0000
0001
0000
,
1000
0010
0001
0010
1000
0001
0200
0000
0000
0310
1000
0000
0100
0000
0010
0000
,
0011
0000
0001
0000
1000
0000
1010
0000
0000
0000
0010
0100
0001
0000
0010
0000
,
0110
0000
0000
0000
0100
1000
0020
0000
0000
0000
0130
0000
0001
0000
0010
0000
,
0001
0100
1000
0100
0001
1000
0200
0000
0000
0000
0310
0000
0001
0000
1000
0000
,
0001
0010
1000
0010
0001
1000
0200
0000
0000
0310
0100
0000
1000
0000
0010
0000
,
0110
0000
0100
0000
0001
0000
0011
0000
0000
0000
0010
0100
1000
0000
0010
0000
,
0110
0000
0100
0000
0001
1000
0002
0000
0000
0000
0013
0000
0100
0000
1000
0000
,
0010
0100
0010
0100
0001
1000
0001
1000
0100
0010
0100
0010
0001
0000
0100
0000
,
0010
1000
0010
1000
0100
0010
0100
0010
0001
0100
0001
0100
0010
0000
1000
0000
,
2200
0000
0000
0000
3300
0000
0011
0000
0000
0000
0001
1000
0010
0000
0100
0000
,
0110
0000
0010
0000
1000
0100
2000
0000
0000
0000
3001
0000
0100
0000
0010
0000
,
0100
0001
0100
0010
1000
0100
0010
0001
0010
0100
1000
0010
0100
0000
0010
0000
,
1000
0100
1000
0010
0100
0010
0100
0001
1000
0001
1000
0100
0010
0000
0010
0000
,
0022
0000
0000
0000
,
0000
0000
0000
0000
0000
0033
1001
0001
,
0200
0000
0000
0000
0320
0000
0000
0000
0030
0000
0000
1000
0100
0001
0100
0010
,
0002
0000
0000
0000
0000
0000
0103
0000
0020
0000
0000
0000
0000
0000
0000
0000
0030
0000
0000
0000
0000
0000
0100
1000
0100
0000
0010
0000
0100
0000
0001
0000
,
2000
0000
0000
0000
0000
0000
3100
0001
0200
0000
0000
0000
0000
0000
0000
0000
0300
0000
0000
0000
0010
0001
0010
0001
1000
0000
0010
0000
0001
0000
0010
0000
,
0200
0000
0000
0000
0000
0000
0310
1000
0002
0000
0000
0000
0000
0000
0000
0000
1003
0000
0100
0000
0001
0000
1000
0000
0010
0000
0001
0000
1000
0000
0001
0000
,
0200
0000
0000
0000
0000
0000
0000
0300
0000
0000
0000
0010
1000
0010
0001
0010
,
0200
0000
0310
2000
0000
3100
0020
0000
0031
0200
0000
0310
1000
0100
0001
0100
,
2000
0000
0000
0000
0000
0000
3010
0100
0002
0000
0000
0000
0000
0000
0000
0000
0003
0000
0010
0100
0010
0001
1000
0010
1000
0000
0010
0000
0001
0000
0010
0000
,
0200
0000
0000
0000
0310
1000
0001
0010
0001
0010
0100
1000
0010
0100
0001
0010
0001
0100
0010
1000
0100
1000
0010
0100
0010
1000
0001
1000
0100
0000
0100
0000
,
1000
0000
0010
0000
0101
0000
0100
0000
0001
0010
0100
0000
1100
0000
1000
0010
,
0100
0010
1010
1000
0010
0001
0010
0100
,
0010
0000
1000
0000
1100
0000
0100
0000
0010
0001
0100
0000
0110
0000
0010
1000
,
0001
0000
0010
0000
0110
0000
0100
1000
0010
0000
0001
0000
0010
0000
0100
0000
,
0010
0000
1000
0000
1100
0000
0100
0010
0001
0000
0100
0000
0110
0000
0010
1000
,
0001
0000
0010
0000
0100
0010
0100
0010
0001
0000
0100
0000
1000
0000
0100
0000
,
0010
0000
1000
0000
1100
0000
0100
0010
0001
0000
0100
0000
0110
0000
0010
0000
,
1010
1000
0100
0010
0011
0001
0100
0010
,
0110
0000
0100
0000
0001
1000
0001
0000
0000
0000
0010
0000
0110
0000
0000
0000
,
0100
0000
1000
0000
0010
0100
0010
0000
0100
0000
1000
0000
0100
0000
0010
0000
,
1000
0000
0000
0000
0010
0100
0010
0000
0100
0000
0001
1000
0001
0000
0010
0000
,
0001
0100
0001
0000
1000
0000
0001
0000
0100
0000
1000
0000
0100
0000
0010
0000
,
2020
0000
0000
0000
3030
0000
1000
0001
2000
0000
0000
0000
3100
0000
0010
0000
,
0000
0000
0100
0000
1000
0010
0100
0010
1000
0000
0100
0000
0001
0000
0100
0000
,
0020
0000
0000
0000
0000
0000
0000
0000
0032
0000
0000
0000
0013
0001
1000
0010
,
0100
0010
1000
0001
0010
0100
1000
0100
0010
0001
1000
0010
0100
0000
0100
0000
,
0110
0000
0010
0000
1000
0000
1001
0000
0000
0000
0001
0010
1000
0000
0010
0000
,
0110
0100
1000
1010
0000
0010
0110
0100
,
0101
0000
0001
0000
1000
0000
1001
0000
0000
0000
0001
0100
1000
0000
0100
0000
,
0110
0000
0000
0000
0010
0000
1010
0000
0000
0000
1000
0100
0001
0000
0100
0000
,
1100
0000
0000
0000
1000
0000
0000
0000
1000
0000
0001
1000
0001
0000
0100
0000
,
0010
0000
0010
0000
0010
1000
0010
1000
,
1001
0001
0001
0001
1000
1000
1000
1000
,
1001
0000
0000
0000
0000
0000
1001
0000
0001
0010
0001
1000
0100
1000
0010
0100
,
0001
0100
0010
0100
0001
1000
0100
0010
0001
0010
0100
0000
1000
0010
1000
0000
,
0010
0100
0001
0100
0010
0100
0001
1000
0100
0010
0001
0000
0010
0100
0010
0000
,
0001
0100
0010
0100
0001
1000
0001
1000
0100
0010
0001
0000
1000
0010
1000
0000
,
0001
0100
0000
0100
1000
0000
1000
0100
0000
0100
0001
0000
1000
0001
1000
0001
,
0010
0100
0010
0100
1000
0001
0100
0001
1000
0100
0010
0000
0100
1000
0100
0000
,
1000
0010
0100
0010
0100
0001
0100
0010
0100
0001
0010
0000
0100
1000
0100
0000
,
1100
0000
0000
0011
0000
0000
1100
0000
0000
0011
0000
0000
0010
0001
1000
0001
,
0100
0000
0000
0110
0000
0000
0101
0000
0000
0110
0000
0000
0010
1000
0001
1000
,
0001
0010
0100
1000
0010
0100
0001
0010
0100
1000
0010
0000
0100
0001
0100
0000
,
0010
1000
0100
1000
0001
0100
0010
0100
0001
1000
0001
0000
0010
0001
0010
0000
,
0100
1000
0100
1000
0010
0100
0010
0100
0001
1000
0001
0000
1000
0100
1000
0000
,
0001
0010
0000
0010
1000
0000
1000
0010
0000
0010
0001
0000
0100
0010
0100
0010
,
1000
0100
1000
0100
0010
0001
1000
0001
0100
0010
0100
0000
0010
1000
0010
0000
,
0100
0001
1000
0001
0010
0100
1000
0010
0100
0001
0010
0000
0001
1000
0001
0000
,
1001
0000
0000
1010
0000
0000
1001
0000
0000
1010
0000
0000
1000
0100
0010
0001
,
0010
0100
0010
0100
1000
0010
1000
0010
0100
0001
0100
0001
0010
0000
0100
0000
,
0110
0000
2002
0000
,
0000
0000
0000
0000
,
0000
0000
3003
0000
;

//---------------dance-single - Blank----------------
#NOTES:
     dance-single:
     :
     Beginner:
     3:
     0.100,0.118,0.069,0.095,0.000,62.000,8.000,11.000,0.000,0.000,0.000,0.100,0.118,0.069,0.095,0.000,62.000,8.000,11.000,0.000,0.000,0.000: // measure 0
0000
0000
0000
0000
,  // measure 1
0000
0000
0000
0000
,  // measure 2
1000
0000
0000
0000
,  // measure 3
1000
0000
0000
0000
,  // measure 4
0001
0000
0000
0000
,  // measure 5
0001
0000
0000
0000
,  // measure 6
0010
0000
0000
0000
,  // measure 7
0010
0000
0000
0000
,  // measure 8
0100
0000
0000
0000
,  // measure 9
0100
0000
0000
0000
,  // measure 10
1000
0000
0000
0000
,  // measure 11
1000
0000
0000
0000
,  // measure 12
0010
0000
0000
0000
,  // measure 13
0010
0000
0000
0000
,  // measure 14
0002
0000
0000
0000
,  // measure 15
0000
0000
0000
0000
,  // measure 16
0023
0000
0000
0000
,  // measure 17
0000
0000
0000
0000
,  // measure 18
2030
0000
0000
0000
,  // measure 19
0000
0000
0000
0000
,  // measure 20
3002
0000
0000
0000
,  // measure 21
0023
0000
0000
0000
,  // measure 22
0230
0000
0000
0000
,  // measure 23
2300
0000
0000
0000
,  // measure 24
3020
0000
0000
0000
,  // measure 25
0230
0000
0000
0000
,  // measure 26
0302
0000
0000
0000
,  // measure 27
2003
0000
0000
0000
,  // measure 28
3100
0000
0000
0000
,  // measure 29
0100
0000
0000
0000
,  // measure 30
1000
0000
0000
0000
,  // measure 31
1000
0000
0000
0000
,  // measure 32
0001
0000
0000
0000
,  // measure 33
0001
0000
0000
0000
,  // measure 34
0010
0000
0000
0000
,  // measure 35
0010
0000
0000
0000
,  // measure 36
0100
0000
0000
0000
,  // measure 37
0100
0000
0000
0000
,  // measure 38
0010
0000
0000
0000
,  // measure 39
0010
0000
0000
0000
,  // measure 40
0001
0000
0000
0000
,  // measure 41
0001
0000
0000
0000
,  // measure 42
1000
0000
0000
0000
,  // measure 43
1000
0000
0000
0000
,  // measure 44
1001
0000
0000
0000
,  // measure 45
0000
0000
0000
0000
,  // measure 46
1001
0000
0000
0000
,  // measure 47
1001
0000
0000
0000
,  // measure 48
0110
0000
0000
0000
,  // measure 49
0000
0000
0000
0000
,  // measure 50
0110
0000
0000
0000
,  // measure 51
0110
0000
0000
0000
,  // measure 52
1001
0000
0000
0000
,  // measure 53
1000
0000
0000
0000
,  // measure 54
0010
0000
0000
0000
,  // measure 55
0010
0000
0000
0000
,  // measure 56
0100
0000
0000
0000
,  // measure 57
0100
0000
0000
0000
,  // measure 58
0001
0000
0000
0000
,  // measure 59
0001
0000
0000
0000
,  // measure 60
1000
0000
0000
0000
,  // measure 61
0010
0000
0000
0000
,  // measure 62
0001
0000
0000
0000
,  // measure 63
0010
0000
0000
0000
,  // measure 64
1000
0000
0000
0000
,  // measure 65
0100
0000
0000
0000
,  // measure 66
0001
0000
0000
0000
,  // measure 67
0100
0000
0000
0000
,  // measure 68
0000
0000
1001
0000
;
