#TITLE:Brain Stew;
#SUBTITLE:;
#ARTIST:Green Day;
#TITLETRANSLIT:;
#SUBTITLETRANSLIT:;
#ARTISTTRANSLIT:;
#GENRE:;
#CREDIT:;
#BANNER:Brain Stew.png;
#BACKGROUND:;
#LYRICSPATH:;
#CDTITLE:;
#MUSIC:Brain Stew.mp3;
#OFFSET:0.000;
#SAMPLESTART:36.040;
#SAMPLELENGTH:15.000;
#SELECTABLE:YES;
#BPMS:0.000=74.405
,1.000=76.514
,2.000=74.219
,3.000=76.527
,4.000=78.108
,5.000=74.393
,6.000=78.860
,7.000=76.509
,8.000=75.860
,9.000=76.620
,10.000=76.990
,11.000=77.568
,12.000=76.527
,13.000=76.509
,14.000=76.414
,15.000=79.896
,16.000=76.509
,17.000=72.112
,18.000=79.795
,19.000=76.598
,20.000=74.936
,21.000=76.687
,22.000=77.986
,23.000=76.507
,24.000=76.593
,25.000=79.797
,26.000=73.500
,27.000=78.157
,28.000=76.520
,29.000=75.557
,30.000=77.493
,31.000=76.207
,32.000=74.896
,33.000=78.579
,34.000=76.476
,35.000=75.087
,36.000=76.509
,37.000=78.159
,38.000=78.076
,39.000=73.494
,40.000=78.166
,41.000=75.017
,42.000=79.790
,43.000=75.017
,44.000=76.509
,45.000=76.122
,46.000=79.795
,47.000=73.939
,48.000=79.790
,49.000=73.494
,50.000=78.166
,51.000=73.132
,52.000=77.082
,53.000=77.984
,54.000=74.552
,55.000=78.577
,56.000=75.055
,57.000=74.977
,58.000=76.509
,59.000=74.983
,60.000=77.298
,61.000=75.741
,62.000=76.161
,63.000=76.988
,64.000=79.807
,65.000=73.651
,66.000=76.514
,67.000=77.984
,68.000=75.019
,69.000=75.004
,70.000=76.520
,71.000=78.069
,72.000=78.166
,73.000=76.782
,74.000=73.315
,75.000=79.795
,76.000=73.504
,77.000=78.157
,78.000=75.104
,79.000=77.575
,80.000=78.577
,81.000=74.932
,82.000=75.730
,83.000=77.391
,84.000=78.081
,85.000=73.543
,86.000=79.749
,87.000=75.091
,88.000=78.023
,89.000=75.055
,90.000=75.643
,91.000=75.871
,92.000=78.157
,93.000=76.525
,94.000=78.168
,95.000=76.509
,96.000=76.669
,97.000=75.962
,98.000=78.572
,99.000=81.493
,100.000=79.790
,101.000=78.430
,102.000=79.500
,103.000=79.281
,104.000=81.041
,105.000=79.098
,106.000=79.981
,107.000=80.303
,108.000=78.992
,109.000=83.365
,110.000=79.790
,111.000=85.212
,112.000=83.365
,113.000=81.591
,114.000=83.249
,115.000=84.043
,116.000=80.759
,117.000=83.352
,118.000=85.631
,119.000=82.192
,120.000=84.249
,121.000=83.158
,122.000=79.894
,123.000=81.571
,124.000=79.788
,125.000=83.273
,126.000=82.041
,127.000=84.732
,128.000=77.853
,129.000=87.538
,130.000=79.793
;
#STOPS:
;
#BGCHANGES:-0.400=Brain Stew.avi=1.000=0=0=0=StretchNoLoop====,
99999=-nosongbg-=1.000=0=0=0 // don't automatically add -songbackground-
;
#KEYSOUNDS:;
#ATTACKS:;

//---------------dance-single - ----------------
#NOTES:
     dance-single:
     :
     Hard:
     13:
     0.509,0.467,0.029,0.117,0.752,350.000,3.000,12.000,0.000,0.000,0.000,0.509,0.467,0.029,0.117,0.752,350.000,3.000,12.000,0.000,0.000,0.000:
1000
0001
0000
0000
0010
0100
0010
0100
1000
0010
0000
0000
0100
0001
0100
0001
,
0010
0100
0000
0000
1000
0001
1000
0001
0010
0100
0000
0000
0010
0001
0000
0000
,
1000
0001
0000
0000
0010
0100
1000
0010
0100
0001
0000
0000
0010
0001
0100
0010
,
1000
0100
0000
0000
0010
0001
1000
0010
1000
0001
0000
0000
0010
0100
0000
0000
,
1000
0100
1000
0000
0100
0000
1000
0010
0000
0000
0100
0000
0001
0000
0010
0001
,
0100
0010
0000
0000
0100
0000
0000
0000
0001
1000
0000
0000
1000
0100
0000
0000
,
0010
0100
1000
0000
0010
0000
0100
0001
0000
0000
1000
0000
0001
2000
0000
0000
,
3100
1000
0000
0000
1010
0000
0000
0000
0010
0100
0000
0000
0100
0001
0000
0000
,
0001
1000
0100
0000
0010
0100
0000
0100
0010
0001
0000
0000
0101
0000
0000
0000
,
0100
0010
1000
0000
0001
0000
1000
0000
0100
0010
0000
0000
0100
1000
0000
0000
,
0010
0100
0001
0000
1000
0100
0000
0002
0000
0000
0103
0000
0001
0100
1000
0000
,
0010
0100
0000
0000
0101
0000
0001
0000
0010
0100
0010
0000
0100
0010
0100
0000
,
1000
0000
0100
0010
0001
0010
0100
1000
0010
0000
0100
0001
0010
0001
0100
0010
,
1000
0000
0100
0010
0100
1000
0010
1000
0001
0100
0000
0000
0100
0010
0000
0000
,
0010
1000
0001
1000
0010
0100
0001
0100
0010
0000
1000
0100
0010
0100
1000
0001
,
1000
0000
0001
0100
0001
0010
0100
1000
0010
1000
0000
0000
0001
1000
0000
0000
,
0100
1000
0010
0000
0100
0000
0001
0100
0000
0000
0001
0000
1000
0001
0000
1000
,
0010
0100
0001
0100
0001
0000
0010
0001
0100
0010
0000
0000
0010
1000
0000
0000
,
1000
0001
1000
0000
0100
0000
0010
0200
0000
0000
0310
0000
0100
1000
0000
0010
,
1000
0001
0000
1000
0001
0000
0010
0001
0010
0100
0000
0000
0010
0100
0000
0000
,
1000
0001
0010
0000
0001
0000
0100
0010
1000
0010
0000
0100
0001
0000
0010
0001
,
0010
0100
0000
0010
0100
0000
1000
0000
0010
1000
0000
0001
1000
0001
0000
0010
,
0001
0010
0100
0000
0010
0000
0100
2000
0000
0000
3001
0000
1000
0100
0000
0000
,
0010
0001
0010
0001
0200
0000
0000
0000
0310
0100
0010
0000
0100
0010
0100
0000
,
0010
1000
0000
1000
0001
0000
0010
0001
0010
0001
0000
0001
0100
0000
0010
0100
,
0010
0100
0000
0010
1000
0000
0100
0010
0001
0100
0000
0001
0100
0001
0000
0001
,
0100
0010
0000
0010
1000
0000
0001
1000
0001
0010
0000
0100
1000
0000
0010
1000
,
0010
0100
0000
0001
0100
0000
0010
1000
0001
0010
0000
0100
1000
0100
0000
1000
,
0010
1000
0010
1000
0002
0000
1003
0000
1000
0100
1000
0100
0020
0000
0031
0000
,
0001
1000
0001
1000
0200
0000
0310
0000
0100
1000
0100
1000
0001
1000
0001
1000
,
0001
0100
0001
0100
0020
0000
1030
0000
1000
0001
1000
0001
0020
0000
0130
0000
,
0010
0001
0010
0001
0200
0000
0310
0000
0100
0001
0000
0001
1000
0100
0000
0010
,
0100
0020
0000
0000
0000
0000
0000
0000
0000
0000
0000
0000
0000
0000
0000
0000
,
0030
0000
0000
0000
;

//---------------dance-single - Blank----------------
#NOTES:
     dance-single:
     :
     Easy:
     4:
     0.120,0.125,0.010,0.010,0.000,84.000,1.000,1.000,0.000,0.000,0.000,0.120,0.125,0.010,0.010,0.000,84.000,1.000,1.000,0.000,0.000,0.000:
1000
0000
0001
0000
,
1000
0000
0001
0100
,
0010
0000
0100
0000
,
0010
0000
0100
0001
,
1000
0000
0100
0000
,
0010
0000
0001
1000
,
0001
0000
0100
0000
,
0010
0000
1000
0001
,
1000
0000
0010
0000
,
0100
0000
0001
1000
,
0001
0000
0100
0000
,
0010
0000
1000
1000
,
0100
0000
0100
0000
,
0010
0000
0010
0001
,
0100
0000
0100
0000
,
0010
0000
0010
1000
,
0001
0000
1000
0000
,
0001
0000
1000
0001
,
1000
0000
0001
0000
,
1000
0000
0010
1000
,
0001
0000
0001
0000
,
0010
0001
1000
0001
,
0100
0010
0100
0010
,
2000
0000
0001
3001
,
1000
0000
1000
0000
,
0001
0001
0001
0000
,
0010
0000
0010
0000
,
0100
0100
0100
0000
,
1000
0000
0010
0000
,
1000
0010
0001
0000
,
1000
0000
0001
0000
,
1000
0100
0001
0000
,
1001
0000
0000
0000
;

//---------------dance-single - Blank----------------
#NOTES:
     dance-single:
     :
     Medium:
     8:
     0.273,0.250,0.049,0.068,0.044,184.000,5.000,7.000,0.000,0.000,0.000,0.273,0.250,0.049,0.068,0.044,184.000,5.000,7.000,0.000,0.000,0.000:
1000
0000
0010
0010
1000
0000
0001
0001
,
1000
0000
0100
0100
0010
0000
0001
0000
,
0100
0000
0001
0001
1000
0000
0100
0100
,
1000
0000
0001
0001
0100
0000
0010
0000
,
1000
0000
0010
0000
1000
0000
0000
0100
0000
0000
0010
0000
0001
0000
0000
0100
,
0000
0010
1000
0001
,
1000
0000
0100
0000
1000
0000
0000
0010
0000
0000
0100
0000
0001
0000
0000
0000
,
1000
0010
0001
1000
,
1001
0000
0001
0000
0010
0000
0000
0100
0000
0000
0000
0000
0010
0000
0000
0000
,
1000
0001
1000
0000
0010
0000
0100
0000
,
0001
0000
0010
0000
0001
0000
0000
0010
0000
0000
0100
0000
1000
0000
0000
0000
,
0010
0010
1000
0000
0001
1000
0001
1000
,
0100
0000
0010
0100
0010
0000
0100
1000
,
0100
0000
1000
0001
1000
0000
0001
0000
,
0100
0000
0001
0100
0001
0000
0010
0001
,
0010
0000
0100
0010
0100
0000
1000
0000
,
0001
0000
1000
0000
0001
0000
0000
0100
0000
0000
0010
0000
1000
0000
0000
0000
,
0100
0010
0110
1001
,
0001
0000
0010
0000
0001
0000
0000
0100
0000
0000
0010
0000
1000
0000
0000
0000
,
0100
0000
0010
0000
0100
1000
0001
0100
,
0010
0000
1000
0000
0001
0000
0000
0010
0000
0000
0000
0000
0100
0000
0000
0000
,
0010
0001
1000
0000
1010
0000
0101
0000
,
0001
0000
1000
0000
0001
0000
0000
0010
0000
0000
0100
0000
1000
0000
0000
0000
,
0010
0000
0200
0000
0310
0100
0001
1000
,
0100
1000
0100
0000
1000
0010
1000
0000
,
0010
0100
0010
0000
0100
0001
0100
0001
,
1000
0001
1000
0000
0100
0010
0100
0000
,
0010
0001
0010
0000
0001
0100
0001
0100
,
0010
1000
0020
0000
0130
0010
0200
0000
,
0301
0100
0002
0000
1003
0001
0100
0010
,
1000
0100
2000
0000
3100
0010
0200
0000
,
0310
0001
0020
0000
0031
1000
0001
1000
,
0100
0000
0000
0000
;

//---------------dance-single - Blank----------------
#NOTES:
     dance-single:
     :
     Beginner:
     3:
     0.092,0.187,0.010,0.078,0.000,57.000,1.000,8.000,0.000,0.000,0.000,0.092,0.187,0.010,0.078,0.000,57.000,1.000,8.000,0.000,0.000,0.000: // measure 0
0000
0000
0000
0000
,  // measure 1
0000
0000
0000
0000
,  // measure 2
0000
0000
0000
0000
,  // measure 3
0000
0000
0000
0000
,  // measure 4
1000
0000
0000
0000
,  // measure 5
1000
0000
0001
0000
,  // measure 6
0001
0000
0000
0000
,  // measure 7
0001
0000
1000
0000
,  // measure 8
0100
0000
0000
0000
,  // measure 9
0100
0000
0010
0000
,  // measure 10
0010
0000
0000
0000
,  // measure 11
0010
0000
0100
0000
,  // measure 12
1000
0000
0001
0000
,  // measure 13
1000
0000
0001
0000
,  // measure 14
0100
0000
0010
0000
,  // measure 15
0100
0000
0010
0000
,  // measure 16
0110
0000
0000
0000
,  // measure 17
0010
0000
1000
0000
,  // measure 18
0001
0000
0000
0000
,  // measure 19
0010
0000
0001
0000
,  // measure 20
1000
0000
0000
0000
,  // measure 21
0100
0000
1000
0000
,  // measure 22
0001
0000
0000
0000
,  // measure 23
0100
0000
0001
0000
,  // measure 24
1000
0000
1000
0000
,  // measure 25
1000
0000
1000
0000
,  // measure 26
0001
0000
0001
0000
,  // measure 27
0001
0000
0001
0000
,  // measure 28
0100
0020
0130
0020
,  // measure 29
0130
0020
0130
0020
,  // measure 30
0130
0020
0130
0020
,  // measure 31
0130
0020
0130
0020
,  // measure 32
0130
0000
0000
0000
;
