#TITLE:Big Macintosh (Jackle App Remix);
#SUBTITLE:;
#ARTIST:Silva Hound;
#TITLETRANSLIT:;
#SUBTITLETRANSLIT:;
#ARTISTTRANSLIT:;
#GENRE:Dance;
#CREDIT:;
#BANNER:Big Macintosh (JackleApp Remix).png;
#BACKGROUND:Big Macintosh (JackleApp Remix)-bg.png;
#LYRICSPATH:;
#CDTITLE:;
#MUSIC:Big Macintosh (JackleApp Remix).ogg;
#OFFSET:-5.720;
#SAMPLESTART:15.080;
#SAMPLELENGTH:15.000;
#SELECTABLE:YES;
#BPMS:0.000=128.000
;
#STOPS:0.000=3.740
;
#BGCHANGES:;
#KEYSOUNDS:;
#ATTACKS:;

//---------------dance-single - ----------------
#NOTES:
     dance-single:
     :
     Hard:
     9:
     0.373,0.358,0.093,0.210,0.000,198.000,8.000,18.000,0.000,0.000,0.000,0.373,0.358,0.093,0.210,0.000,198.000,8.000,18.000,0.000,0.000,0.000:
0001
0000
0000
0000
,
0000
0000
0000
0000
,
0000
0000
0000
0000
,
0010
1000
0010
1000
0001
0100
0001
0100
,
0001
0010
0001
0010
0100
1000
0100
1000
,
0001
0100
0010
0000
0010
1000
0100
0000
,
1000
0010
1000
0001
0100
0010
0100
0001
,
1000
0100
0010
0001
1000
0010
0100
0001
,
1000
0100
0010
0100
1000
0001
0100
0010
,
1000
0001
0010
0000
0001
1000
0010
0000
,
0100
0001
1000
0010
0100
0001
0010
0100
,
1000
0001
1000
0100
1000
0001
1000
0010
,
0100
0001
0100
0010
0100
0001
1000
0100
,
0010
0100
1000
0000
0001
0100
0010
0000
,
1000
0001
0010
0100
1000
0100
0010
0001
,
2000
0000
0000
0000
,
3010
1001
0100
1001
,
0010
1000
0100
0000
0010
0001
0100
0000
,
0010
1100
0010
0101
,
0001
1000
0100
0000
1000
0010
0100
0000
,
0001
0011
1000
1010
,
1000
0100
0001
0000
0001
0100
1000
0000
,
1000
1010
0001
0101
,
0001
0010
0100
0000
0100
1000
0010
0000
,
1000
0000
0100
0000
1000
0010
0100
0001
,
0010
0000
0100
0000
1000
0100
0001
0100
,
1000
0000
0010
0000
1000
0001
0010
0000
,
0100
0000
1000
0000
0010
0100
0001
0000
,
1000
0100
1000
0000
0001
0010
0001
0000
,
0100
0010
0100
0000
0001
1000
0001
1000
,
0010
0100
0010
0000
1000
0001
1000
0000
,
1000
0010
1000
0010
0100
0001
0100
0001
,
2000
3020
0230
0302
,
2003
3200
0320
0032
,
2003
3020
0230
0302
,
2003
3200
0320
0032
,
2000
0000
0000
0000
,
0000
0000
0000
0000
,
0000
0000
0000
3003
0000
0000
0000
0000
;

//---------------dance-single - ----------------
#NOTES:
     dance-single:
     :
     Medium:
     6:
     0.285,0.345,0.000,0.210,0.000,153.000,0.000,18.000,0.000,0.000,0.000,0.285,0.345,0.000,0.210,0.000,153.000,0.000,18.000,0.000,0.000,0.000:
0010
0000
0000
0000
,
0000
0000
0000
0000
,
0000
0000
0000
0000
,
1000
0000
0100
0000
1000
1000
1000
0000
,
0001
0000
0010
0000
0001
0001
0001
0000
,
0100
0010
1000
0001
,
0010
0100
1000
0010
,
0100
0000
0001
0000
0100
0100
0100
0000
,
0010
0000
1000
0000
0010
0010
0010
0000
,
1000
0100
0010
0001
,
0100
1000
0010
0001
,
0100
0000
0001
0000
0010
0010
0010
0000
,
0001
0000
0100
0000
1000
1000
1000
0000
,
0001
0100
0010
1000
,
0001
0010
0100
1000
,
0020
0000
0000
0000
,
1030
0000
0100
0000
1000
0010
0100
0000
,
0001
0000
0010
0000
0100
0010
0001
0000
,
1000
0000
0010
0000
0100
0001
0100
0000
,
0010
0000
1000
0000
0001
1000
0001
0000
,
0100
0000
0010
0000
1000
0100
1000
0000
,
0010
0000
0100
0000
0001
0010
0001
0000
,
0100
0000
0010
0000
1000
0010
1000
0000
,
0010
0000
0100
0000
0001
0100
0001
0000
,
0010
0000
0001
0000
0100
0001
0010
0000
,
0100
0000
1000
0000
0100
1000
0010
0000
,
0100
0000
0001
0000
1000
0100
0010
0000
,
0001
0000
0100
0000
0001
1000
0010
0000
,
0100
0000
0001
0000
0010
0100
1000
0000
,
0010
0000
0100
0000
0010
1000
0001
0000
,
0010
0000
0100
0000
1000
0001
0100
0000
,
0010
0000
1000
0000
0001
0010
0100
0000
,
2000
3200
0320
0032
,
2003
3020
0230
0302
,
0023
0230
2300
3002
,
0203
0320
2030
3002
,
2003
0000
0000
0000
,
3000
0000
0000
0000
;

//---------------dance-single - ----------------
#NOTES:
     dance-single:
     :
     Easy:
     4:
     0.222,0.216,0.000,0.257,0.000,111.000,0.000,22.000,0.000,0.000,0.000,0.222,0.216,0.000,0.257,0.000,111.000,0.000,22.000,0.000,0.000,0.000:
0100
0000
0000
0000
,
0000
0000
0000
0000
,
0000
0000
0000
0000
,
1000
0100
1000
0100
,
0010
0001
0010
0001
,
0100
0000
0010
0000
,
1000
0000
0001
0000
,
0010
0001
0010
0001
,
1000
0100
1000
0100
,
1000
0000
0010
0000
,
0100
0000
0001
0000
,
0010
0001
0010
0001
,
1000
0100
1000
0100
,
1000
0000
0010
0000
,
0100
0000
0001
0000
,
0020
0000
0000
0000
,
1030
0100
2000
3100
,
0010
0001
0020
0031
,
0100
0010
0200
0310
,
1000
0001
2000
3001
,
0010
0001
0200
0310
,
1000
0100
0020
0031
,
1000
0010
0200
0301
,
0010
0001
2000
3100
,
0010
0001
0100
1000
,
0010
1000
0200
0301
,
0010
0001
0100
0010
,
1000
0001
0020
0130
,
0010
0001
0100
1000
,
0100
0001
0020
0130
,
1000
0010
0100
0001
,
0010
1000
0200
1300
,
0020
0000
2030
0000
,
3200
0000
0320
0000
,
0032
0000
0203
0000
,
0320
0000
2030
0000
,
3002
0000
0000
0000
,
0003
0000
0000
0000
;

//---------------dance-single - ----------------
#NOTES:
     dance-single:
     :
     Beginner:
     1:
     0.110,0.089,0.000,0.058,0.000,61.000,0.000,5.000,0.000,0.000,0.000,0.110,0.089,0.000,0.058,0.000,61.000,0.000,5.000,0.000,0.000,0.000:
1000
0000
0000
0000
,
0000
0000
0000
0000
,
0000
0000
0000
0000
,
1000
0000
1000
0000
,
0001
0000
0001
0000
,
0100
0000
0100
0000
,
0010
0000
0010
0000
,
1000
0000
1000
0000
,
0100
0000
0100
0000
,
0010
0000
0010
0000
,
0001
0000
0001
0000
,
1000
0000
0001
0000
,
0100
0000
0010
0000
,
1000
0000
0100
0000
,
0010
0000
0001
0000
,
0000
0000
0000
0000
,
0000
1000
0000
1000
,
0000
0010
0000
0010
,
0000
0100
0000
0100
,
0000
0001
0000
0001
,
0000
1000
0000
1000
,
0000
0010
0000
0010
,
0000
0100
0000
0100
,
0000
0001
0000
0000
,
0001
0000
0010
0000
,
0100
0000
1000
0000
,
1000
0000
0100
0000
,
0010
0000
0001
0000
,
1000
0000
0010
0000
,
0100
0000
0001
0000
,
1000
0000
0100
0000
,
0010
0000
0001
0000
,
2000
0000
3000
0000
,
0020
0000
0030
0000
,
0200
0000
0300
0000
,
0002
0000
0003
0000
,
2000
0000
0000
0000
,
0000
0000
0000
0000
,
3000
0000
0000
0000
;

//---------------dance-single - Blank----------------
#NOTES:
     dance-single:
     :
     Challenge:
     10:
     0.447,0.448,0.373,0.280,0.070,212.000,32.000,24.000,0.000,0.000,0.000,0.447,0.448,0.373,0.280,0.070,212.000,32.000,24.000,0.000,0.000,0.000:
0000
0000
0000
0000
,
0000
0000
0000
0000
,
0000
0000
0000
0000
,
1000
0010
0100
0010
1000
0001
0010
0001
,
1000
0010
0100
0010
1000
0001
0010
0001
,
0010
0000
0100
1000
0100
0000
1000
0010
1000
0000
0010
0100
0010
0000
0100
0001
,
0100
0001
0010
0001
0100
0010
1000
0010
,
1000
0100
0110
0000
0010
0001
0101
0000
,
0001
1000
1001
0000
1000
0100
0110
0000
,
0010
0000
0001
0100
0001
0000
1000
0001
1000
0000
0010
1000
0010
0000
0100
0010
,
1000
0100
1000
0100
0010
0001
0010
0001
,
0100
0010
0110
0000
0010
1000
1010
0000
,
1000
0001
1001
0000
0001
0010
0011
0000
,
0001
0000
0010
0001
0100
0000
0010
1000
0010
0000
1000
0010
0100
0000
0001
0010
,
0001
0010
0001
0100
0010
1000
0010
0100
,
0000
0000
0000
0000
,
0110
1001
0011
0011
,
1010
1010
1001
1001
,
0110
0110
1100
1100
,
0101
0101
1001
1001
,
2001
3001
0120
0130
,
1200
0310
0120
0031
,
1002
1003
0120
0130
,
1020
0130
0210
0301
,
0001
0100
0010
1000
0100
0010
0100
1000
,
0001
0100
0010
0100
0001
1000
0001
1000
,
0100
0010
0100
1000
0010
0100
0010
0001
,
0010
1000
0100
0001
1000
0010
0001
0100
,
0010
1000
0100
0010
0100
1000
0010
0100
,
0001
0010
0001
0100
0010
1000
0100
0010
,
0001
1000
0001
1000
0010
0100
0010
0100
,
0001
0010
0100
1000
0010
0100
0010
0100
,
0002
0023
2030
3020
,
0032
0203
2300
3200
,
0302
0023
0230
2300
,
3020
0032
0203
2300
,
0000
0000
0000
0000
,
0000
0000
0000
0000
,
0000
0000
0000
3000
0000
0000
0000
0000
;

//---------------dance-single - Accent----------------
#NOTES:
     dance-single:
     :
     Edit:
     2:
     0.460,0.439,0.140,1.000,0.070,176.000,12.000,88.000,0.000,0.000,0.000,0.460,0.439,0.140,1.000,0.070,176.000,12.000,88.000,0.000,0.000,0.000:
0000
0000
0000
0000
,
0000
0000
0000
0000
,
0000
0000
0000
0000
,
1000
0001
1000
0001
0010
0100
0010
0100
,
1000
0000
0100
1000
0100
0000
1000
0100
1000
0000
0100
1000
0100
0000
1000
0100
,
0010
0001
1000
0100
0010
0101
0010
1100
,
0100
0000
0011
0000
0100
0000
1010
0000
0010
0000
0100
0001
0100
0000
0001
0100
,
0001
0000
0100
0001
0100
0000
0001
0100
0010
0000
1000
0000
0001
0000
0100
0000
,
0001
1010
0001
1100
1000
0011
1000
0101
,
0001
0000
0010
0100
0010
0000
0100
0010
0100
0000
0010
0100
0010
0000
0100
0010
,
0100
1000
0001
0010
0110
0110
1000
1000
,
0100
0100
0010
0010
1001
1001
0001
0001
,
0100
0100
0010
0010
2000
3200
0302
0203
,
2300
3020
0032
0023
2030
3020
0230
2300
,
3002
0023
2030
3200
0302
2003
3020
0032
,
0203
2300
3200
0302
2003
3200
0320
2030
,
3020
0032
0203
0320
2030
3020
0032
0023
,
0230
0302
2003
3200
0320
0032
0023
2030
,
3002
0203
2300
3020
0230
0302
0023
0230
,
2300
3002
2003
3200
0320
0032
0203
0320
,
2030
3200
0320
0032
2003
3200
0302
0203
,
2300
3020
0032
0023
2030
3200
0302
0023
,
0032
0203
2300
3020
2030
3002
0023
0230
,
2300
3200
0320
0032
0003
0000
0000
0000
;

//---------------pump-single - ----------------
#NOTES:
     pump-single:
     :
     Challenge:
     9:
     0.468,0.505,0.385,0.292,0.070,222.000,33.000,25.000,0.000,1.000,0.000,0.468,0.505,0.385,0.292,0.070,222.000,33.000,25.000,0.000,1.000,0.000: // measure 0
10101
00000
00000
00000
,  // measure 1
00000
00000
00000
00000
,  // measure 2
00000
00000
00000
00000
,  // measure 3
00010
01000
00100
00010
00100
01000
00001
10000
,  // measure 4
00010
00100
00001
01000
00100
10000
00010
00100
,  // measure 5
00001
00000
00010
00100
01000
00000
00010
00100
00001
00000
01000
00100
10000
00000
00010
00100
,  // measure 6
00001
00010
00100
01000
00001
10000
00010
00100
,  // measure 7
00001
01000
01100
00100
10000
00010
00110
00100
,  // measure 8
00001
00010
00011
00001
00100
00010
00110
00010
,  // measure 9
01000
00000
00001
01000
00010
00000
00100
00001
00010
00000
00100
01000
00001
00000
00010
10000
,  // measure 10
00100
00001
01000
00100
10000
00010
00100
00001
,  // measure 11
01000
00100
01100
01000
00010
00100
00110
00010
,  // measure 12
10000
00001
10001
00001
00100
00010
00110
00010
,  // measure 13
01000
00000
00100
01000
00001
00000
00100
00010
10000
00000
00100
01000
00001
00000
10000
00010
,  // measure 14
00100
00001
00010
00100
01000
00001
10000
00020
,  // measure 15
00130
00000
00000
00000
,  // measure 16
00000
00000
00000
00000
,  // measure 17
00110
01010
01001
00011
,  // measure 18
00110
10100
10001
00101
,  // measure 19
00110
10010
10001
00011
,  // measure 20
00110
01100
01001
00110
,  // measure 21
01020
00130
20001
30100
,  // measure 22
00102
00013
02001
03010
,  // measure 23
20100
30010
00201
00310
,  // measure 24
01002
00013
00102
10003
,  // measure 25
00010
01000
00100
10000
00001
00100
00010
01000
,  // measure 26
00100
10000
00001
00100
00010
01000
00100
10000
,  // measure 27
00100
01000
00010
00100
00001
10000
00100
01000
,  // measure 28
00010
00100
00001
10000
00100
01000
00010
01000
,  // measure 29
00100
10000
00001
00100
00010
01000
00100
10000
,  // measure 30
00001
00100
00010
01000
00100
10000
00001
00100
,  // measure 31
00001
10000
00100
01000
00010
00100
00001
10000
,  // measure 32
00100
01000
00010
00100
00001
10000
00100
01000
,  // measure 33
00020
02030
03002
00203
,  // measure 34
00320
20030
30002
00023
,  // measure 35
00230
02300
03020
00032
,  // measure 36
20003
32000
03020
00230
,  // measure 37
00000
00000
00000
00000
,  // measure 38
00000
00000
00000
00000
,  // measure 39
00000
00000
00000
00300
00000
00000
00000
00000
;
