#VERSION:0.81;
#TITLE:Beyond Her Garden;
#SUBTITLE:;
#ARTIST:Wooden Toaster;
#TITLETRANSLIT:;
#SUBTITLETRANSLIT:;
#ARTISTTRANSLIT:;
#GENRE:Electro-House;
#ORIGIN:;
#CREDIT:;
#BANNER:Beyond Her Garden.png;
#BACKGROUND:Beyond Her Garden-bg.png;
#PREVIEWVID:;
#JACKET:Beyond Her Garden-jacket.png;
#CDIMAGE:;
#DISCIMAGE:Beyond Her Garden.png;
#LYRICSPATH:;
#CDTITLE:;
#MUSIC:Beyond Her Garden.mp3;
#OFFSET:-7.426;
#SAMPLESTART:58.671;
#SAMPLELENGTH:15.000;
#SELECTABLE:YES;
#BPMS:0.000=131.000;
#STOPS:;
#DELAYS:;
#WARPS:;
#TIMESIGNATURES:0.000=4=4;
#TICKCOUNTS:0.000=4;
#COMBOS:0.000=1;
#SPEEDS:0.000=1.000=0.000=0;
#SCROLLS:0.000=1.000;
#FAKES:;
#LABELS:0.000=Song Start;
#BGCHANGES:-16.500=Beyond Her Garden.avi=1.000=0=0=0=StretchNoLoop====,
99999=-nosongbg-=1.000=0=0=0 // don't automatically add -songbackground-
;
#KEYSOUNDS:;
#ATTACKS:
;

//---------------dance-single - Blank----------------
#NOTEDATA:;
#CHARTNAME:;
#STEPSTYPE:dance-single;
#DESCRIPTION:Blank;
#CHARTSTYLE:;
#DIFFICULTY:Beginner;
#METER:1;
#RADARVALUES:0.081,0.097,0.009,0.000,0.000,60.000,1.000,0.000,0.000,0.000,0.000,0.000,0.000,0.081,0.097,0.009,0.000,0.000,60.000,1.000,0.000,0.000,0.000,0.000,0.000,0.000;
#CREDIT:;
#NOTES:
1000
0000
0000
0000
,
0010
0000
0000
0000
,
0100
0000
0000
0000
,
0001
0000
0000
0000
,
0010
0000
0000
0000
,
0010
0000
0000
0000
,
0100
0000
0000
0000
,
0100
0000
0000
0000
,
1000
0000
0000
0000
,
1000
0000
0000
0000
,
0001
0000
0000
0000
,
0001
0000
0000
0000
,
1000
0000
0000
0000
,
1000
0000
0000
0000
,
0010
0000
0000
0000
,
0010
0000
0000
0000
,
0100
0000
0000
0000
,
0100
0000
0000
0000
,
0001
0000
0000
0000
,
0001
0000
0000
0000
,
1000
0000
0000
0000
,
0000
0000
0000
0000
,
0010
0000
0000
0000
,
0000
0000
0000
0000
,
0100
0000
0000
0000
,
0000
0000
0000
0000
,
0001
0000
0000
0000
,
0000
0000
0000
0000
,
0000
1000
0000
1000
,
0000
0001
0000
0001
,
0000
0100
0000
0100
,
0000
0010
0000
0010
,
0000
1000
0000
1000
,
0000
0001
0000
0001
,
0000
0100
0000
0100
,
0000
0010
0000
0000
,
0010
0000
0010
0000
,
0010
0000
0000
0000
,
0100
0000
0100
0000
,
0100
0000
0000
0000
,
0001
0000
0001
0000
,
0001
0000
0000
0000
,
1000
0000
1000
0000
,
1000
0000
0000
0000
,
0010
0000
0000
0000
,
0100
0000
0000
0000
,
0001
0000
0000
0000
,
1000
0000
0000
0000
,
0100
0000
0000
0000
,
0010
0000
0000
0000
,
0001
0000
0000
0000
,
1000
0000
0000
0000
,
1001
0000
0000
0000
;

//---------------dance-single - Blank----------------
#NOTEDATA:;
#CHARTNAME:;
#STEPSTYPE:dance-single;
#DESCRIPTION:Blank;
#CHARTSTYLE:;
#DIFFICULTY:Easy;
#METER:3;
#RADARVALUES:0.145,0.145,0.009,0.037,0.000,104.000,1.000,4.000,0.000,0.000,0.000,0.000,0.000,0.145,0.145,0.009,0.037,0.000,104.000,1.000,4.000,0.000,0.000,0.000,0.000,0.000;
#CREDIT:;
#NOTES:
1000
0000
0000
0000
,
0100
0000
0000
0000
,
0010
0000
0000
0000
,
0001
0000
0000
0000
,
1000
0000
1000
0000
,
1000
0000
0000
0000
,
0010
0000
0010
0000
,
0010
0000
0000
0000
,
0100
0000
0100
0000
,
0100
0000
0000
0000
,
0001
0000
0001
0000
,
0001
0000
0000
0000
,
0010
0000
0010
0000
,
0100
0000
0100
0000
,
0001
0000
0001
0000
,
0100
0000
0100
0000
,
1000
0000
1000
0000
,
0010
0000
0010
0000
,
0100
0000
0100
0000
,
0001
0000
0000
0000
,
0001
0000
0000
0000
,
0100
0000
0000
0000
,
0010
0000
0000
0000
,
1000
0000
0000
0000
,
0200
0000
0000
0000
,
2300
0000
0000
0000
,
3002
0000
0000
0000
,
0023
0000
0000
0000
,
0031
0100
0000
0100
,
0001
1000
0000
1000
,
0100
0010
0000
0010
,
0001
0100
0000
0100
,
0010
0100
0000
0001
,
0010
0100
0000
1000
,
0010
0100
0000
0001
,
0100
1000
0000
1000
,
0100
0000
0010
0000
,
1000
0001
1000
0000
,
0001
0000
0010
0000
,
0100
1000
0001
0000
,
0100
0000
0010
0000
,
1000
0001
1000
0000
,
0010
0000
0100
0000
,
0001
0010
0100
0000
,
1000
0000
1000
0000
,
0001
1000
0001
0000
,
0100
0000
0100
0000
,
0010
0100
0010
0000
,
1000
0000
0100
0000
,
0001
0100
0010
0000
,
0001
0000
0100
0000
,
0010
1000
0001
0000
,
1001
0000
0000
0000
;

//---------------dance-single - Blank----------------
#NOTEDATA:;
#CHARTNAME:;
#STEPSTYPE:dance-single;
#DESCRIPTION:Blank;
#CHARTSTYLE:;
#DIFFICULTY:Medium;
#METER:6;
#RADARVALUES:0.282,0.241,0.009,0.176,0.000,193.000,1.000,19.000,0.000,0.000,0.000,0.000,0.000,0.282,0.241,0.009,0.176,0.000,193.000,1.000,19.000,0.000,0.000,0.000,0.000,0.000;
#CREDIT:;
#NOTES:
1000
0000
1000
0000
,
0010
0000
0010
0000
,
0100
0000
0100
0000
,
0001
0000
0001
0000
,
0010
0001
0100
0100
,
0010
1000
0001
0000
,
1000
0010
0100
0100
,
1000
0100
0001
0000
,
0010
0001
0100
0010
,
1000
0001
0010
0000
,
0100
1000
0100
0010
,
0002
0000
0000
0000
,
1003
0000
0100
0000
0000
0100
1000
0000
,
0010
0000
0100
0000
0000
0100
0010
0000
,
1000
0000
0001
0000
0000
0001
1000
0000
,
0010
0000
0100
0000
0000
0001
0100
0000
,
0010
0000
1000
0000
0000
0001
0010
0000
,
0100
0000
0001
0000
0000
0100
0010
0000
,
0001
0000
0100
0000
0000
0010
1000
0000
,
0001
0000
0010
0000
0000
0100
1000
0000
,
0020
0000
0230
0000
,
0302
2003
3002
0000
,
0203
0000
0320
0000
,
2030
3200
2300
0000
,
3020
0000
0230
0000
,
0302
2003
3200
0000
,
0320
0000
0032
0000
,
2000
0000
0000
3003
,
0010
0100
0010
0000
0100
0000
0001
0000
,
0010
0100
1000
0000
0001
0000
0100
0000
,
0010
1000
0001
0000
0010
0000
0100
0000
,
1000
0001
0100
0000
0010
0000
0100
0000
,
0001
0010
0100
0000
1000
0000
0001
0000
,
0100
0010
1000
0000
0001
0000
0010
0000
,
0100
0001
0100
0000
1000
0000
0001
0000
,
0100
1000
0100
0000
0010
0000
1000
0000
,
0001
0001
0000
0000
0010
0010
0000
0000
,
0100
0100
0000
0000
1000
1000
0000
0000
,
0001
0001
0000
0000
0100
0100
0000
0000
,
0010
0010
0000
0000
1000
1000
0000
0000
,
0001
0010
0000
0000
0010
0001
0000
0000
,
1000
0010
0000
0000
0010
1000
0000
0000
,
0001
0100
0000
0000
0001
1000
0000
0000
,
0100
1000
0000
0000
0010
0100
0000
0000
,
0001
0010
0100
1000
,
0010
0000
0100
0000
0001
1000
0001
0000
,
0010
0100
0001
0100
,
1000
0000
0010
0000
0100
0001
1000
0000
,
0100
0010
0100
1000
,
0001
0000
0100
0000
0010
1000
0001
0000
,
0010
0100
1000
0100
,
0010
0000
0001
1000
0000
0010
0100
0000
,
1001
0000
0000
0000
;

//---------------dance-single - Blank----------------
#NOTEDATA:;
#CHARTNAME:;
#STEPSTYPE:dance-single;
#DESCRIPTION:Blank;
#CHARTSTYLE:;
#DIFFICULTY:Hard;
#METER:11;
#RADARVALUES:0.382,0.483,0.028,0.046,0.116,280.000,3.000,5.000,0.000,0.000,0.000,0.000,0.000,0.382,0.483,0.028,0.046,0.116,280.000,3.000,5.000,0.000,0.000,0.000,0.000,0.000;
#CREDIT:;
#NOTES:
1000
0100
1000
0000
,
0001
0010
0001
0000
,
0100
0010
0100
0000
,
0001
0010
0100
0000
,
1000
0010
0100
0001
,
0010
0000
0000
0010
0000
0000
0010
0000
0000
0000
0000
0000
0000
0000
0000
0000
,
0001
0100
0010
1000
,
0001
0000
0000
0001
0000
0000
0001
0000
0000
0000
0000
0000
0000
0000
0000
0000
,
0100
0000
0010
0000
1000
0100
1000
0000
,
0010
0000
0000
0100
0000
0000
0001
0000
0000
0000
0000
0000
0000
0000
0000
0000
,
0010
0000
0100
0000
1000
0001
0100
0000
,
0020
0000
0000
0000
,
1030
0000
0100
1000
0000
1000
0001
0000
,
0100
0000
0010
1000
0000
1000
0001
0000
,
0010
0000
0100
0001
0000
0001
0100
0000
,
1000
0000
0001
0100
0000
0100
0010
0000
,
1000
0000
0001
0010
0000
0010
0001
0000
,
0100
0000
0010
1000
0000
1000
0100
0000
,
0010
0000
0100
1000
0000
1000
0001
0000
,
0100
0000
0010
0100
0000
0001
0010
0000
,
0100
1000
0100
0010
,
0001
1000
0002
0000
,
0103
0010
0100
0001
,
0010
0100
2000
0000
,
3010
1000
0100
0001
,
0100
1000
0020
0000
,
0130
0001
0010
0100
,
2000
0000
0001
0000
,
3001
0100
0001
0000
0000
0000
0010
0000
0100
0000
1000
0000
0000
0000
0001
0000
,
0100
1000
0100
0000
0000
0000
0001
0000
0010
0000
0100
0000
0000
0000
1000
0000
,
0010
0001
0010
0000
0000
0000
1000
0000
0001
0000
0010
0000
0000
0000
0100
0000
,
1000
0001
1000
0000
0000
0000
0100
0000
0010
0000
0001
0000
0000
0000
1000
0000
,
0010
0100
0010
0000
0000
0000
1000
0000
0100
0000
0010
0000
0000
0000
0010
0000
,
0001
1000
0001
0000
0000
0000
0100
0000
0001
0000
0010
0000
0000
0000
0100
0000
,
1000
0001
1000
0000
0000
0000
0010
0000
1000
0000
0001
0000
0000
0000
0010
0000
,
0100
1000
0100
0000
0000
0000
0010
0000
0001
0000
1000
0000
0000
0000
0000
0000
,
0010
0000
0001
0000
0100
0000
0010
1000
0010
0000
1000
0000
0001
0000
1000
0001
,
1000
0000
0010
0000
0100
0000
0001
1000
0001
0000
0010
0000
0100
0000
1000
0001
,
1000
0000
0001
0000
0100
0000
0010
1000
0010
0000
1000
0000
0010
0000
0100
1000
,
0100
0000
0001
0000
0010
0000
0100
0001
0100
0000
1000
0000
0100
0000
0010
0000
,
0100
1000
0100
0000
0010
0000
0001
0000
0100
1000
0100
0000
0010
0000
1000
0000
,
0001
0010
0001
0000
0010
0000
0100
0000
1000
0001
1000
0000
0010
0000
0100
0000
,
0001
0010
0001
0000
1000
0000
0010
0000
0100
1000
0100
0000
0010
0000
1000
0000
,
0001
0100
0001
0000
1000
0000
0010
0000
0100
0000
0100
0000
0001
0000
0000
0000
,
0010
0000
0100
0000
0001
0100
0010
0000
,
0001
0000
0100
0010
0000
0010
0100
0000
,
0001
0000
0010
0000
0100
1000
0001
0000
,
0100
0000
0010
1000
0000
1000
0010
0000
,
0110
0000
0100
0001
0000
0001
0010
0000
,
0100
0000
1000
0001
0100
0000
0010
0000
,
1010
0000
1000
0000
0100
1000
0001
0000
,
0100
0000
0010
1000
0000
1000
0001
0000
,
1001
0000
0000
0000
;

//---------------dance-single - Blank----------------
#NOTEDATA:;
#CHARTNAME:;
#STEPSTYPE:dance-single;
#DESCRIPTION:Blank;
#CHARTSTYLE:;
#DIFFICULTY:Challenge;
#METER:13;
#RADARVALUES:0.621,0.579,0.297,0.065,0.394,429.000,32.000,7.000,0.000,0.000,0.000,0.000,0.000,0.621,0.579,0.297,0.065,0.394,429.000,32.000,7.000,0.000,0.000,0.000,0.000,0.000;
#CREDIT:;
#NOTES:
// measure 0
0010
0000
1000
0010
0100
0010
1000
0100
0010
0000
0001
0000
0100
0010
0100
0000
,  // measure 1
0010
0000
0001
0010
0100
0001
0010
0100
1000
0000
0001
0000
1000
0001
1000
0000
,  // measure 2
0010
0000
1000
0100
0010
0100
1000
0010
0100
0000
0001
0000
0010
0100
0010
0000
,  // measure 3
0100
0000
0001
0100
0010
0001
0100
0010
1000
0000
0001
0000
1000
0001
1000
0000
,  // measure 4
0001
0100
0010
1000
0001
0000
0010
0010
,  // measure 5
0100
0000
0000
1100
0000
0000
0101
0000
0000
0000
0000
0000
0010
0100
0010
0000
,  // measure 6
0001
0010
0100
1000
0001
0000
0100
0000
,  // measure 7
0101
0000
0000
0110
0000
0000
1010
0000
0000
0000
0000
0000
1000
0001
1000
0000
,  // measure 8
0100
0010
0001
1000
0010
0000
0100
0100
,  // measure 9
0001
0000
0000
0010
0000
0000
0100
0000
0000
0000
0000
0000
1000
0010
1000
0000
,  // measure 10
0010
0100
0001
1000
0100
0000
0010
0000
,  // measure 11
0110
0100
1000
0002
0000
0000
0000
0003
,  // measure 12
1010
0000
0000
0000
0001
0000
1000
0010
1000
0000
0100
0000
0100
0000
0010
0000
,  // measure 13
0002
0000
0000
0000
1003
0000
0001
1000
0010
1000
0100
0000
0010
0000
0000
0000
,  // measure 14
0110
0000
0000
0000
1000
0001
1000
0000
0000
0000
0001
0000
0001
0000
0000
0000
,  // measure 15
0011
0000
0010
0000
0100
0000
1000
0010
0100
0001
0100
0000
0010
0000
0000
0000
,  // measure 16
0110
0000
0000
0000
0010
0000
1000
0001
1000
0000
0100
0000
0100
0000
0010
0000
,  // measure 17
0002
0000
0000
0000
1003
0000
0001
0010
0001
0100
0010
0000
1000
0000
0000
0000
,  // measure 18
1001
0000
0000
0000
0010
0100
0010
0000
0000
0000
0100
0000
0001
0000
0000
0000
,  // measure 19
0011
0000
0010
0000
0100
0000
1000
0010
1000
0010
0100
0000
0001
0000
0000
0000
,  // measure 20
0011
0010
0100
0010
0100
0000
1000
0010
,  // measure 21
0100
0000
0000
0100
0000
0000
0101
0000
0000
0000
0000
0000
0001
0010
0001
0000
,  // measure 22
0010
0100
0010
0100
1000
0000
0010
0000
,  // measure 23
1010
0000
0000
0101
0000
0000
0011
0000
0000
0000
0000
0000
0010
0100
0010
0000
,  // measure 24
0100
1000
0001
0010
1000
0000
0010
0100
,  // measure 25
1000
0000
0000
0001
0000
0000
1001
0000
0000
0000
0000
0000
1000
0010
1000
0000
,  // measure 26
0010
0100
0001
0010
0100
0000
0110
0000
,  // measure 27
1001
0001
1000
0020
0200
0000
0000
0330
,  // measure 28
0010
1000
0010
0000
0100
0000
0001
0100
0001
0000
0010
0000
0001
0000
0010
0100
,  // measure 29
1000
0010
1000
0000
0001
0000
0010
0000
0100
0000
1000
0000
0010
0000
1010
0000
,  // measure 30
1000
0001
1000
0000
0010
0000
0001
1000
0001
0000
0010
0000
1000
0000
0100
0010
,  // measure 31
0001
0100
0001
0000
0100
0000
0010
0000
1000
0001
0000
0000
1001
0000
0001
0100
,  // measure 32
0010
0100
0010
0000
1000
0000
0010
0100
0010
0000
0100
0000
0001
0000
0010
0000
,  // measure 33
0100
0010
0100
0000
1000
0000
0010
0000
0100
0000
0001
0000
1000
0000
0001
0000
,  // measure 34
0100
0010
1000
0000
0100
0000
0100
0010
0001
0000
0100
0000
0010
0000
1000
0001
,  // measure 35
0010
0100
0010
0000
0100
0000
1000
0000
0001
1000
0000
0000
1001
0000
0000
0000
,  // measure 36
1000
0000
0100
0000
0010
0000
0100
1000
0100
0000
0010
0000
0001
0000
0010
0100
,  // measure 37
0010
0000
0001
0000
0100
0000
0001
0010
0001
0000
0100
0000
0010
0000
1000
0100
,  // measure 38
0010
0000
0001
0000
0100
0000
0001
0100
0010
0000
1000
0000
0100
0000
0010
0100
,  // measure 39
0010
0000
0100
0000
0010
0000
0001
1000
0001
0000
1000
0000
0001
0000
0000
0000
,  // measure 40
1000
0000
0100
0000
0001
0000
1000
0010
0001
0000
0100
0000
1000
0000
0001
0010
,  // measure 41
1000
0000
0100
0000
0001
0000
1000
0010
0001
0000
0100
0000
0010
0000
0100
0000
,  // measure 42
0010
0000
1000
0000
0001
0000
0001
0100
1000
0000
0001
0000
0010
0000
1000
0100
,  // measure 43
0001
0000
1000
0000
0010
0000
0001
1000
0001
1000
0001
0000
1001
0000
1000
0010
,  // measure 44
0100
0000
0000
0000
0110
0000
0010
1000
0010
0000
1000
0000
0100
0000
0010
0000
,  // measure 45
0012
0000
0000
0000
0103
0000
0001
0010
0100
1000
0001
0000
1000
0000
0000
0000
,  // measure 46
1010
0000
0000
0000
0010
0100
0010
0000
0000
0000
0100
0000
0101
0000
0000
0000
,  // measure 47
0001
0000
0010
0000
0001
0000
0100
1000
0100
1000
0100
0000
0010
0000
1000
0000
,  // measure 48
1001
0000
0000
0000
0010
0000
0001
0010
0100
0000
1000
0000
1000
0000
0010
0000
,  // measure 49
0200
0000
0000
0000
0310
0000
0100
0001
0100
0001
0100
0000
0010
0000
0000
0000
,  // measure 50
1010
0000
0000
0000
1000
0001
1000
0000
0000
0000
0001
0000
0101
0000
0000
0000
,  // measure 51
1000
0000
0010
0000
1000
0000
0100
0001
0100
0001
0100
0000
1000
0000
0001
0000
,  // measure 52
1001
0000
0000
0000
;
