#VERSION:0.81;
#TITLE:Becoming Popular (The Pony Everypony Should Know);
#SUBTITLE:;
#ARTIST:♪♪♪♪♪;
#TITLETRANSLIT:;
#SUBTITLETRANSLIT:;
#ARTISTTRANSLIT:;
#GENRE:My Little Pony;
#ORIGIN:;
#CREDIT:;
#BANNER:Becoming Popular (The Pony Everypony Should Know).png;
#BACKGROUND:Becoming Popular (The Pony Everypony Should Know)-bg.png;
#PREVIEWVID:Preview.avi;
#JACKET:Becoming Popular (The Pony Everypony Should Know)-jacket.png;
#CDIMAGE:;
#DISCIMAGE:;
#LYRICSPATH:;
#CDTITLE:;
#MUSIC:Becoming Popular (The Pony Everypony Should Know).mp3;
#OFFSET:-0.065;
#SAMPLESTART:25.240;
#SAMPLELENGTH:15.000;
#SELECTABLE:YES;
#BPMS:0.000=120.000,
170.000=94.517,
171.000=91.453,
172.000=89.866,
173.000=93.130,
174.000=94.103,
175.000=94.248,
176.000=90.647,
177.000=98.617,
178.000=96.085,
179.000=85.352,
180.000=98.650,
181.000=83.346,
182.000=87.169,
183.000=100.831,
184.000=94.261,
185.000=85.226,
186.000=82.646,
187.000=80.250,
188.000=67.072,
189.000=82.335,
190.000=67.607,
191.000=78.164,
192.000=43.132,
193.000=36.236,
194.000=31.417;
#STOPS:;
#DELAYS:;
#WARPS:;
#TIMESIGNATURES:0.000=4=4,
112.000=6=4,
118.000=4=4;
#TICKCOUNTS:0.000=4;
#COMBOS:0.000=1;
#SPEEDS:0.000=1.000=0.000=0;
#SCROLLS:0.000=1.000;
#FAKES:;
#LABELS:0.000=Song Start;
#BGCHANGES:-0.750=Becoming Popular (The Pony Everypony Should Know).avi=1.000=0=0=0=StretchNoLoop====,
99999=-nosongbg-=1.000=0=0=0 // don't automatically add -songbackground-
;
#KEYSOUNDS:;
#ATTACKS:
;

//---------------dance-single - Blank----------------
#NOTEDATA:;
#CHARTNAME:;
#STEPSTYPE:dance-single;
#DESCRIPTION:Blank;
#CHARTSTYLE:;
#DIFFICULTY:Hard;
#METER:11;
#RADARVALUES:0.448,0.510,0.218,0.082,0.241,312.000,24.000,9.000,0.000,0.000,0.000,0.000,0.000,0.448,0.510,0.218,0.082,0.241,312.000,24.000,9.000,0.000,0.000,0.000,0.000,0.000;
#CREDIT:;
#NOTES:
1000
0000
0000
1100
0000
0000
0100
0000
,
0010
0000
0000
0011
0000
0000
0001
0000
,
0100
0000
0000
0110
0000
0000
0010
0000
,
1000
0000
0002
2003
,
3100
0000
1000
0000
0010
0000
0100
0000
0001
0000
0000
0001
0000
0000
0010
0000
,
0001
0000
0010
0000
0001
0000
0000
0000
1000
0000
0000
1000
0000
0000
0010
0000
,
0000
0000
1000
0001
1000
0000
0100
0000
0010
0000
0100
0000
1000
0000
0010
0000
,
1000
0000
0001
0000
0010
0000
0001
0000
0010
0000
0100
1000
0000
0000
0001
0000
,
0000
0000
0100
0000
0001
0000
0100
0000
0010
0000
0000
0010
0000
0000
1000
0000
,
0000
0000
0001
0000
0010
0000
0000
0000
0100
0000
0000
0100
0000
0000
0110
0000
,
0000
0000
0010
0001
0010
0000
0001
0000
0100
0000
0010
0000
1000
0000
0100
0000
,
0001
0000
0100
0000
1000
0000
0010
0000
0100
0000
0001
0010
0000
0000
0100
0000
,
0000
0000
0110
0000
0110
0000
0110
0000
0110
0000
0100
0000
1000
0010
1000
0000
,
0100
0000
1000
0010
0000
0000
0100
0000
0100
0000
0001
0010
0000
0100
0000
0000
,
0100
0000
0000
1000
0000
0000
1000
0000
0000
0000
0000
0000
0001
1000
0001
0000
,
1000
0000
0000
0000
0001
1000
0001
0000
1000
0000
0100
0000
0010
0000
0001
0000
,
0200
0000
0000
0000
0310
0000
0100
0000
0000
0010
0000
0000
0010
0000
1000
0000
,
0100
0000
0000
0010
0000
0000
0001
0000
0100
0000
0010
0000
1000
0000
0000
0000
,
1001
0000
0000
0001
0000
0000
0010
0000
0000
0000
0000
0000
0110
0000
0000
0000
,
0000
0000
0100
1000
0001
0000
0100
0000
0010
0000
1000
0000
0001
0000
0100
0000
,
0010
0000
1000
0000
0100
0000
0010
0000
0100
0000
1000
0001
0000
0000
0100
0000
,
0000
0110
0110
0110
0110
0010
1000
0100
,
0010
0001
0010
0001
0100
0010
0100
0000
,
0101
0000
0000
0000
0011
0000
0010
0100
,
1000
0001
0100
0001
0010
0100
1000
0000
,
0010
0000
0000
0000
1010
0000
1000
0001
,
1000
0000
0000
0001
0000
0000
0010
0000
0001
0000
0010
0000
0100
0000
1000
0000
,
0001
0100
0000
0100
0000
0000
0010
0000
0000
0000
0000
0000
0000
0000
0000
0000
,
1000
0000
0001
0010
0001
0000
1000
0000
0010
0000
1000
0000
0001
0000
0100
0000
,
0001
0100
0020
0000
2030
0000
0000
0000
,
0002
0000
3000
0000
0103
0110
0110
0110
,
0110
0000
0010
1000
0010
1000
0010
1000
0100
0000
0000
0010
0000
0000
0001
0000
,
1000
0010
1000
0001
0100
0000
0100
0010
,
0000
0000
0000
0010
1000
0100
0010
0000
0010
0000
0000
0000
0001
0000
0010
0000
,
0001
1000
0010
0100
0001
0000
0010
0100
,
0000
0100
0000
0000
0100
1000
0100
0000
1000
0000
0000
0010
0000
0000
0100
0000
,
0001
0000
0010
0000
0100
0000
1000
0000
0010
0100
0000
0100
0000
0000
0001
0000
,
0000
0000
0000
0000
1001
0000
0000
0000
1000
0000
0100
0010
0100
0000
1000
0000
,
0010
0000
0100
0000
0001
0000
1000
0000
0100
0010
0100
0010
0001
0010
0001
0010
,
0100
1000
0100
1000
0010
1000
0010
1000
0001
0000
0000
1000
0000
0000
1000
0000
,
0000
0000
0100
0000
0010
0000
0100
1000
0001
0000
0000
0100
0000
0000
0001
0000
,
0000
0100
0000
0000
0010
0000
1000
0000
0100
0000
0000
0010
0000
0000
0100
0000
,
0010
0100
0010
0100
1000
0001
1000
0001
0200
0000
0000
0000
0000
0000
0000
0000
,
0000
0000
0310
0100
0001
0010
0001
1000
,
0010
1000
0000
0100
0010
0100
1000
0001
,
1000
0000
1001
0000
0000
0000
0000
0001
,
0010
0100
1000
0010
0100
0001
0010
0100
,
0010
0100
0000
0000
0220
0000
0000
0000
,
0030
0000
0000
0300
;

//---------------dance-single - Blank----------------
#NOTEDATA:;
#CHARTNAME:;
#STEPSTYPE:dance-single;
#DESCRIPTION:Blank;
#CHARTSTYLE:;
#DIFFICULTY:Beginner;
#METER:2;
#RADARVALUES:0.083,0.155,0.009,0.091,0.000,53.000,1.000,10.000,0.000,0.000,0.000,0.000,0.000,0.083,0.155,0.009,0.091,0.000,53.000,1.000,10.000,0.000,0.000,0.000,0.000,0.000;
#CREDIT:;
#NOTES:
0010
0000
0000
0000
,
0010
0000
0000
0000
,
0100
0000
0000
0000
,
0100
0000
0000
0000
,
1000
0000
0000
0000
,
1000
0000
0000
0000
,
0001
0000
0000
0000
,
0001
0000
0000
0000
,
0100
0000
0000
0000
,
0001
0000
0000
0000
,
0010
0000
0000
0000
,
1000
0000
0000
0000
,
0100
0100
0100
0000
,
0100
0000
0000
0000
,
0100
0000
0000
0000
,
1000
0000
0000
0000
,
1000
0000
0000
0000
,
0010
0000
0000
0000
,
0010
0000
0000
0000
,
0001
0000
0000
0000
,
0001
0000
0000
0000
,
0100
0100
0100
0000
,
0200
0000
0000
0000
,
0000
0000
0000
0000
,
0320
0000
0000
0000
,
0000
0000
0000
0000
,
2030
0000
0000
0000
,
0000
0000
0000
0000
,
3002
0000
0000
0000
,
0000
0000
0000
0000
,
0000
0000
0103
0100
,
0100
0000
0100
0000
,
0000
0000
0100
0000
,
0000
0000
0001
0000
,
0000
0000
0001
0000
,
0000
0000
0010
0000
,
0000
0000
0010
0000
,
0000
0000
1000
0000
,
0000
0000
1000
0000
,
0000
0000
2000
0000
,
0000
0000
3200
0000
,
0000
0000
0320
0000
,
0000
0000
0032
0000
,
0000
0000
1003
0000
,
1000
0000
1000
0000
,
0001
0000
0000
0000
,
1000
0000
0001
0000
,
1000
0000
2002
0000
,
0003
0000
0000
3000
;

//---------------dance-single - Blank----------------
#NOTEDATA:;
#CHARTNAME:;
#STEPSTYPE:dance-single;
#DESCRIPTION:Blank;
#CHARTSTYLE:;
#DIFFICULTY:Easy;
#METER:5;
#RADARVALUES:0.220,0.222,0.000,0.227,0.000,144.000,0.000,25.000,0.000,0.000,0.000,0.000,0.000,0.220,0.222,0.000,0.227,0.000,144.000,0.000,25.000,0.000,0.000,0.000,0.000,0.000;
#CREDIT:;
#NOTES:
1000
0000
1000
1000
,
0001
0000
0001
0001
,
0010
0000
0010
0010
,
0100
0000
0100
0100
,
1000
0100
1000
0000
,
0010
1000
0010
0000
,
0100
0001
0100
0000
,
0001
0010
0001
0000
,
0010
0100
1000
0000
,
0001
0100
0010
0000
,
1000
0010
0100
0000
,
0001
0010
0100
0000
,
0100
0100
0100
0010
,
0020
0130
0020
0130
,
0100
1000
0010
0100
,
0002
0103
0002
0103
,
0001
0010
0100
1000
,
0020
1030
0020
1030
,
0010
0100
0001
1000
,
0200
1300
0200
1300
,
0010
1000
0001
0100
,
0010
0010
0010
0000
,
2000
0000
3002
0000
,
2003
0000
0000
0000
,
3020
0000
0230
0000
,
0320
0000
0000
0000
,
0230
0000
0302
0000
,
2003
0000
0000
0000
,
3200
0000
2300
0000
,
3002
0000
0203
0000
,
0000
0000
0010
0010
,
0310
0100
0001
0000
,
0001
0000
1000
0100
,
1000
0010
0100
0000
,
0100
0000
0001
0100
,
0001
0010
0100
0000
,
0100
0000
1000
0001
,
1000
0100
0010
0000
,
0010
0000
0001
0010
,
0100
1000
0010
0010
,
0100
0100
0001
1000
,
0001
1000
0010
0010
,
0100
0100
0002
0000
,
0000
1003
1000
0100
,
0010
0001
1000
0100
,
0010
0002
0000
0000
,
1003
0001
1000
0100
,
0020
0000
0200
0000
,
0030
0000
0000
0300
;

//---------------dance-single - Blank----------------
#NOTEDATA:;
#CHARTNAME:;
#STEPSTYPE:dance-single;
#DESCRIPTION:Blank;
#CHARTSTYLE:;
#DIFFICULTY:Medium;
#METER:8;
#RADARVALUES:0.350,0.310,0.064,0.255,0.045,234.000,7.000,28.000,0.000,0.000,0.000,0.000,0.000,0.350,0.310,0.064,0.255,0.045,234.000,7.000,28.000,0.000,0.000,0.000,0.000,0.000;
#CREDIT:;
#NOTES:
1000
0000
0000
0100
0000
0000
0010
0000
,
0001
0000
0000
0100
0000
0000
0010
0000
,
1000
0000
0000
0010
0000
0000
0100
0000
,
0001
0000
0010
0010
,
0100
1000
0100
0000
1000
0000
0001
0000
,
0100
0000
0001
0000
0100
0000
0000
0000
0001
0000
0000
1000
0000
0000
0001
0000
,
0000
0010
0001
0100
0010
1000
0100
0010
,
0001
1000
0001
0000
1000
0001
1000
0000
,
0000
0000
0100
0000
0010
0000
0100
0000
1000
0000
0000
1000
0000
0000
1000
0000
,
0000
0000
0100
0000
0010
0000
0000
0000
0001
0000
0000
0001
0000
0000
0001
0000
,
0000
1000
0010
0100
0001
0010
0001
0010
,
0100
1000
0100
1000
0010
1000
0001
0000
,
0000
0010
0010
0010
0010
0000
0110
0000
,
0100
0000
0000
1000
0000
0000
0100
0000
1000
0000
0000
0100
0000
0000
1000
0000
,
0010
0000
0100
0000
0010
0100
0010
0000
,
0100
0000
0001
0010
0100
1000
0010
0100
,
0020
0000
1000
1030
0000
0000
0010
0000
,
0100
0000
0000
0001
0000
0000
1000
0000
0100
0000
1000
0000
0001
0000
0100
0000
,
0010
0000
0000
1000
0000
0000
0010
0000
0000
0000
0000
0000
0110
0000
0000
0000
,
0100
0001
0100
0001
0010
0100
0010
0100
,
1000
0010
1000
0010
0100
0001
0010
0100
,
0000
1000
1000
1000
1000
0000
0001
0000
,
0002
0103
0002
0013
,
0220
0000
0330
0100
,
2000
3100
2000
3010
,
0220
0000
0330
0010
,
2000
3010
2000
3001
,
2002
0000
3003
0100
,
0002
0013
0002
1003
,
0002
0103
0120
0000
,
0100
0000
0000
0000
0100
0100
0100
0100
,
0130
0000
0000
0000
0010
0000
0000
0000
1000
0000
0000
0010
0000
0000
0100
0000
,
0001
1000
0001
0000
1000
0000
0100
0010
,
0000
0000
0001
1000
0001
0000
1000
0001
,
1000
0000
0010
0100
0010
0000
0100
0001
,
0000
0000
0000
0000
0010
0000
0100
0000
1000
0000
0000
0010
0000
0000
0100
0000
,
0001
0000
0010
0000
0100
0000
1000
0000
0010
0000
0000
0010
0000
0000
0010
0000
,
0000
0000
0100
0000
0001
0010
0100
0000
,
1000
0010
0100
0000
0001
1000
0001
1000
,
0001
1000
0001
1000
0002
0000
0013
0000
,
0020
0130
0200
1300
,
2000
3010
0020
0031
,
2000
3100
0002
0000
,
0000
0000
1003
1000
1000
0000
0100
0100
,
0100
0000
0010
0010
0010
0000
0001
0001
,
0002
0000
2003
0000
0000
0000
0000
3001
,
0001
0000
1000
1000
1000
0000
0010
0010
,
0010
0000
0220
0000
,
0300
0000
0000
0030
;

//---------------pump-single - Blank----------------
#NOTEDATA:;
#CHARTNAME:;
#STEPSTYPE:pump-single;
#DESCRIPTION:Blank;
#CHARTSTYLE:;
#DIFFICULTY:Medium;
#METER:8;
#RADARVALUES:0.403,0.371,0.191,0.155,0.136,272.000,21.000,17.000,0.000,0.000,0.000,0.000,0.000,0.403,0.371,0.191,0.155,0.136,272.000,21.000,17.000,0.000,0.000,0.000,0.000,0.000;
#CREDIT:;
#OFFSET:-0.065;
#BPMS:0.000=120.000
,167.000=94.517
,168.000=91.453
,169.000=89.866
,170.000=93.130
,171.000=94.103
,172.000=94.248
,173.000=90.647
,174.000=98.617
,175.000=96.085
,176.000=85.352
,177.000=98.650
,178.000=83.346
,179.000=87.169
,180.000=100.831
,181.000=94.261
,182.000=85.226
,183.000=82.646
,184.000=80.250
,185.000=67.072
,186.000=82.335
,187.000=67.607
,188.000=78.164
,189.000=43.132
,190.000=36.236
,191.000=31.417
;
#STOPS:48.500=0.125
,48.750=0.125
,49.000=0.125
,49.250=0.125
,83.500=0.125
,83.750=0.125
,84.000=0.125
,84.250=0.125
,120.500=0.125
,120.750=0.125
,121.000=0.125
,121.250=0.125
;
#DELAYS:;
#WARPS:;
#TIMESIGNATURES:0.000=4=4
,110.000=6=4
,116.000=4=4
;
#TICKCOUNTS:0.000=4
;
#COMBOS:0.000=1
;
#SPEEDS:0.000=1.000=0.000=0
,84.250=0.500=1.000=0
,116.000=1.000=4.000=0
;
#SCROLLS:0.000=1.000
;
#FAKES:;
#LABELS:0.000=Song Start
;
#NOTES:
// measure 0
10000
00000
00000
10000
00000
00000
00000
00000
,  // measure 1
00010
00000
00000
10000
00000
00000
00000
00000
,  // measure 2
00001
00000
00000
00001
00000
00000
00000
00000
,  // measure 3
02000
00000
00020
00000
,  // measure 4
03030
00000
01000
00000
00100
00000
10000
00000
00010
00000
00000
00010
00000
00000
00010
00000
,  // measure 5
01000
00000
00100
00000
00010
00000
00000
00000
10000
00000
00000
10000
00000
00000
00100
00000
,  // measure 6
00000
00010
00100
01000
00001
00010
10000
00001
,  // measure 7
10000
00000
00010
00000
01000
00000
00100
00000
00010
00000
00000
00010
00000
00000
00100
00000
,  // measure 8
00000
00000
01000
00000
00100
00000
10000
00000
00010
00000
00000
01000
00000
00000
00010
00000
,  // measure 9
00000
00000
00100
00000
00001
00000
00000
00000
10000
00000
00000
00001
00000
00000
10000
00000
,  // measure 10
00000
00010
10000
00010
10000
00001
01000
00001
,  // measure 11
01000
00000
00010
00000
10000
00000
00010
00000
10000
00000
00000
00001
00000
00000
10000
00000
,  // measure 12
00000
00000
00100
00100
00100
01010
00000
00000
01000
00000
00000
00000
00100
00000
00000
01100
,  // measure 13
00000
00000
01000
00000
00010
00000
00000
00110
00000
00100
00000
00000
00001
00000
00000
10000
,  // measure 14
00000
10100
00000
00000
10000
00100
00010
00000
,  // measure 15
00010
00100
10000
01000
00100
00001
00020
00000
,  // measure 16
00031
00000
00010
00000
00000
00110
00000
00000
01100
00000
01000
00000
00100
00000
00000
10000
,  // measure 17
00000
00000
00010
00000
00100
00000
00001
00000
00010
00000
00000
00000
10010
00000
00000
11000
,  // measure 18
00000
01001
00000
00000
10001
00000
10000
00010
,  // measure 19
00001
00010
10000
00001
00010
00001
00100
00010
,  // measure 20
01000
00000
00100
00000
10000
00000
00000
00001
00000
00000
10000
00000
00000
00000
00100
00100
,  // measure 21
00100
10001
00000
00000
00000
00000
00000
00000
20000
00000
00000
00000
00000
00000
00000
00000
,  // measure 22
32000
00000
00000
00000
03100
01000
10000
01000
,  // measure 23
00100
00010
01000
00100
00020
00000
00000
00000
,  // measure 24
00032
00000
00000
00000
00103
00001
00010
00001
,  // measure 25
00100
00000
00000
00000
00010
00000
00010
00000
01000
00000
00000
00010
00000
00000
01000
00000
,  // measure 26
00100
00000
00010
00000
00001
00000
00100
00000
00010
00000
00000
01000
00000
00000
01001
00000
,  // measure 27
00001
00010
00100
01000
10000
00001
10000
01000
,  // measure 28
00010
01000
00100
00010
00001
00100
00010
00000
,  // measure 29
02020
00000
00000
00000
,  // measure 30
03030
00000
00100
00100
00100
10001
10000
00000
00001
00000
10000
00000
00010
00000
00000
00010
,  // measure 31
00000
00010
10000
01000
00100
00010
01000
00000
,  // measure 32
00001
00000
01000
00000
00000
00000
00000
00001
00100
00000
00010
00000
00100
00000
00000
00000
,  // measure 33
00010
00100
01000
10000
00001
10000
00020
00000
,  // measure 34
10030
00000
00010
00000
00000
01000
00000
00000
01000
00000
00100
00000
01100
00000
00000
01001
,  // measure 35
00000
00000
10001
00000
10000
00000
00010
00000
10000
00000
01000
00000
00001
00000
00000
00010
,  // measure 36
00000
01000
00000
00000
01010
00000
01000
00100
,  // measure 37
00010
10000
00100
00001
01000
00100
00010
10000
,  // measure 38
00100
00000
00001
00000
01000
00000
00100
00000
00010
00000
00001
00000
10000
00000
00000
00010
,  // measure 39
00000
00000
10000
00000
00001
00000
10000
00000
00010
00000
01000
00000
00001
00000
00000
01000
,  // measure 40
00000
00000
00001
00000
10000
00000
00010
00000
01000
00000
00001
00000
00010
00000
00000
00010
,  // measure 41
00000
00010
00100
01000
00010
00100
00202
00000
,  // measure 42
00000
00000
00303
00000
00001
00001
10000
00100
,  // measure 43
10000
00001
00100
00001
00000
01000
00010
00100
,  // measure 44
00010
01000
02100
00000
00020
00000
00000
00000
,  // measure 45
03030
00010
10000
00100
10000
00001
00100
00001
,  // measure 46
01000
00100
01000
00010
00000
00000
00200
00000
,  // measure 47
00300
20002
00000
00000
,  // measure 48
30003
00000
00000
00000
;
