#TITLE:Becoming Popular (The Pony Everypony Should Know);
#SUBTITLE:;
#ARTIST:RainbowCrash88;
#TITLETRANSLIT:;
#SUBTITLETRANSLIT:;
#ARTISTTRANSLIT:;
#GENRE:Chiptune;
#CREDIT:;
#BANNER:Becoming Popular (The Pony Everypony Should Know) [8-bit].png;
#BACKGROUND:Becoming Popular (The Pony Everypony Should Know) [8-bit]-bg.png;
#LYRICSPATH:;
#CDTITLE:;
#MUSIC:Becoming Popular (The Pony Everypony Should Know) [8-bit].ogg;
#OFFSET:-8.940;
#SAMPLESTART:63.420;
#SAMPLELENGTH:15.000;
#SELECTABLE:YES;
#BPMS:0.000=120.000
,154.000=94.000
,158.000=92.000
,169.500=86.000
,170.000=80.000
,172.000=70.000
,174.000=60.000
,175.000=45.000
;
#STOPS:
;
#BGCHANGES:;
#KEYSOUNDS:;
#ATTACKS:;

//---------------dance-single - ----------------
#NOTES:
     dance-single:
     :
     Hard:
     9:
     0.324,0.327,0.000,0.328,0.064,213.000,0.000,36.000,0.000,0.000,0.000,0.324,0.327,0.000,0.328,0.064,213.000,0.000,36.000,0.000,0.000,0.000:
0000
0000
1000
0000
0010
0000
0100
0000
0001
0000
0000
0100
0000
0000
0010
0000
,
1000
0000
0100
0000
0010
0000
0000
0000
0100
0000
0000
1000
0000
0000
0001
0000
,
0000
0100
0010
1000
0100
0010
0100
1000
,
0001
0000
0100
0000
0010
0000
1000
0000
0001
0000
0000
0010
0000
0000
0001
0000
,
0000
0000
0100
0000
0010
0000
1000
0000
0100
0000
0000
1000
0000
0000
0002
0000
,
0000
0000
0103
0000
0100
0000
0000
0000
0010
0000
0000
1000
0000
0000
0002
0000
,
0000
1003
0100
1000
0010
0100
0001
1000
,
0100
0000
0010
0000
0001
0000
0010
0000
0100
0000
0000
1000
0000
0000
0001
0000
,
0000
1000
0001
1000
0002
0000
0000
0000
,
2003
0000
3100
0000
1000
0010
0100
0000
,
0001
0100
0010
0000
1000
0000
0001
0000
,
0020
0000
0031
0000
0100
0010
0100
0000
,
0001
0000
0010
0100
0000
1000
0001
0000
,
0200
0000
0310
0000
0100
0001
1000
0000
,
0100
0000
1000
0002
0000
0000
0103
0000
,
0020
0000
1030
0000
0100
1000
0001
0100
,
0010
1000
0001
0010
0100
0010
0001
0000
,
0000
1000
0001
1000
0002
0000
0000
0000
,
2003
0000
3020
0000
,
0230
0000
0000
0000
,
0302
0000
0023
0000
,
0230
0000
0000
0000
,
0320
0000
0032
0000
,
2003
0000
3002
0000
,
0203
0000
0320
0000
,
2030
0000
0000
0000
,
3001
0000
0000
0000
0000
1000
0001
1000
,
0002
0000
0000
0000
1000
0000
0000
0000
1003
0000
0000
0010
0000
0000
0100
0000
,
0001
0100
0010
1000
0100
0000
1000
0001
,
0000
0000
0000
0001
0000
1000
0100
0000
0010
0000
0000
0000
0100
0000
0001
0000
,
0100
0010
0001
0100
0020
0000
1030
0200
,
0000
0000
1300
0000
0010
0000
0100
0000
0001
0000
0000
1000
0000
0000
0001
0000
,
0100
0000
0010
0000
1000
0000
0001
0000
0010
0000
0000
0100
0000
0000
0020
0000
,
0000
0000
0000
0000
0031
0000
0000
0000
0000
0000
1000
0100
1000
0000
0010
0000
,
0100
0001
0100
0010
1000
0001
1000
0010
,
0100
0001
0010
0000
0200
0000
0320
0100
,
0000
0000
0130
0000
0020
0000
0032
0010
,
0000
0000
0013
0000
0200
0000
2300
0100
,
0000
3100
2000
0000
,
0000
0000
0001
0001
3001
0100
0010
1000
,
0100
0001
0000
0100
0010
0001
0100
1000
,
0200
0000
0000
0000
0000
0320
0000
0000
0000
0000
0000
0000
0000
0000
1030
0000
,
1000
0001
0100
0010
1000
0100
0001
0100
,
1000
0000
0010
0000
0000
0000
0000
0000
0100
0000
0000
0000
0000
0002
0000
0000
,
0000
0000
0000
0000
0000
0000
0000
0000
0000
0000
0003
0000
;

//---------------dance-single - ----------------
#NOTES:
     dance-single:
     :
     Medium:
     6:
     0.251,0.286,0.000,0.364,0.005,153.000,0.000,40.000,0.000,0.000,0.000,0.251,0.286,0.000,0.364,0.005,153.000,0.000,40.000,0.000,0.000,0.000: // measure 0
1000
0000
0100
0000
0001
0100
1000
0000
,  // measure 1
0010
0100
0001
1000
,  // measure 2
0001
0000
0100
0000
0010
1000
0001
0000
,  // measure 3
0010
0100
2000
0000
,  // measure 4
3001
0000
0100
0000
0010
0100
0001
0000
,  // measure 5
0010
0100
0002
0000
,  // measure 6
0103
0000
0010
0000
0001
1000
0010
0000
,  // measure 7
0100
0001
0100
0010
,  // measure 8
0000
1000
0100
0010
0002
0000
0003
0000
,  // measure 9
0100
0010
1000
0000
0010
0000
0100
0000
,  // measure 10
0001
0010
0100
0000
1000
0000
0001
0000
,  // measure 11
0100
0010
1000
0000
0001
0000
0010
0000
,  // measure 12
0100
0001
0100
0000
0010
0000
0001
0000
,  // measure 13
0100
0000
0010
0000
1000
0100
0010
0000
,  // measure 14
0100
0000
1000
0000
0010
0100
0001
0000
,  // measure 15
0100
0000
0010
0000
1000
0001
0010
0000
,  // measure 16
0100
0000
1000
0000
0010
0100
0001
0000
,  // measure 17
0000
1000
0100
0010
0002
0000
0000
0000
,  // measure 18
2003
0000
3020
0000
,  // measure 19
0230
0000
0000
0000
,  // measure 20
2300
0000
3200
0000
,  // measure 21
0320
0000
0000
0000
,  // measure 22
2030
0000
3200
0000
,  // measure 23
0302
0000
0000
0000
,  // measure 24
0203
0000
0320
0000
,  // measure 25
0032
0000
2000
0000
,  // measure 26
0000
0000
0000
0000
,  // measure 27
3003
0000
1000
0000
0010
0000
0100
0001
,  // measure 28
0100
0000
0010
1000
0010
0000
1000
0000
,  // measure 29
0200
0000
0000
0000
1300
0000
0010
0100
,  // measure 30
0001
0000
1000
0100
0010
0000
0100
0000
,  // measure 31
1000
0000
0001
0100
,  // measure 32
0010
1000
0001
0000
0010
0000
0100
0000
,  // measure 33
2000
0000
3100
0010
,  // measure 34
0001
0001
0100
0000
0010
0000
1000
0000
,  // measure 35
0100
0100
1000
0000
0020
0000
0000
0000
,  // measure 36
0230
0000
0302
0000
,  // measure 37
2003
0000
3200
0000
,  // measure 38
0320
0000
0032
0000
,  // measure 39
0000
0000
2003
3020
,  // measure 40
0230
0000
0302
0023
,  // measure 41
0230
2300
0000
0000
,  // measure 42
3020
0230
0302
2003
,  // measure 43
3200
0000
0000
0000
0000
0000
0000
0000
0320
0000
0000
0000
0000
0002
0030
0000
,  // measure 44
0000
0000
0000
0000
0000
0000
0000
0000
0000
0000
0003
0000
;

//---------------dance-single - ----------------
#NOTES:
     dance-single:
     :
     Easy:
     5:
     0.202,0.204,0.046,0.264,0.005,121.000,5.000,29.000,0.000,0.000,0.000,0.202,0.204,0.046,0.264,0.005,121.000,5.000,29.000,0.000,0.000,0.000:
1000
0100
1000
1000
,
0010
0010
0100
0100
,
0001
0010
0100
0100
,
0001
0001
0100
0000
,
0010
0001
0100
0100
,
0010
0010
0100
0100
,
0001
1000
0100
0100
,
1000
1000
0002
0000
,
0003
1001
1001
0000
,
1000
0010
0200
0301
,
0010
0100
0010
0000
,
0001
0100
0020
1030
,
0100
0010
0100
0000
,
1000
0010
0200
0301
,
0010
0100
0010
0010
,
0001
0100
0002
1003
,
2000
3010
0020
0130
,
0000
1001
1001
0000
,
0020
0000
2030
0000
,
3020
0000
0000
0000
,
0230
0000
0302
0000
,
0203
0000
0000
0000
,
0302
0000
0023
0000
,
0032
0000
0000
0000
,
2003
0000
3200
0000
,
2300
0000
0002
0000
,
0000
0000
0000
0000
,
3003
0000
1000
0010
,
0100
0001
0100
0010
,
1000
0000
0001
0010
,
0100
1000
0100
0010
,
0001
0000
1000
0010
,
0100
0001
0100
0010
,
1000
0000
0001
0010
,
0100
1000
0010
0100
,
0001
0000
0002
0000
,
0203
0000
0320
0000
,
1030
0000
2000
0000
,
3002
0000
1003
0000
,
0000
0000
1000
0000
,
0010
0000
0100
0000
,
0002
0000
0000
0000
,
0013
0000
0100
0000
,
2000
0000
0000
0000
0000
0000
0000
0000
3001
0000
0000
0000
0000
2002
0000
0000
,
0000
0000
0000
0000
0000
0000
0000
0000
0000
0000
3003
0000
;

//---------------dance-single - ----------------
#NOTES:
     dance-single:
     :
     Beginner:
     1:
     0.077,0.120,0.009,0.091,0.000,48.000,1.000,10.000,0.000,0.000,0.000,0.077,0.120,0.009,0.091,0.000,48.000,1.000,10.000,0.000,0.000,0.000:
1000
0000
0000
0000
,
0010
0000
0000
0000
,
0100
0000
0000
0000
,
0001
0000
0000
0000
,
0010
0000
0000
0000
,
0100
0000
0000
0000
,
1000
0000
0000
0000
,
0001
0000
0000
0000
,
0000
0000
0000
0000
,
0000
1000
0000
1000
,
0000
1000
0000
0000
,
0000
0010
0000
0010
,
0000
0010
0000
0000
,
0000
0100
0000
0100
,
0000
0100
0000
0000
,
0000
0001
0000
0001
,
0000
0001
0000
0000
,
0000
0000
0000
0000
,
2000
0000
0000
0000
,
3000
0000
0000
0000
,
0020
0000
0000
0000
,
0030
0000
0000
0000
,
0200
0000
0000
0000
,
0300
0000
0000
0000
,
0002
0000
0000
0000
,
0003
0000
2002
0000
,
0000
0000
0000
0000
,
3003
0000
1000
0000
,
0001
0000
1000
0000
,
0000
0000
0010
0000
,
0100
0000
0010
0000
,
0000
0000
1000
0000
,
0100
0000
1000
0000
,
0000
0000
0001
0000
,
0010
0000
0001
0000
,
0000
0000
0200
0000
,
0300
0000
0020
0000
,
0030
0000
2000
0000
,
3000
0000
0001
0000
,
0000
0000
1000
0000
,
0000
0000
0010
0000
,
0010
0000
0000
0000
,
0100
0000
0001
0000
,
0010
0000
0000
0000
0000
0000
0000
0000
0200
0000
0000
0000
0000
0300
0000
0000
;
