#TITLE:Baby Bleep March;
#SUBTITLE:;
#ARTIST:seiya-murai;
#TITLETRANSLIT:;
#SUBTITLETRANSLIT:;
#ARTISTTRANSLIT:;
#GENRE:Chiptune;
#CREDIT:;
#BANNER:Baby Bleep March.png;
#BACKGROUND:Baby Bleep March-bg.png;
#LYRICSPATH:;
#CDTITLE:;
#MUSIC:Baby Bleep March.mp3;
#OFFSET:-0.027;
#SAMPLESTART:44.160;
#SAMPLELENGTH:15.000;
#SELECTABLE:YES;
#BPMS:0.000=180.000
;
#STOPS:
;
#BGCHANGES:;
#KEYSOUNDS:;
#ATTACKS:;

//---------------dance-single - ----------------
#NOTES:
     dance-single:
     :
     Easy:
     7:
     0.433,0.470,0.347,0.203,0.005,257.000,36.000,21.000,0.000,0.000,0.000,0.433,0.470,0.347,0.203,0.005,257.000,36.000,21.000,0.000,0.000,0.000:
0110
0000
0000
0010
,
0110
0000
0000
0100
,
0110
0010
0110
0100
,
0110
0000
0000
0000
,
0000
0000
0020
0000
,
1030
1000
0001
0001
,
1000
0100
1000
1000
,
0001
0001
1000
1000
,
0001
0010
0001
0001
,
1000
0100
0010
0001
,
0100
0100
0100
0010
,
1000
0001
1000
0001
,
1000
0100
0001
0100
,
1000
1000
0001
0001
,
0010
0001
1000
0010
,
1000
1000
0001
0001
,
0100
0001
1000
0100
,
1000
0100
0010
0001
,
0100
0100
0100
0010
,
1000
0001
1000
0100
,
0010
0100
0010
0001
,
1000
1010
1000
1010
,
0010
0110
0010
0110
,
0100
0101
0100
0101
,
0001
1001
0001
1001
,
1000
1100
0100
0110
,
0010
0011
0001
1001
,
1000
1010
0010
0110
,
0100
0101
0001
1001
,
2000
0000
3100
0000
,
2000
0000
3001
0000
,
0002
0103
0002
1003
,
0002
0013
0020
0130
,
0000
1000
0000
0000
0100
0000
0100
0000
,
1000
0001
0100
0100
,
0000
0001
0000
0000
0010
0000
0010
0000
,
0001
1000
0010
0010
,
0000
1000
0000
0000
0100
0000
0100
0000
,
1000
0001
0100
0100
,
0001
0010
0100
1000
,
0002
0000
0000
0000
,
1003
0001
1000
0001
,
0000
0000
0010
0000
0000
0010
0000
0000
,
0001
1000
0001
1000
,
0000
0000
0010
0000
0000
0010
0000
0000
,
1000
1000
0001
0001
,
0010
0100
0000
0200
,
2300
3020
0230
0302
,
2003
0000
0000
3002
,
1003
1000
0001
0001
,
0010
0100
0000
0020
,
0032
0203
0320
2030
,
3001
0000
0000
0000
1000
0000
0000
0000
0000
0001
0000
0000
,
0000
1000
0000
0000
0010
0000
0010
0000
,
1000
0001
0010
0010
,
0000
0001
0000
0000
0100
0000
0100
0000
,
0001
1000
0100
0100
,
0000
1000
0000
0000
0010
0000
0010
0000
,
1000
0001
0010
0010
,
0001
0010
0100
1000
,
0020
0000
0000
0000
,
0030
0110
0000
0000
0100
0000
0100
0000
,
0001
0010
0001
0100
,
0000
0110
0000
0000
0010
0000
0010
0000
,
1000
0100
1000
0010
,
0000
1010
0000
0000
0010
0000
0100
0000
,
0001
0010
0001
0000
,
0011
0010
0100
1100
,
0110
0010
0001
0101
,
0110
0010
1010
1010
,
1001
0001
1000
0001
,
0000
0000
0010
0000
0000
0010
0000
0000
,
0001
1000
0001
1000
,
0000
0000
0010
0000
0000
0010
0000
0000
,
0110
0000
0110
1001
,
0110
0000
0000
0000
;

//---------------dance-single - ----------------
#NOTES:
     dance-single:
     :
     Hard:
     15:
     0.819,0.731,0.415,0.106,0.323,540.000,43.000,11.000,0.000,0.000,0.000,0.819,0.731,0.415,0.106,0.323,540.000,43.000,11.000,0.000,0.000,0.000:
1001
0000
0000
1000
0010
0100
0001
0000
0000
1000
0000
0000
,
1001
0000
0000
0001
0010
0100
1000
0000
0000
0010
0100
0010
,
0100
0000
0000
0001
1000
0001
1000
0000
0000
0100
0010
0100
,
0020
0000
0000
0000
,
0030
0000
0000
0000
0220
0000
0000
0330
,
0100
1000
0010
1000
0100
1000
0010
0100
,
0001
0010
0010
0100
0010
0010
0001
0010
,
0100
1000
0010
1000
0100
1000
0010
0100
,
0001
1000
1000
0100
1000
1000
0010
0100
,
0001
1000
0100
1000
0001
0100
0010
0100
,
0010
1000
0001
1000
0010
0100
0001
0100
,
0001
0000
0000
0010
0100
0000
1000
0000
0001
0000
0100
0000
0010
0000
1000
0000
,
0001
0000
0010
0100
0010
0100
0010
0000
0001
0000
0100
0010
0100
0010
0100
0000
,
0010
1000
0100
1000
0010
1000
0100
0010
,
0001
0100
0100
0010
0100
0100
0001
0010
,
0100
1000
0001
1000
0100
1000
0001
0100
,
0010
1000
1000
0010
0100
0100
0010
1000
,
0100
0010
0100
1000
0010
0100
0010
0001
,
0010
1000
0100
0010
0001
0000
1001
0000
,
1000
0000
0000
0100
0010
0000
0001
0000
0100
0000
1000
0000
0001
0000
0010
0000
,
1000
0000
0010
1000
0010
0000
1000
0001
1000
0000
0000
0000
0001
0000
0000
0010
,
0100
0000
0000
0000
1000
0000
0000
0010
0100
0000
0000
0000
0001
0000
0000
1000
,
0100
1000
0010
0000
1000
0001
0001
0100
,
0010
0000
0010
0000
1000
0000
0001
0000
1000
0000
0000
0000
0100
0000
0010
0100
,
0010
0000
0000
0000
0001
0000
0010
0000
0100
0000
1000
0000
0010
0000
0000
1000
,
0100
0000
0000
0000
0010
0000
0000
0001
0100
0000
0000
0000
0001
0000
0000
1000
,
0001
0100
0020
0000
0230
0010
0310
0100
,
0002
0000
0000
0000
1003
0000
0000
0001
1000
0000
0100
0000
0010
0000
0100
0000
,
1000
0000
0010
0100
0010
0100
0001
0010
0100
0000
0000
0000
0100
1000
0100
1000
,
0100
0010
0000
0110
0000
0100
0000
0011
,
0000
0000
0100
0000
0000
0000
1010
0000
0000
0000
1000
0000
0001
0000
1000
0001
,
0010
0100
1000
0100
0001
0100
1000
0100
,
0010
0000
0001
0000
0010
0000
1000
0000
0010
0000
0100
0000
1000
0001
1000
0000
,
0000
0110
0000
0010
0001
0000
0101
0000
,
1010
0000
0000
0000
1100
0000
0000
0000
0100
0000
0010
0001
0010
0000
0100
0000
,
0000
0110
0000
0100
1000
0000
1010
0000
,
0010
0000
0000
0100
0010
0000
1000
0000
0001
0000
0010
0000
0100
0010
0100
0010
,
0000
0110
0000
0010
0001
0000
0101
0000
,
0110
0000
1010
0000
1001
0000
1000
0001
,
0010
0000
0000
0110
0000
0000
0100
0000
0001
0000
0000
0000
0101
0000
0000
0000
,
1000
0000
0100
0000
1000
0000
0100
0000
0010
0000
0001
0000
0010
0000
0001
1000
,
0001
0000
1000
0000
0001
0000
1000
0000
0100
0010
0100
0010
0001
0100
0010
0000
,
1000
0010
0010
0100
0010
0010
1000
0001
,
0010
0100
1000
0000
0010
0000
0100
0000
0001
0000
1000
0000
0001
0000
1000
0000
,
0100
0000
0010
0000
0010
0000
0001
0000
0010
0000
0010
0000
0100
0000
1000
0001
,
1000
0100
0110
1000
,
1001
0100
0010
0000
0001
0010
0020
0130
,
0010
0000
0010
0000
0001
0000
1000
0000
0010
0000
0000
0000
1010
0000
1000
0001
,
1000
0100
1000
0100
0010
0001
0010
0000
,
0101
0010
1100
0001
,
0110
1000
0001
0000
0100
0001
0002
1003
,
0001
0000
0000
0000
0011
0000
0000
0100
1000
0000
0010
0000
0100
0000
0001
0000
,
0010
0100
0010
0000
0100
0010
0100
0000
0000
0220
0000
0000
,
0330
1001
0000
1000
0100
0010
0100
0001
,
0100
0000
1000
0000
0010
0000
0100
0000
0001
0000
0010
0100
0010
0000
0100
0000
,
0000
1001
0000
1000
0010
0100
0010
0001
,
0010
0000
0000
1000
0010
0000
0100
0000
0001
0000
1000
0000
0100
0010
0001
0010
,
0000
1001
0000
1000
0010
0001
0010
0100
,
0001
0100
1000
0100
0001
0010
0100
1000
,
0001
0000
0000
1001
0000
0000
1000
0000
0010
0000
0000
0000
0110
0000
0000
0000
,
1000
0000
0100
0000
0001
0000
0100
0000
1000
0000
0010
0000
0001
0000
0010
0100
,
0000
0110
0000
0100
0001
1000
0001
0010
,
0001
0000
0100
0000
0010
0000
1000
0000
0001
0000
0010
0100
0010
0000
0100
0000
,
0000
1001
0000
0100
1000
0001
1000
0010
,
1000
0000
0000
0100
0010
0000
0001
0000
0100
0000
0010
0000
1000
0010
1000
0010
,
0000
0110
0000
0100
0001
1000
0001
0010
,
0001
0100
0010
1000
0100
0010
0100
1000
,
1001
0000
0000
0001
0000
0000
0100
0000
0010
0000
0000
0000
0110
0000
0000
0000
,
0110
0000
0000
0010
0000
0000
1000
0000
0001
0000
0000
0000
1001
0000
0000
0000
,
1001
0000
0000
1000
0000
0000
0100
0000
0010
0000
0000
0000
0010
0100
0010
0100
,
0010
0001
0010
0001
1000
0100
1000
0100
,
1000
0010
0010
0100
0010
0010
1000
0001
,
0010
0100
0010
0100
1000
0001
1000
0001
,
0100
0010
0010
1000
0010
0010
0100
0001
,
1001
0000
0000
0000
0000
0000
0000
0000
0110
0000
0000
0000
0010
0100
0010
0100
,
0020
0000
0000
0030
;

//---------------dance-single - ----------------
#NOTES:
     dance-single:
     :
     Medium:
     9:
     0.528,0.579,0.338,0.174,0.043,330.000,35.000,18.000,0.000,0.000,0.000,0.528,0.579,0.338,0.174,0.043,330.000,35.000,18.000,0.000,0.000,0.000:
0000
1000
1001
0001
,
0000
0001
1001
1000
,
1010
0010
0110
0100
,
0202
0000
0000
0000
,
0303
0000
0002
0000
,
1003
0000
1000
0000
0001
0000
0001
0010
,
0100
1000
0100
0000
1000
0100
0000
1000
,
0010
0000
0010
0000
0100
0000
0100
0001
,
1000
0001
1000
0000
0001
1000
0000
0001
,
0100
0010
1000
0001
,
0010
0100
0010
0100
0010
0000
0001
0000
,
0010
0100
1000
0010
,
0100
0010
0100
0000
0001
0100
0010
0000
,
1000
0000
1000
0000
0001
0000
0001
0010
,
0100
1000
0100
0000
1000
0100
0000
1000
,
0010
0000
0010
0000
0100
0000
0100
0001
,
1000
0100
0010
0000
0100
0010
0000
0100
,
1000
0001
0100
0010
,
1000
0001
1000
0001
1000
0000
0100
0000
,
0010
0000
0001
0000
0100
0010
0100
0010
,
0100
0001
1000
1001
,
0011
1001
1010
1001
,
0001
0010
0001
0000
0000
0010
0100
0010
,
0100
0000
0100
1000
0010
0000
0100
0001
,
0020
0000
0030
0110
,
1100
0110
0012
2003
,
3002
2003
3002
2003
,
3020
0230
0320
0230
,
0310
0100
0001
1000
,
0000
0001
0000
0001
0000
0010
0000
0010
,
0000
0100
0000
0100
0000
1000
0000
1000
,
0001
1000
0010
0100
,
0001
0010
0100
1000
0010
0100
0010
0000
,
0000
0110
0000
0100
0001
0000
1000
0000
,
0100
0010
0100
1000
,
0000
1001
0000
0001
0100
0000
0010
0000
,
0100
0001
0010
0100
,
0000
0110
0000
0010
0001
0000
0100
0000
,
0010
0000
1000
0000
0001
0000
1000
0001
,
1000
0000
0000
0010
0000
0000
1000
0000
0100
0000
0010
0000
0100
0000
1000
0000
,
0002
0000
0000
0000
,
0000
1000
0000
1000
0000
1000
0000
1000
,
0000
0010
0010
0000
0010
0010
0000
0010
,
0000
1000
0000
1000
0000
1000
0000
1000
,
0000
0100
0100
0000
0100
0100
0000
0103
,
0001
0001
1000
1000
,
0100
0010
0100
0000
0000
0010
0001
0100
,
0010
1000
0001
0010
,
0110
0000
0000
0110
,
0010
0010
0100
0100
,
1000
0100
1000
0000
0000
0100
0010
0001
,
0100
0000
0010
0000
0100
0010
0100
0000
,
0010
1000
0010
0000
1000
0010
1000
0000
0000
1001
0000
0000
,
0000
1001
0000
0000
0001
0000
0010
0000
,
0100
0010
0001
1000
,
0000
1001
0000
0000
1000
0000
0010
0000
,
0100
0000
0010
0000
1000
0001
1000
0000
,
0000
0110
0000
0000
0010
0000
1000
0000
,
0100
0000
1000
0000
0010
0000
0100
0001
,
0100
0000
0000
0001
0000
0000
0100
0000
0010
0000
0000
0000
1000
0000
0000
0000
,
2002
0000
0000
3003
,
0000
1001
0000
1000
0100
0000
0010
0000
,
0001
0100
0010
0100
,
0000
1001
0000
0001
0100
0000
0010
0000
,
0100
0001
1000
0100
,
0000
0110
0000
0010
0001
0000
0100
0000
,
0010
0000
1000
0000
0001
0000
1000
0001
,
1000
0000
0000
0010
0000
0000
1000
0000
0001
0000
0000
0000
1001
0000
0000
0000
,
1001
0000
0000
0001
0000
0000
0010
0000
0001
0000
0000
0000
1001
0000
0000
0000
,
1001
0000
0000
1000
0000
0000
0010
0000
0110
0000
0000
0000
0100
0000
0020
0000
,
0000
0100
0000
0100
0000
0100
0000
0100
,
0000
1000
1000
0000
1000
1000
0000
1000
,
0000
0100
0000
0100
0000
0100
0000
0100
,
0000
0001
0001
0000
0001
0001
0000
0031
,
0010
0000
0110
1001
,
0110
0000
0000
0000
;

//---------------dance-single - ----------------
#NOTES:
     dance-single:
     :
     Beginner:
     5:
     0.194,0.289,0.174,0.068,0.005,116.000,18.000,7.000,0.000,0.000,0.000,0.194,0.289,0.174,0.068,0.005,116.000,18.000,7.000,0.000,0.000,0.000: // measure 0
0010
0000
0000
0000
,  // measure 1
0010
0000
0000
0000
,  // measure 2
0100
0000
0100
0000
,  // measure 3
0100
0000
0000
0000
,  // measure 4
0000
0000
0000
0000
,  // measure 5
1000
0000
1000
0000
,  // measure 6
1000
0000
0000
0000
,  // measure 7
0001
0000
0001
0000
,  // measure 8
0001
0000
0000
0000
,  // measure 9
0100
0000
0010
0000
,  // measure 10
1000
0000
0001
0000
,  // measure 11
0010
0000
0000
0000
,  // measure 12
0110
0000
0110
0000
,  // measure 13
0100
0000
0100
0000
,  // measure 14
0100
0000
0000
0000
,  // measure 15
0010
0000
0010
0000
,  // measure 16
0010
0000
0000
0000
,  // measure 17
0001
0000
1000
0000
,  // measure 18
0010
0000
0100
0000
,  // measure 19
0001
0000
0001
0000
,  // measure 20
1000
0000
1001
0000
,  // measure 21
1000
0000
1000
0000
,  // measure 22
0001
0000
0000
0000
,  // measure 23
0001
0000
0010
0000
,  // measure 24
0100
0000
0000
0000
,  // measure 25
1000
0000
1000
0000
,  // measure 26
0010
0000
0000
0000
,  // measure 27
0100
0000
0001
0000
,  // measure 28
0010
0000
0100
0000
,  // measure 29
0220
0000
0330
0000
,  // measure 30
0220
0000
0330
0000
,  // measure 31
0010
0000
0010
0000
,  // measure 32
0010
0000
0110
0000
,  // measure 33
0000
0000
0100
0000
,  // measure 34
1000
0000
0100
0000
,  // measure 35
0000
0000
1000
0000
,  // measure 36
0100
0000
1000
0000
,  // measure 37
0000
0000
0001
0000
,  // measure 38
0010
0000
0001
0000
,  // measure 39
0010
0000
0010
0000
,  // measure 40
0010
0000
0000
0000
,  // measure 41
1001
0000
0000
0000
,  // measure 42
0000
0000
0100
0000
0000
0100
0000
0000
,  // measure 43
1001
0000
0000
0000
,  // measure 44
0000
0000
0010
0000
0000
0010
0000
0000
,  // measure 45
1000
0000
1000
0000
,  // measure 46
1000
0000
0000
0000
,  // measure 47
0002
0000
0000
0000
,  // measure 48
2003
0000
0000
0000
,  // measure 49
3001
0000
0001
0000
,  // measure 50
0001
0000
0000
0000
,  // measure 51
0020
0000
0000
0000
,  // measure 52
0130
0000
0000
0000
0100
0000
0000
0000
0000
0100
0000
0000
,  // measure 53
0000
0000
0010
0000
,  // measure 54
0001
0000
0010
0000
,  // measure 55
0000
0000
0001
0000
,  // measure 56
0010
0000
0001
0000
,  // measure 57
0000
0000
1000
0000
,  // measure 58
0100
0000
1000
0000
,  // measure 59
0100
0000
0100
0000
,  // measure 60
0100
0000
0000
0000
,  // measure 61
0000
0000
0010
0000
,  // measure 62
0100
0000
1000
0000
,  // measure 63
0000
0000
0010
0000
,  // measure 64
0100
0000
0001
0000
,  // measure 65
0000
0000
0100
0000
,  // measure 66
0010
0000
1000
0000
,  // measure 67
1001
0000
0000
0000
,  // measure 68
1001
0000
0000
0000
,  // measure 69
1001
0000
1001
0000
,  // measure 70
1001
0000
0000
0000
,  // measure 71
0000
0000
1000
0000
0000
1000
0000
0000
,  // measure 72
0110
0000
0000
0000
,  // measure 73
0000
0000
0001
0000
0000
0001
0000
0000
,  // measure 74
1001
0000
1001
1001
,  // measure 75
1001
0000
0000
0000
;
