#TITLE:Babs Seed (The Living Tombstone's Mix);
#SUBTITLE:;
#ARTIST:Mandopony;
#TITLETRANSLIT:;
#SUBTITLETRANSLIT:;
#ARTISTTRANSLIT:;
#GENRE:Electro;
#CREDIT:;
#BANNER:Babs Seed (The Living Tombstone's Mix).png;
#BACKGROUND:Babs Seed (The Living Tombstone's Mix)-bg.png;
#LYRICSPATH:;
#CDTITLE:;
#MUSIC:Babs Seed (The Living Tombstone's Mix).mp3;
#OFFSET:-0.059;
#SAMPLESTART:32.020;
#SAMPLELENGTH:15.000;
#SELECTABLE:YES;
#BPMS:0.000=90.000
;
#STOPS:
;
#BGCHANGES:;
#KEYSOUNDS:;
#ATTACKS:;

//---------------dance-single - Blank----------------
#NOTES:
     dance-single:
     :
     Hard:
     13:
     0.724,0.586,0.211,0.000,0.979,345.000,15.000,0.000,0.000,0.000,0.000,0.724,0.586,0.211,0.000,0.979,345.000,15.000,0.000,0.000,0.000,0.000:
1000
0001
1000
0100
0001
0100
0010
0010
0100
1000
0010
0100
0001
0010
0100
0100
,
1000
0100
1000
0100
0001
0100
0010
0010
0001
0010
0001
1000
0010
1000
0100
0100
,
0010
0001
0010
0100
1000
0100
1000
1000
0001
1000
0010
1000
0001
0010
0100
0100
,
1000
0100
1000
0010
1000
0010
0100
0001
0100
0001
0010
0001
0010
0000
0100
0000
,
0110
0000
0100
1000
0100
1000
0100
0000
1000
0010
0100
0001
0100
0001
0100
0000
,
0001
0010
0100
1000
0100
1000
0100
0001
0100
1000
0100
0000
0010
0010
0100
0100
,
1000
0000
0010
1000
0010
1000
0010
0000
0100
0001
0010
0001
0010
0001
0010
0000
,
0100
1000
0010
1000
0010
1000
0010
0001
0010
1000
0010
0000
0100
0000
0000
0000
,
0010
1000
0001
0010
0001
0000
1000
0001
0100
0010
1000
0100
0010
0000
0100
1000
,
0100
0000
1000
0001
1000
0000
0001
0100
0010
1000
0001
0010
0100
0000
1000
0000
,
0010
0100
0010
0100
0001
0010
0100
0001
1000
0010
0100
1000
0001
0100
0010
0000
,
1000
0010
0100
0001
0010
0000
0110
0000
0100
1000
0010
0100
0001
0010
0100
0000
,
1000
0000
0100
0001
0100
0001
0100
0000
1000
0010
0001
0010
0001
0010
0001
0000
,
0110
0000
1000
0000
0110
0000
0001
0000
1000
0100
0010
0001
1000
0000
0001
0001
,
1000
0010
1000
0100
0001
0000
1000
1000
0010
0100
0010
0100
0010
0000
0000
0000
,
1001
0000
0010
0000
1001
0000
0100
0000
1000
0100
0010
0001
0100
0000
0010
0010
,
1000
0001
0010
0001
0100
0000
0010
1000
0100
0001
0100
0001
0100
0000
0000
0000
,
1000
0000
0011
0000
1000
0000
0101
0000
0001
0010
0100
1000
1010
0000
0110
0000
,
0101
0000
0001
1000
0001
1000
0001
0000
1000
0100
0010
0001
0010
0001
0010
0000
,
0100
1000
0001
0010
0001
0010
0001
1000
0100
0001
0100
0000
1100
0000
0110
0000
,
0010
0001
0100
0010
1000
0010
1000
0000
0001
1000
0010
0001
0010
0001
0010
0000
,
1000
0010
0100
0001
1000
0001
0100
0010
0100
0010
1000
0000
0010
0010
0100
0100
,
0001
0000
1000
0100
1000
0100
0010
0000
0100
1000
0001
0100
0001
0100
0010
0000
,
1000
0010
0001
0010
1000
0100
0001
0100
1000
0000
0001
0000
0010
0000
0100
0000
,
1001
0000
1000
0100
0001
1000
0010
0000
0100
1000
0001
0100
1000
0001
0010
0000
,
1000
0010
0100
0010
0001
0010
0100
0010
1000
0010
0001
0000
0010
0000
0100
0000
,
1001
0000
0000
0000
;

//---------------dance-single - Blank----------------
#NOTES:
     dance-single:
     :
     Medium:
     6:
     0.396,0.293,0.028,0.000,0.000,195.000,2.000,0.000,0.000,0.000,0.000,0.396,0.293,0.028,0.000,0.000,195.000,2.000,0.000,0.000,0.000,0.000:
1000
0001
1000
0100
0001
1000
0001
0100
,
1000
0001
1000
0010
0001
1000
0001
0010
,
1000
0100
1000
0010
0001
0100
0001
0010
,
1000
0100
0001
0100
1000
0010
0011
0000
,
0010
1000
0010
1000
0001
0100
0001
0100
,
0010
1000
0010
0100
0010
0100
0000
0000
,
0001
0010
0001
0010
0100
1000
0100
1000
,
0001
0010
0001
1000
0001
1000
0000
0000
,
1000
0100
0010
0100
1000
1000
0001
0000
,
0001
0100
0010
0100
0001
0001
1000
0000
,
0010
0010
1000
0001
0010
0010
0100
1000
,
0010
0010
0100
0001
1000
0100
0010
0001
,
0000
1000
0001
1000
0000
0100
0010
0100
,
0010
0010
0001
0001
0100
0010
0100
0010
,
1000
0010
0100
0010
1000
0100
0001
0100
,
1000
1000
0010
0010
0100
0010
1000
0001
,
0010
0100
0010
0100
1000
0001
1000
0001
,
0000
0100
0100
0010
1000
0001
0010
0100
,
1000
0010
1000
0010
0100
0001
0100
0001
,
1000
0010
1000
0010
0100
0010
1000
0001
,
0010
0001
0010
0001
1000
0100
1000
0100
,
0010
0001
0010
0100
0010
0100
0000
0000
,
0100
1000
0001
0100
0010
1000
0001
0010
,
0100
1000
0001
1000
0001
0010
0100
1000
,
0010
1000
0100
0010
0100
1000
0010
0100
,
0010
1000
0100
1000
0010
0100
0000
0000
,
0110
0000
0000
0000
;

//---------------dance-single - Blank----------------
#NOTES:
     dance-single:
     :
     Easy:
     2:
     0.085,0.092,0.000,0.000,0.000,42.000,0.000,0.000,0.000,0.000,0.000,0.085,0.092,0.000,0.000,0.000,42.000,0.000,0.000,0.000,0.000,0.000: // measure 0
0000
0000
0000
0000
,  // measure 1
0000
0000
0000
0000
,  // measure 2
0000
0000
0000
0000
,  // measure 3
0000
0000
0000
0000
,  // measure 4
0000
1000
0000
1000
,  // measure 5
0000
0001
0000
0001
,  // measure 6
0000
1000
0000
1000
,  // measure 7
0000
0001
0000
0001
,  // measure 8
0010
0000
0000
0000
,  // measure 9
0010
0000
0000
0000
,  // measure 10
0100
0000
0000
0000
,  // measure 11
0100
0000
0000
0000
,  // measure 12
0000
1000
0000
0001
,  // measure 13
0010
0000
0010
0000
,  // measure 14
0000
0001
0000
1000
,  // measure 15
0010
0000
0010
0000
,  // measure 16
0000
1000
0000
0001
,  // measure 17
0100
0000
0100
0000
,  // measure 18
0010
0001
0000
0001
,  // measure 19
0000
1000
0000
1000
,  // measure 20
0000
0001
0000
0001
,  // measure 21
0000
1000
0000
1000
,  // measure 22
0000
0010
0000
0010
,  // measure 23
0000
0100
0000
0100
,  // measure 24
0000
0010
0000
0010
,  // measure 25
0000
0100
0000
0100
,  // measure 26
0010
0000
0000
0000
;

//---------------dance-single - Blank----------------
#NOTES:
     dance-single:
     :
     Beginner:
     1:
     0.058,0.073,0.000,0.085,0.000,23.000,0.000,6.000,0.000,0.000,0.000,0.058,0.073,0.000,0.085,0.000,23.000,0.000,6.000,0.000,0.000,0.000:
0000
0000
0000
0000
,
0000
0000
0000
0000
,
0000
0000
0000
0000
,
0000
0000
0000
0000
,
1000
0000
0000
0000
,
1000
0000
0000
0000
,
0001
0000
0000
0000
,
0001
0000
0000
0000
,
1000
0000
0000
0000
,
0010
0000
0000
0000
,
0001
0000
0000
0000
,
0010
0000
0000
0000
,
2000
0000
0000
0000
,
3200
0000
0000
0000
,
0302
0000
0000
0000
,
0203
0000
0000
0000
,
0320
0000
0000
0000
,
0032
0000
0000
0000
,
1003
0000
0000
0000
,
1000
0000
0000
0000
,
0001
0000
0000
0000
,
0001
0000
0000
0000
,
0010
0000
0000
0000
,
0010
0000
0000
0000
,
0100
0000
0000
0000
,
0100
0000
0000
0000
,
0010
0000
0000
0000
;
