#TITLE:Art of the Dress;
#SUBTITLE:;
#ARTIST:♪♪♪♪♪;
#TITLETRANSLIT:;
#SUBTITLETRANSLIT:;
#ARTISTTRANSLIT:;
#GENRE:My Little Pony;
#CREDIT:;
#BANNER:Art of the Dress.png;
#BACKGROUND:Art of the Dress-bg.png;
#LYRICSPATH:;
#CDTITLE:;
#MUSIC:Art of the Dress.mp3;
#OFFSET:-0.076;
#SAMPLESTART:84.800;
#SAMPLELENGTH:15.000;
#SELECTABLE:YES;
#DISPLAYBPM:116.000;
#BPMS:0.000=116.010
;
#STOPS:
;
#BGCHANGES:-0.500=Art of the Dress.avi=1.000=0=0=0=StretchNoLoop====,
99999=-nosongbg-=1.000=0=0=0 // don't automatically add -songbackground-
;
#KEYSOUNDS:;
#ATTACKS:;

//---------------dance-single - ----------------
#NOTES:
     dance-single:
     :
     Hard:
     12:
     0.617,0.589,0.422,0.236,0.476,373.000,43.000,24.000,0.000,0.000,0.000,0.617,0.589,0.422,0.236,0.476,373.000,43.000,24.000,0.000,0.000,0.000: // measure 0
1000
0000
0001
0000
0010
0000
0001
0000
1000
0000
0100
0010
0000
0010
1000
0000
,  // measure 1
1000
0000
0010
0000
0001
0000
0100
0000
0001
0000
0010
0100
0000
0100
1000
0000
,  // measure 2
0001
0000
0000
0010
0000
0000
0001
0000
0000
0000
0000
0000
1000
0100
0010
0001
,  // measure 3
0010
0000
0000
0110
0000
0000
0000
0000
0000
0000
0000
0000
0000
0000
0000
0000
,  // measure 4
1000
0000
0000
0010
0000
0000
1000
0000
0000
0000
0000
0000
0001
0100
0010
1000
,  // measure 5
0020
0000
0130
0000
0200
0000
0301
0000
0101
0000
0000
0000
0001
1000
0100
1000
,  // measure 6
0020
0000
0130
0000
0020
0000
1030
0000
1010
0000
0000
0000
1000
0100
0001
0100
,  // measure 7
2000
0000
3010
0000
0020
0000
0130
0000
0110
0000
0000
0000
0100
0001
0010
0100
,  // measure 8
2000
0000
3001
0000
0002
0000
0103
0000
0101
0000
0000
0000
0100
0010
1000
0001
,  // measure 9
0200
0301
0002
0013
0011
0010
0000
0010
,  // measure 10
0110
0100
0000
0000
2100
0000
0010
0000
,  // measure 11
0000
0000
0000
0000
3010
0000
0000
0000
1000
0000
0001
1000
0000
1000
0010
0000
,  // measure 12
1000
0000
0100
0000
0010
0000
0100
0000
1000
0000
0001
0100
0000
0100
0010
0000
,  // measure 13
1000
0000
0000
0010
0000
0000
1000
0000
0000
0000
0000
0000
0100
0010
0100
1000
,  // measure 14
0001
0000
0000
0101
0000
0000
0000
0000
0001
0000
0000
0010
0000
0100
1000
0000
,  // measure 15
0001
0000
0000
0010
0000
0000
0001
0000
0000
0000
0000
0000
0100
0010
0100
0001
,  // measure 16
2000
0000
3100
0000
0200
0000
1300
0000
1100
0000
0000
0000
1000
0100
1000
0010
,  // measure 17
0200
0000
0301
0000
0002
0000
0013
0000
0011
0000
0010
0000
0100
1000
0001
0100
,  // measure 18
0020
0000
1030
0000
0002
0000
0013
0000
1001
0000
0000
0000
1000
0100
1000
0100
,  // measure 19
0010
0000
0010
0100
0000
0100
0000
1100
0000
0000
0000
0000
1000
0001
1000
0001
,  // measure 20
0100
0000
0001
0100
0000
0100
0000
0000
0110
0000
0000
0000
1010
0000
0000
0000
,  // measure 21
1000
0100
0020
0000
0001
0000
0100
0000
,  // measure 22
0000
0000
0000
0000
0130
0000
0000
0000
0010
0000
0001
0010
0000
0010
0100
0000
,  // measure 23
1000
0000
0010
0000
0001
0000
0010
0000
1000
0000
0100
0010
0000
0010
0001
0000
,  // measure 24
0011
0000
0010
0000
0011
0000
0000
0010
0000
0010
0000
0010
0100
1000
0100
0000
,  // measure 25
1100
0000
1000
0000
1010
0000
0000
0010
0000
0010
0000
0010
0100
0001
0100
0000
,  // measure 26
0101
0000
0001
0000
0011
0000
0000
0010
0000
0010
0000
0010
0100
1000
0100
0000
,  // measure 27
1100
0000
1000
0000
1010
0000
1000
0010
0100
0001
1000
0100
0010
0000
0011
0000
,  // measure 28
0001
0000
0010
0000
0100
0000
1000
0000
0010
0000
1000
0010
0000
1000
0001
0000
,  // measure 29
1000
0000
0010
0000
0100
0000
0001
0000
1000
0000
0001
0010
0000
0001
1000
0000
,  // measure 30
0010
0000
0000
1000
0000
0000
0001
0000
0000
0000
0000
1000
0010
0000
1000
0000
,  // measure 31
1010
0000
0000
1001
0000
0000
0000
0000
1000
0000
0001
0100
0000
0001
0100
0000
,  // measure 32
0010
0000
0000
1000
0000
0000
0002
0000
0000
0000
0000
0000
0013
0100
1000
0100
,  // measure 33
0001
0000
0100
0000
1000
0000
0010
0000
1010
0000
0000
0000
1000
0010
0001
0010
,  // measure 34
1000
0000
0100
0000
0010
0000
0100
0000
0110
0000
0100
0000
1000
0100
0010
0001
,  // measure 35
1000
0000
0001
0010
0000
0010
0000
0110
0000
0000
0000
0000
0100
0001
0100
0010
,  // measure 36
1000
0001
0100
0001
1000
0100
0010
0110
,  // measure 37
0100
0000
1000
0001
0000
0001
0000
0101
0000
0000
0000
0000
0002
0000
0000
0000
,  // measure 38
0013
0020
0000
0000
0100
0000
0230
0000
,  // measure 39
0300
0000
0110
0000
0100
0000
1000
0000
0001
0000
0100
0001
0000
0001
1000
0000
,  // measure 40
0100
0000
1000
0000
0010
0000
0100
0000
0001
0000
0100
0001
0000
0001
0010
0000
,  // measure 41
0011
0001
0100
0001
1001
1000
0100
1000
,  // measure 42
1010
0010
0100
0001
0101
0001
1000
0001
,  // measure 43
1100
0010
0100
0010
1010
1000
0010
0001
,  // measure 44
0011
0010
1000
0001
1010
1000
0100
0010
,  // measure 45
0110
0000
0100
0000
1000
0000
0001
0000
0100
0000
0000
0010
0000
0000
0100
0000
,  // measure 46
0000
0000
0220
0000
0000
0000
0330
0000
0010
0000
1000
0010
0000
0010
0100
0000
,  // measure 47
0010
0000
1000
0000
0001
0000
0010
0000
0010
0000
0001
0100
0000
0010
0100
0000
,  // measure 48
0110
0000
0000
0000
;

//---------------dance-single - ----------------
#NOTES:
     dance-single:
     :
     Medium:
     7:
     0.396,0.354,0.138,0.098,0.142,258.000,14.000,10.000,0.000,0.000,0.000,0.396,0.354,0.138,0.098,0.142,258.000,14.000,10.000,0.000,0.000,0.000:
1000
0000
0000
0000
0010
0000
0000
0000
0100
0000
0000
0001
0000
0000
1000
0000
,
0100
0000
0000
0000
0010
0000
0000
0000
0100
0000
0000
1000
0000
0000
0001
0000
,
0010
0000
0000
0100
0000
0000
0010
0000
0000
0000
0000
0000
1000
0000
0010
0000
,
0100
0000
0000
0101
0000
0000
0000
0000
0000
0000
0000
0000
0000
0000
0000
0000
,
0100
0000
0000
0010
0000
0000
0100
0000
0000
0000
0000
0000
0001
0000
0010
0000
,
0100
1000
0100
0001
0100
0000
1000
0010
,
0100
0001
0100
1000
0000
1100
0100
0010
,
1000
0001
0010
0100
1000
0000
0001
0001
,
0100
0010
1000
0100
0001
0001
0100
0010
,
0001
1000
0010
0100
0001
0001
0000
1000
,
0100
0100
0000
0000
0020
0000
0032
0000
,
0000
0203
0010
0310
,
0010
1000
0100
1000
0010
0100
1000
0000
,
0100
0000
0000
0010
0000
0000
0100
0000
0000
0000
0000
0000
0001
0000
0010
0000
,
0100
0000
0000
0010
0000
0000
0000
0000
0100
0000
1000
0000
0001
0000
0000
0000
,
1000
0000
0000
0001
0000
0000
1000
0000
0000
0000
0000
0000
0010
0000
1000
0000
,
0001
0100
0010
0100
1000
0000
0010
0001
,
1000
0001
0010
1000
0100
0000
0100
0100
,
0010
0001
1000
0010
0100
0000
0001
0000
,
1000
0000
0000
1000
0000
0000
0000
1010
0000
0000
0000
0000
0000
0000
0000
0000
,
0001
0000
0000
0001
0000
0000
0000
0000
0011
0000
0000
0000
0010
0000
0000
0000
,
0100
0220
0330
2002
,
3003
0000
0110
0000
0010
1000
0100
0000
,
0100
0010
0001
0100
0001
0001
1000
0000
,
0010
0000
0000
0000
0010
0000
0000
1000
0000
1000
0000
0000
1000
0000
0000
0000
,
0100
0000
0000
0000
0100
0000
0000
0010
0000
0010
0000
0000
0010
0000
0000
0000
,
0010
0000
0000
0000
0010
0000
0000
0001
0000
0001
0000
0000
0001
0000
0000
0000
,
0100
0010
1000
0100
0010
0001
0100
0000
,
0010
0000
0000
0000
0010
0000
0000
0000
1000
0000
0000
0001
0000
0000
1000
0000
,
0010
0000
0000
0000
0010
0000
0000
0000
0100
0000
0000
0001
0000
0000
0100
0000
,
0010
0000
0000
1000
0000
0000
0010
0000
0000
0000
0000
0000
1000
0000
0100
0000
,
0010
0000
0000
0110
0000
0000
0000
0000
0100
0000
1000
0000
0001
0000
0000
0000
,
0100
0000
0000
0010
0000
0000
1000
0000
0000
0000
0000
0000
0100
0000
0010
0000
,
0001
0100
0010
1000
1001
0000
1000
0100
,
0010
0100
0001
0100
1000
0010
0100
0001
,
0010
0000
0000
0010
0000
0010
0000
0110
0000
0000
0000
0000
0100
0000
1000
0000
,
0001
0100
0010
0100
0010
0000
1000
1000
,
0001
0000
0000
1000
0000
1000
0000
1010
0000
0000
0000
0000
1100
0000
0000
0000
,
0100
0200
0000
0000
0010
0000
0001
0000
,
0000
1300
0000
0100
0010
0100
1000
0000
,
0001
0000
0000
0100
0010
0100
0001
0000
,
0000
1000
0100
1000
0000
0100
0001
0100
,
0000
0001
0010
0001
0000
0010
1000
0010
,
0000
1000
0010
1000
0000
0010
0001
0010
,
0000
0001
0100
0001
0000
0100
1000
0100
,
0000
0000
1000
0000
0100
0000
0001
0000
0100
0000
0000
0010
0000
0000
0100
0000
,
0000
0220
0000
0000
0000
0000
0330
0000
,
0010
0010
0010
0010
,
1001
0000
0000
0000
;

//---------------dance-single - Copied from----------------
#NOTES:
     dance-single:
     Copied from:
     Easy:
     5:
     0.296,0.289,0.216,0.246,0.000,164.000,22.000,25.000,0.000,0.000,0.000,0.296,0.289,0.216,0.246,0.000,164.000,22.000,25.000,0.000,0.000,0.000:
1000
0100
1000
0000
,
0001
0010
0001
0000
,
0100
0010
1000
0001
,
1000
0200
0000
0300
,
0010
0100
0001
0100
,
0010
2000
3001
0200
,
0310
1000
0002
0000
,
0103
0010
1000
1000
,
0010
0100
0001
0001
,
2000
3020
0230
0302
,
0203
0000
1000
0000
,
0002
0000
0000
0303
,
1000
0010
0100
0001
,
0010
0001
0011
0000
,
1000
0100
1100
0000
,
1000
0010
1010
0000
,
0100
0001
0101
0000
,
0001
0100
0010
1000
,
0001
0010
1000
0001
,
0100
1000
0001
0000
,
1000
0100
1000
1010
,
0001
0100
1000
0100
,
0001
0010
1000
0010
,
0011
0000
0110
0000
,
1000
0100
0001
0100
,
1010
0000
0110
0000
,
0001
0101
0000
0100
,
1100
0000
0022
0033
,
1000
0100
1000
0100
,
0010
0001
0010
0001
,
0200
1000
0010
0301
,
0020
1000
0100
0031
,
1000
0100
1000
0010
,
0100
0100
0100
0100
,
0101
0000
0100
0000
,
0010
1000
0001
0100
,
0010
1000
2020
3030
,
0001
0010
0100
1000
,
0001
0200
0320
2030
,
3002
0000
0000
0000
,
0103
0010
1000
0000
,
1010
0001
0110
0001
,
0110
1000
1010
0001
,
0101
0100
0110
0010
,
1010
1000
1100
0100
,
0002
0103
0020
1030
,
0200
0310
0001
0010
,
0100
1000
0002
0103
,
2000
0000
0000
0000
,
3000
0000
0000
0000
;

//---------------dance-single - Copied from Copied from----------------
#NOTES:
     dance-single:
     Copied from Copied from:
     Beginner:
     3:
     0.153,0.165,0.069,0.059,0.000,96.000,7.000,6.000,0.000,0.000,0.000,0.153,0.165,0.069,0.059,0.000,96.000,7.000,6.000,0.000,0.000,0.000:
1000
0000
0100
0000
,
1000
0000
0001
0000
,
0010
0000
0000
0000
,
0100
0000
0000
0000
,
0002
0000
0000
0000
,
2003
0000
0000
0000
,
3010
0010
0010
0000
,
0100
0000
0001
0000
,
1000
0000
0100
0000
,
1000
0000
0010
0000
,
0100
0000
0100
0000
,
0200
0000
0000
0300
,
0010
0000
1000
0000
,
1000
0000
0100
0000
,
0010
0000
0001
0000
,
1000
0000
0001
0000
,
0010
0000
0100
0000
,
0010
0010
0010
0000
,
0001
0001
0001
0000
,
1000
1000
1000
1000
,
0010
0100
0001
0000
,
0002
0000
0000
0000
,
2003
0000
0000
0000
,
3001
0010
0000
0000
,
0100
1000
0000
0000
,
0001
0000
0100
0000
,
0010
0000
1000
0000
,
0100
0000
0001
0000
,
0010
0000
0001
0000
,
0100
0000
0000
0000
,
1000
0000
0001
0000
,
0010
0000
0100
0000
,
0001
0000
0100
0000
,
1000
0000
0010
0000
,
0001
0000
0011
0000
,
1000
0000
1100
0000
,
0000
0000
0000
0001
,
0010
0100
1000
0000
,
0001
0100
0010
0000
,
2000
0000
0000
0000
,
3001
0010
0001
0001
,
0100
0000
0100
0000
,
0100
0000
0100
0000
,
0110
0000
0110
0000
,
0110
0000
0110
0000
,
1000
0000
0100
0000
,
0001
0000
0000
0000
,
0010
0000
0000
0010
,
0110
0000
0000
0000
;
