#TITLE:Art of the Dress (Always Stressed Mix);
#SUBTITLE:;
#ARTIST:PinkiePieSwear;
#TITLETRANSLIT:;
#SUBTITLETRANSLIT:;
#ARTISTTRANSLIT:;
#GENRE:Trance;
#CREDIT:;
#BANNER:Art of the Dress (Always Stressed Mix).png;
#BACKGROUND:Art of the Dress (Always Stressed Mix)-bg.png;
#LYRICSPATH:;
#CDTITLE:;
#MUSIC:Art of the Dress (Always Stressed Mix).ogg;
#OFFSET:0.000;
#SAMPLESTART:80.000;
#SAMPLELENGTH:15.000;
#SELECTABLE:YES;
#BPMS:0.000=117.000
;
#STOPS:
;
#BGCHANGES:;
#KEYSOUNDS:;
#ATTACKS:;

//---------------dance-single - Blank----------------
#NOTES:
     dance-single:
     :
     Hard:
     10:
     0.361,0.318,0.000,0.024,0.065,308.000,0.000,3.000,0.000,0.000,0.000,0.361,0.318,0.000,0.024,0.065,308.000,0.000,3.000,0.000,0.000,0.000:
1000
0100
0010
0001
0100
0010
1000
0001
,
0000
0001
1000
0010
0100
0001
0010
0100
,
0000
0001
0100
0010
0001
1000
0010
0100
,
0000
0001
0100
1000
0100
0010
1000
0001
,
0000
0010
0100
1000
0100
0010
0001
1000
,
0000
0010
0100
0001
0100
0010
1000
0001
,
0000
0010
0100
1000
0010
0100
0001
0010
,
0100
1000
0001
0100
,
0010
1000
0100
1000
0010
0100
0001
0100
,
0010
1000
0100
0010
,
0001
0100
0010
0000
0100
0001
1000
0000
,
0100
0010
0001
1000
,
0010
0100
0001
0100
0010
1000
0001
1000
,
0010
0100
0001
0010
,
0100
0000
1000
0000
0001
0100
0010
0000
,
0200
0000
0000
0300
,
0001
0100
1000
0100
0001
0010
0100
0001
,
0100
0010
0001
0100
0010
1000
0001
0000
,
0010
0100
1000
0001
0100
1000
0100
0001
,
0010
0100
1000
0001
0100
0000
0010
0000
,
0100
0001
0010
0100
1000
0001
0100
0010
,
0100
0001
0010
0100
1000
0001
0100
0000
,
0010
0100
0001
0010
0100
1000
0001
0100
,
0010
1000
0100
0010
,
0001
0100
0010
0000
0100
0001
0010
0000
,
0100
1000
0001
0100
0010
0100
0001
0010
,
0100
0000
1000
0000
0001
0100
0010
0000
,
0100
0000
0001
0000
0010
0100
1000
0000
,
0010
0100
0001
0100
0010
1000
0001
1000
,
0010
0100
0001
0010
0100
1000
0001
0100
,
0010
0000
0100
0000
0001
0010
0100
0000
,
2000
0000
0000
3001
,
0001
0000
0100
0000
1000
0000
0100
0000
0001
0000
0000
0010
0000
0000
0100
0000
,
0010
0000
0001
0000
0100
0000
0010
0000
1000
0000
0000
0001
0000
0000
1000
0000
,
0010
0000
0100
0000
0001
0000
0100
0000
0010
0000
0000
1000
0000
0000
0100
0000
,
0010
0000
0100
0000
1000
0000
0001
0000
0100
0000
0000
0010
0000
0000
1000
0000
,
0001
0000
0010
0000
0100
0000
0001
0000
0100
0000
0000
1000
0000
0000
0001
0000
,
0100
0000
0010
0000
0100
0000
0001
0000
1000
0000
0000
0100
0000
0000
0010
0000
,
0100
0000
1000
0000
0010
0000
0100
0000
0001
0000
0000
0100
0000
0000
0010
0000
,
1000
0000
0001
0000
0010
0000
0100
0000
1000
0000
0000
0100
0000
0000
0010
0000
,
0001
0000
1000
0000
0010
0000
0100
0000
0001
0000
0000
0100
0000
0000
0010
0000
,
1000
0000
0100
0000
0010
0000
0100
0000
1000
0000
0000
0001
0000
0000
0100
0000
,
0010
0000
1000
0000
0100
0000
0000
0000
1000
0000
0000
0010
0000
0000
0100
0000
,
0001
0000
0100
0000
0010
0000
0000
0000
1000
0000
0000
0001
0000
0000
0010
0000
,
0100
0000
1000
0000
0100
0000
0010
0000
0001
0000
0000
1000
0000
0000
0001
0000
,
0100
0000
0010
0000
0100
0000
0001
0000
0010
0000
0000
0100
0000
0000
1000
0000
,
0100
0000
0010
0000
0001
0000
1000
0000
0010
0000
0000
0100
0000
0000
0001
0000
,
0100
0000
0010
0000
0100
0000
0001
0000
0010
0000
0000
0100
0000
0000
1000
0000
,
0002
0000
0000
0000
,
0003
0000
0000
0000
;

//---------------dance-single - Blank----------------
#NOTES:
     dance-single:
     :
     Medium:
     7:
     0.259,0.199,0.000,0.024,0.000,220.000,0.000,3.000,0.000,0.000,0.000,0.259,0.199,0.000,0.024,0.000,220.000,0.000,3.000,0.000,0.000,0.000:
1000
0000
0010
0000
0100
0001
0100
0000
,
0001
0000
0010
0000
0100
1000
0100
0000
,
1000
0001
0100
0010
,
0100
0001
0010
0100
,
1000
0000
0010
0000
0100
0001
0100
0000
,
0010
0000
1000
0000
0001
0010
0001
0000
,
0010
0100
1000
0010
,
0100
0001
0010
0100
,
1000
0000
0001
0000
0100
1000
0100
0000
,
0010
0000
1000
0000
0001
0010
0001
0000
,
0010
0000
0100
0000
1000
0100
0001
0000
,
0100
0010
0001
0100
,
0010
0000
1000
0000
0100
1000
0001
0000
,
0100
0000
0010
0000
0100
0001
0010
0000
,
0100
0000
1000
0000
0001
0100
0010
0000
,
2000
0000
0000
0000
,
3001
0000
0100
0000
1000
0100
0001
0000
,
0010
0000
1000
0000
0010
0001
1000
0000
,
0010
0100
0001
0100
,
0010
1000
0100
0000
,
1000
0000
0010
0000
0100
0001
0100
0000
,
1000
0000
0100
0000
0001
0010
1000
0000
,
0010
0100
1000
0010
,
0100
0001
0010
0100
,
1000
0000
0010
0000
0100
0001
0010
0000
,
0100
0000
1000
0000
0100
0010
0001
0000
,
1000
0010
0100
0001
,
0010
0100
0001
0000
,
0100
0000
1000
0000
0001
0100
1000
0000
,
0100
0000
0010
0000
1000
0001
0010
0000
,
0100
1000
0100
0100
,
0020
0000
0000
0001
,
0031
0000
0100
0000
1000
0100
0001
0000
,
1000
0000
0100
0000
0010
0001
1000
0000
,
0010
0000
0100
0000
0001
0010
1000
0000
,
0010
0000
0001
0000
0100
0010
1000
0000
,
0001
0000
0010
0000
0100
0001
0100
0000
,
0010
0000
0001
0000
1000
0010
0100
0000
,
1000
0000
0100
0000
0010
1000
0001
0000
,
0010
0000
0100
0000
1000
0010
0100
0000
,
0001
0000
0100
0000
0010
1000
0010
0000
,
1000
0000
0001
0000
0010
0100
0010
0000
,
0001
0000
0100
0000
0010
1000
0001
0000
,
1000
0000
0010
0000
0100
0001
0100
0000
,
0010
0000
1000
0000
0001
0010
0100
0000
,
0001
0000
0100
0000
1000
0010
0100
0000
,
0001
0000
0100
0000
0010
1000
0001
0000
,
0010
0000
0100
0000
1000
0010
0100
0000
,
0002
0000
0000
0000
,
0003
0000
0000
0000
;

//---------------dance-single - Blank----------------
#NOTES:
     dance-single:
     :
     Easy:
     4:
     0.149,0.156,0.008,0.024,0.000,124.000,1.000,3.000,0.000,0.000,0.000,0.149,0.156,0.008,0.024,0.000,124.000,1.000,3.000,0.000,0.000,0.000:
1000
0000
0100
0000
,
0010
0001
0010
0000
,
0100
0000
1000
0000
,
0001
0100
0010
0000
,
0100
0000
0001
0000
,
1000
0100
0010
0000
,
0001
0000
1000
0000
,
0010
0000
0000
0000
,
0100
0000
0001
0000
,
0100
0010
1000
0000
,
0001
0000
0010
0000
,
0100
1000
0100
0000
,
0010
0000
0001
0000
,
0100
1000
0100
0000
,
0010
0000
1000
0000
,
0002
0000
0000
0000
,
1003
0100
1000
0000
,
0001
0000
0100
0000
,
0001
0010
0001
0000
,
1000
0000
0100
0000
,
1000
0010
0100
0000
,
0001
0000
1000
0000
,
0100
0010
0001
0000
,
0100
0000
0010
0000
,
1000
0001
1000
0000
,
0010
0000
0100
0000
,
0001
1000
0010
0000
,
0100
0000
0001
0000
,
0100
0010
1000
0000
,
0001
0000
0010
0000
,
0100
1000
0001
0000
,
2002
0000
3003
0000
,
0010
0010
0100
0100
,
0001
0001
0010
0010
,
0100
0100
1000
1000
,
0010
0010
0100
0100
,
0001
0010
0100
0000
,
0001
0100
1000
0000
,
0001
0100
1000
0000
,
0100
0010
1000
0000
,
0001
0000
0010
0000
,
0100
1000
0001
0000
,
0100
0000
0010
0000
,
1000
0001
0010
0000
,
0100
0000
1000
0000
,
0010
0100
0001
0000
,
0100
0000
0010
0000
,
1000
0001
0010
0000
,
0100
0000
0000
0000
;

//---------------dance-single - ----------------
#NOTES:
     dance-single:
     :
     Beginner:
     1:
     0.081,0.077,0.000,0.008,0.000,69.000,0.000,1.000,0.000,0.000,0.000,0.081,0.077,0.000,0.008,0.000,69.000,0.000,1.000,0.000,0.000,0.000: // measure 0
1000
0000
0000
0000
,  // measure 1
1000
0000
0000
0000
,  // measure 2
0001
0000
0000
0000
,  // measure 3
0001
0000
0000
0000
,  // measure 4
0100
0000
0000
0000
,  // measure 5
0010
0000
0000
0000
,  // measure 6
1000
0000
0000
0000
,  // measure 7
0001
0000
0000
0000
,  // measure 8
0010
0000
0000
0000
,  // measure 9
0100
0000
0000
0000
,  // measure 10
1000
0000
0000
0000
,  // measure 11
0001
0000
0000
0000
,  // measure 12
0100
0000
0000
0000
,  // measure 13
0010
0000
0000
0000
,  // measure 14
1000
0000
0000
0000
,  // measure 15
0000
0000
0000
0000
,  // measure 16
0001
0000
0000
0001
,  // measure 17
0000
0001
0000
0001
,  // measure 18
0000
1000
0000
1000
,  // measure 19
0000
1000
0000
1000
,  // measure 20
0000
0010
0000
0010
,  // measure 21
0000
0010
0000
0010
,  // measure 22
0000
0100
0000
0100
,  // measure 23
0000
0100
0000
0000
,  // measure 24
0001
0000
0000
0000
,  // measure 25
0010
0000
0000
0000
,  // measure 26
0100
0000
0000
0000
,  // measure 27
1000
0000
0000
0000
,  // measure 28
0001
0000
0000
0000
,  // measure 29
0100
0000
0000
0000
,  // measure 30
0010
0000
0010
0000
,  // measure 31
0020
0000
0030
0000
,  // measure 32
0000
0010
0000
0010
,  // measure 33
0000
0010
0000
0010
,  // measure 34
0000
0100
0000
0100
,  // measure 35
0000
0100
0000
0100
,  // measure 36
0000
0001
0000
0001
,  // measure 37
0000
0001
0000
0001
,  // measure 38
0000
1000
0000
1000
,  // measure 39
0000
1000
0000
1000
,  // measure 40
0000
0001
0000
0010
,  // measure 41
0000
0001
0000
0000
,  // measure 42
0000
1000
0000
0100
,  // measure 43
0000
1000
0000
0000
,  // measure 44
0001
0000
0001
0000
,  // measure 45
0010
0000
0010
0000
,  // measure 46
0100
0000
1000
0000
,  // measure 47
0010
0000
0100
0000
;

//---------------dance-single - ----------------
#NOTES:
     dance-single:
     :
     Challenge:
     8:
     0.238,0.199,0.016,0.032,0.000,199.000,2.000,4.000,76.000,0.000,0.000,0.238,0.199,0.016,0.032,0.000,199.000,2.000,4.000,76.000,0.000,0.000:
1000
0000
0010
0000
0100
0001
0100
0000
,
0010
1000
0001
MMMM
,
0010
0000
0100
0000
1000
0100
0010
0000
,
0001
0100
0010
MMMM
,
0010
0000
1000
0000
0100
0001
0100
0000
,
1000
0010
0100
MMMM
,
0001
0000
0100
0000
0010
1000
0001
0000
,
0010
0100
1000
MMMM
,
0001
0000
0100
0000
0010
1000
0010
0100
,
0000
0001
0100
MMMM
,
0010
1000
0100
1000
,
0010
0100
0001
MMMM
,
0100
0000
0010
0000
1000
0100
1000
0001
,
0000
0100
0010
MMMM
,
0010
0000
1000
0000
0100
1000
0001
0000
,
0200
0000
0300
MMMM
,
1000
0000
0100
0000
0010
1000
0001
0000
,
0010
0000
0100
0000
1000
0001
0100
0000
,
0010
0000
0100
0000
0001
0010
0100
0000
,
1000
0010
0100
MMMM
,
0010
0000
1000
0000
0100
0010
0100
0000
,
1000
0000
0001
0000
0100
1000
0100
0000
,
0010
0000
1000
0000
0001
0010
0100
0000
,
1000
0001
0100
MMMM
,
0010
0000
1000
0000
0100
1000
0001
0000
,
0100
0000
0010
0000
0100
0001
1000
0000
,
0100
0000
0010
0000
0001
0100
1000
0000
,
0100
0010
1000
MMMM
,
0001
0000
0010
0000
0100
0001
0100
0000
,
1000
0000
0001
0000
0100
0010
0100
0000
,
0001
0000
1000
0000
0100
0010
0001
0000
,
2000
0000
3000
MMMM
,
1000
0000
0010
0000
0100
0001
0100
0000
,
0010
1000
0001
MMMM
,
0001
0000
0010
0000
0100
1000
0001
0000
,
0100
1000
0100
MMMM
,
0010
0000
1000
0000
0100
0010
0100
0000
,
1000
0001
0100
MMMM
,
0010
0000
1000
0000
0100
1000
0001
0000
,
0100
0010
1001
MMMM
,
0010
0000
1000
0000
0100
1000
0100
0010
,
0000
0001
0100
MMMM
,
0010
0000
1000
0000
0100
1000
0001
0100
,
0000
0010
0100
MMMM
,
0001
0000
0010
0100
1000
0100
0010
0001
,
1000
0010
0100
MMMM
,
0001
0000
0010
0000
0100
1000
0001
0000
,
0100
0010
1000
0001
,
2002
0000
0000
0000
,
3003
0000
0000
0000
;
