#VERSION:0.81;
#TITLE:Applejack Bucks 400 Apple Trees;
#SUBTITLE:;
#ARTIST:Foozogz;
#TITLETRANSLIT:;
#SUBTITLETRANSLIT:;
#ARTISTTRANSLIT:;
#GENRE:Techno;
#ORIGIN:;
#CREDIT:;
#BANNER:Applejack Bucks 400 Apple Trees.png;
#BACKGROUND:Applejack Bucks 400 Apple Trees-bg.png;
#PREVIEWVID:;
#JACKET:Applejack Bucks 400 Apple Trees-jacket.png;
#CDIMAGE:;
#DISCIMAGE:;
#LYRICSPATH:;
#CDTITLE:;
#MUSIC:Applejack Bucks 400 Apple Trees.mp3;
#OFFSET:-7.138;
#SAMPLESTART:59.270;
#SAMPLELENGTH:15.000;
#SELECTABLE:YES;
#DISPLAYBPM:170.000;
#BPMS:0.000=170.090,
64.000=196.349,
65.000=170.090,
79.000=169.387,
80.000=162.991,
81.000=170.030,
101.000=172.154,
102.000=167.957,
103.000=170.030,
113.000=167.957,
114.000=170.030,
230.000=158.367;
#STOPS:;
#DELAYS:;
#WARPS:;
#TIMESIGNATURES:0.000=4=4;
#TICKCOUNTS:0.000=4;
#COMBOS:0.000=1;
#SPEEDS:0.000=1.000=0.000=0;
#SCROLLS:0.000=1.000;
#FAKES:;
#LABELS:0.000=Song Start;
#BGCHANGES:-22.000=Applejack Bucks 400 Apple Trees.avi=1.000=0=0=0=StretchNoLoop====,
99999=-nosongbg-=1.000=0=0=0 // don't automatically add -songbackground-
;
#KEYSOUNDS:;
#ATTACKS:
;

//---------------dance-single - ----------------
#NOTEDATA:;
#CHARTNAME:;
#STEPSTYPE:dance-single;
#DESCRIPTION:;
#CHARTSTYLE:;
#DIFFICULTY:Beginner;
#METER:2;
#RADARVALUES:0.148,0.182,0.034,0.022,0.000,87.000,3.000,2.000,0.000,0.000,0.000,0.000,0.000,0.148,0.182,0.034,0.022,0.000,87.000,3.000,2.000,0.000,0.000,0.000,0.000,0.000;
#CREDIT:;
#DISPLAYBPM:170.000;
#NOTES:
0001
0000
0000
0000
,
1000
0000
0000
0000
,
0001
0000
0000
0000
,
1001
0000
0000
0000
,
1000
0000
1000
0000
,
1000
0000
0000
0000
,
0001
0000
0001
0000
,
0001
0000
0000
0000
,
0100
0000
0100
0000
,
0100
0000
0000
0000
,
0010
0000
0010
0000
,
0010
0000
0000
0000
,
2000
0000
0000
0000
,
0000
0000
0000
0000
,
3000
0000
0000
0000
,
1000
0000
0000
0000
,
0002
0000
0000
0000
,
0000
0000
0000
0000
,
0003
0000
0000
0000
,
0001
0000
0000
0000
,
1000
0000
0000
0000
,
0100
0000
0000
0000
,
0001
0000
0000
0000
,
0010
0000
0000
0000
,
0001
0000
0000
0000
,
0100
0000
0000
0000
,
1000
0000
0000
0000
,
0010
0000
0000
0000
,
0100
0000
0100
0000
,
0100
0000
0000
0000
,
0001
0000
0001
0000
,
0001
0000
0000
0000
,
0010
0000
0010
0000
,
0010
0000
0000
0000
,
1000
0000
1000
0000
,
1000
0000
0000
0000
,
1000
0000
0000
0000
,
0001
0001
0001
0000
,
0001
0001
0001
0000
,
0100
0100
0100
0000
,
0100
0100
0100
0000
,
0010
0010
0010
0000
,
0010
0010
0010
0000
,
1000
1000
1000
0000
,
1000
1000
1000
0000
,
1000
0000
0100
0000
,
0010
0000
0001
0000
,
0001
0000
0010
0000
,
0100
0000
1000
0000
,
0010
0010
0010
0000
,
0010
0010
0010
0000
,
0100
0100
0100
0000
,
0100
0100
0100
0000
,
1001
0000
0000
0000
,
1001
0000
0000
0000
;

//---------------dance-single - ----------------
#NOTEDATA:;
#CHARTNAME:;
#STEPSTYPE:dance-single;
#DESCRIPTION:;
#CHARTSTYLE:;
#DIFFICULTY:Easy;
#METER:6;
#RADARVALUES:0.255,0.254,0.101,0.079,0.000,143.000,9.000,7.000,0.000,0.000,0.000,0.000,0.000,0.255,0.254,0.101,0.079,0.000,143.000,9.000,7.000,0.000,0.000,0.000,0.000,0.000;
#CREDIT:;
#DISPLAYBPM:170.000;
#NOTES:
1000
0000
0001
0000
,
0100
0000
0010
0000
,
1000
0000
0001
0000
,
1001
1001
1001
0000
,
0010
1000
0100
0000
,
0010
0001
0100
0000
,
0100
0001
0010
0000
,
0100
1000
0010
0000
,
0010
1000
0100
0000
,
0100
0001
0010
0000
,
0010
0001
0100
0000
,
0100
1000
0010
0000
,
0220
0000
0000
0000
,
0000
0000
0000
0000
,
0000
0000
0000
0000
,
0330
0000
0110
0000
,
2002
0000
0000
0000
,
0000
0000
0000
0000
,
0000
0000
0000
0000
,
3003
0000
1001
0000
,
0010
0000
1000
0000
,
0010
0000
0100
0000
,
0001
0000
0100
0000
,
0001
0000
1000
0000
,
0001
0000
0010
0000
,
0001
0000
0010
0000
,
0100
0000
1000
0000
,
0100
0000
0010
0000
,
0001
0001
0001
0001
,
0010
0010
0010
0010
,
1000
1000
1000
1000
,
0100
0100
0100
0100
,
0001
0100
0001
0100
,
0010
1000
0010
1000
,
0100
0001
0010
1000
,
0200
0000
0000
0000
,
0310
0000
0000
0000
,
1000
0100
1000
0010
,
0100
0001
0010
0000
,
0010
0001
0100
1000
,
0100
0001
0010
0000
,
0001
0010
0001
0100
,
0010
1000
0100
0000
,
1000
0010
0001
0100
,
1000
0100
0001
0000
,
0010
0001
1000
0100
,
0001
0010
0001
0000
,
1000
0010
0100
0001
,
0100
0010
1000
0000
,
0010
0001
0100
1000
,
0100
0001
0010
0100
,
1000
0100
0010
0001
,
0100
0010
1000
0001
,
1001
0000
0000
0000
,
0220
0000
0000
0000
,
0000
0000
0000
0000
,
0000
0000
0330
0000
;

//---------------dance-single - ----------------
#NOTEDATA:;
#CHARTNAME:;
#STEPSTYPE:dance-single;
#DESCRIPTION:;
#CHARTSTYLE:;
#DIFFICULTY:Medium;
#METER:9;
#RADARVALUES:0.400,0.413,0.090,0.101,0.000,232.000,8.000,9.000,0.000,0.000,0.000,0.000,0.000,0.400,0.413,0.090,0.101,0.000,232.000,8.000,9.000,0.000,0.000,0.000,0.000,0.000;
#CREDIT:;
#DISPLAYBPM:170.000;
#NOTES:
1000
0100
1000
0100
,
0010
0001
0010
0001
,
0010
0001
0100
1000
,
1001
1001
1001
1001
,
0000
1000
0000
0001
0000
0100
0000
0001
,
0000
1000
0000
0001
0000
0010
0000
0001
,
0000
1000
0000
0100
0000
0010
0000
0001
,
1000
0001
0010
0100
,
0000
1000
0000
0100
0000
0010
0000
0001
,
0000
0010
0000
0001
0000
0100
0000
1000
,
0000
0010
0000
1000
0000
0100
0000
0001
,
0010
0001
0100
0010
,
2000
0100
0000
0100
,
0000
0000
0100
0000
0000
0000
0100
3000
,
0020
0000
0001
0000
0000
0000
0001
0030
,
0001
1000
0001
1000
,
0020
0100
0000
0100
,
0000
0100
0000
0130
,
0200
0010
0000
0310
,
0100
0001
1000
0001
,
1000
0100
1100
1000
,
0010
0100
0101
0001
,
0010
0001
0100
0000
0010
0000
1000
0000
,
0100
1000
0001
0010
,
0100
1000
0100
0000
0010
0000
0001
0000
,
0100
0010
0100
0001
,
1000
0100
0010
0000
0100
0000
1000
0000
,
0001
0100
0010
1000
,
0010
0000
1000
0000
0100
0001
0100
0000
,
1000
0000
0010
0000
0001
0100
1000
0000
,
0100
0000
0001
0000
0010
0100
1000
0000
,
0100
0000
0010
0000
0001
0100
0010
1000
,
0001
0000
0010
0000
0100
1000
0100
0000
,
0010
0000
0001
0000
0100
0001
0100
0000
,
1000
0000
0100
0000
0010
0001
0010
0000
,
0100
1000
0100
1000
0001
1000
0001
1000
,
0002
0000
0000
0003
,
0010
0000
0100
0000
1000
0100
0010
0000
,
0001
0010
0100
0000
1000
0000
0001
0000
,
0100
0010
1000
0010
,
0100
0001
0100
0000
0010
0000
1000
0000
,
0010
1000
0100
1000
,
0001
0100
0010
1000
,
0010
0000
0100
0000
0001
0010
0001
0000
,
0010
0100
1000
0100
,
0010
0000
0001
0000
0100
0010
1000
0000
,
0010
0100
0001
0000
0010
0000
0100
0000
,
1000
0000
0100
0000
0010
0001
0010
0000
,
0100
1000
0001
0000
0100
0010
1000
0000
,
0001
0010
0001
0100
,
0010
1000
0100
0000
0010
0100
1000
0000
,
0001
0000
0100
0000
0010
1000
0100
0000
,
0010
0001
0100
0000
0010
1000
0100
0000
,
2002
0000
3003
0000
,
0220
0000
0000
0000
,
0000
0000
0000
0000
,
0000
0000
0330
0000
;

//---------------dance-single - ----------------
#NOTEDATA:;
#CHARTNAME:;
#STEPSTYPE:dance-single;
#DESCRIPTION:;
#CHARTSTYLE:;
#DIFFICULTY:Hard;
#METER:11;
#RADARVALUES:0.530,0.635,0.090,0.112,0.225,312.000,8.000,10.000,0.000,0.000,0.000,0.000,0.000,0.530,0.635,0.090,0.112,0.225,312.000,8.000,10.000,0.000,0.000,0.000,0.000,0.000;
#CREDIT:;
#DISPLAYBPM:170.000;
#NOTES:
1000
0000
0100
0000
0010
0001
0100
0000
,
0010
0000
1000
0000
0100
0001
0100
0000
,
0010
0000
1000
0000
0100
0010
0001
0000
,
1001
1001
1001
1001
,
1000
0000
0000
0100
0000
0000
1000
0000
0000
0001
0000
0000
0100
0000
0010
0000
,
1000
0000
0000
0001
0000
0000
0010
0000
0000
0100
0000
0000
1000
0000
0100
0000
,
0010
0000
0000
0001
0000
0000
0100
0000
0000
1000
0000
0000
0100
0000
0001
0000
,
0010
0000
0000
0100
0000
0000
1000
0000
0000
0100
0000
0000
0010
0000
0001
0000
,
0100
0000
0000
0010
0000
0000
1000
0000
0000
0010
0000
0000
0100
0000
0001
0000
,
0010
0000
0000
0100
0000
0000
1000
0000
0000
0001
0000
0000
0100
0000
0010
0000
,
1000
0000
0000
0010
0000
0000
0100
0000
0000
0001
0000
0000
0010
0000
0100
0000
,
1000
0000
0000
0100
0000
0000
0010
0000
0001
0000
0100
0000
0010
0000
1000
0000
,
0002
0100
0000
0100
,
0000
0000
0100
0000
0000
0000
0100
0100
,
0000
0000
0000
0000
0100
0000
0000
0000
0000
0000
0000
0000
0100
0003
0000
0000
,
0010
0000
0000
1000
0000
0000
0100
0000
0000
0010
0000
0000
0100
0000
1000
0000
,
0002
0000
0000
0000
0100
0000
0000
0000
0000
0000
0000
0000
0100
0003
0000
0000
,
0020
0100
0000
0130
,
2000
0000
0000
0000
0001
0000
0000
0000
0000
0000
0000
0000
0001
3000
0000
0000
,
0100
0000
0000
0010
0000
0000
1000
0000
0000
0000
0001
0000
0010
0000
0100
0000
,
1000
0001
0101
0010
,
1000
0100
0010
0100
1000
0000
0001
0000
,
0100
0010
1000
0100
0001
0000
0100
0000
,
0010
1000
0001
0010
0100
0000
1000
0000
,
0100
0010
0001
0010
0100
0000
1000
0000
,
0001
0100
0010
1000
0001
0000
0010
0000
,
0100
1000
0100
0001
0100
0000
0010
0000
,
1000
0001
0010
0100
1000
0000
0100
0000
,
0010
0001
0010
0001
1000
0100
1000
0100
,
0001
0100
0001
0100
0010
1000
0010
1000
,
0010
0100
0010
0100
0001
1000
0001
1000
,
0001
0100
0001
0100
0010
1000
0010
1000
,
0001
0010
0001
0010
0100
1000
0100
1000
,
0010
1000
0100
0001
0010
0001
0100
1000
,
0010
1000
0100
0001
0010
0100
1000
0100
,
0010
0001
0010
0001
0010
0000
0100
0000
1000
0001
1000
0001
1000
0000
0010
0000
,
0220
0000
0000
0330
,
1000
0000
0000
0010
0000
0000
0100
0000
0001
0000
0100
0000
0010
0000
0000
0000
,
1000
0010
0100
0000
0001
0000
0010
0000
,
0100
1000
0100
0000
0010
0000
0001
0010
,
0100
1000
0100
0010
0001
1000
0010
0100
,
0001
0000
0000
0100
0000
0000
0001
0000
0000
0010
0000
0000
0100
0000
1000
0000
,
0100
0000
0000
0010
0000
0000
0001
0000
0000
0100
0000
0000
1000
0000
0100
0000
,
0001
0000
0000
0010
0000
0000
0100
0000
0000
1000
0000
0000
0100
0000
0010
0000
,
0001
0000
0000
0100
0000
0000
0010
0000
0000
1000
0000
0000
0010
0000
0100
0000
,
0001
0000
0000
0100
0000
0000
1000
0000
0100
0000
0010
0000
0001
0000
0000
0000
,
1000
0010
0100
0000
0001
0000
0100
0000
,
0010
1000
0100
0000
0010
0001
0100
0000
,
0010
1000
0100
0010
0100
1000
0001
0100
,
0010
0000
0000
1000
0000
0000
0001
0000
0000
0010
0000
0000
0100
0000
1000
0000
,
0100
0000
0000
0010
0000
0000
0001
0000
0000
0100
0000
0000
1000
0000
0100
0000
,
0001
0000
0000
0010
0000
0000
0100
0000
0000
1000
0000
0000
0001
0000
0100
0000
,
0010
0000
0000
1000
0000
0000
0010
0000
0000
0100
0000
0000
0001
0000
0010
0000
,
0220
0000
0000
0330
,
2002
0000
0000
0000
,
0000
0000
0000
0000
,
0000
0000
3003
0000
;

//---------------dance-single - ----------------
#NOTEDATA:;
#CHARTNAME:;
#STEPSTYPE:dance-single;
#DESCRIPTION:;
#CHARTSTYLE:;
#DIFFICULTY:Challenge;
#METER:14;
#RADARVALUES:0.734,0.762,0.371,0.101,0.540,415.000,33.000,9.000,0.000,0.000,0.000,0.000,0.000,0.734,0.762,0.371,0.101,0.540,415.000,33.000,9.000,0.000,0.000,0.000,0.000,0.000;
#CREDIT:;
#DISPLAYBPM:170.000;
#NOTES:
1000
0010
0000
0010
1000
0000
0001
0000
0100
0001
0000
0001
0010
0000
0100
0000
,
0010
0001
0000
0001
1000
0000
0010
1000
0010
0100
0000
0100
0001
0000
1000
0000
,
0100
0010
0000
0010
0001
0000
0100
0000
0001
0100
0000
0100
0010
0000
0010
1000
,
0200
0000
0000
0310
0000
0000
0110
0000
,
0100
1000
0100
0010
0100
0001
0100
1000
,
0010
1000
0001
1000
0001
0100
0010
1000
,
0100
0001
0100
0010
0100
1000
0100
0010
,
0001
0010
1000
0010
0100
1000
0001
0010
,
0100
1000
0010
0100
0001
0010
0100
1000
,
0010
0100
0001
0010
0100
1000
0001
0010
,
0001
0100
1000
0100
0001
0010
1000
0010
,
0200
0000
0000
0310
0000
0100
0100
0100
,
1000
0000
0000
1000
0000
0000
1010
0000
0000
1000
0000
0000
0100
0000
0010
0000
,
0001
0000
0000
0001
0000
0000
0011
0000
0000
0001
0000
0000
0100
0000
1000
0000
,
0100
0000
0000
0100
0000
0000
0110
0000
0000
1000
0000
0000
0010
0100
0001
1000
,
0100
0000
0000
0010
0000
0000
0110
0000
0000
0100
0000
0000
1000
0100
1000
0100
,
0010
0000
0000
0010
0000
0000
0011
0000
0000
0001
0000
0000
0100
0000
0100
0000
,
0010
0000
0000
0010
0000
0000
1010
0000
0000
1000
0000
0000
0100
0000
0100
0000
,
0010
0000
0000
0100
0000
0000
1000
0000
0000
0001
0000
0000
0100
0001
0010
0100
,
2000
0000
0000
0000
0000
0000
3001
0000
0000
0000
0000
0000
0001
0100
0001
0100
,
0020
0000
1030
0000
1010
1000
0100
0010
,
0100
0010
0000
0010
0100
0000
1000
0000
0001
0100
0000
0100
0010
0000
0001
0000
,
0020
0000
0000
0000
1030
0000
1010
0000
1000
0100
0000
0100
0001
0000
0100
0000
,
0010
0001
0000
0001
0100
0000
0010
0000
1000
0001
0000
0001
0100
0010
1000
0100
,
0020
0000
0000
0000
0031
0000
0011
0000
0001
0100
0000
0100
0010
0000
1000
0000
,
0100
1000
0000
1000
0010
0000
0100
0000
0001
0010
0000
0010
1000
0000
1000
0010
,
0200
0000
0310
0000
0110
0000
0010
0001
,
0100
0010
0000
0010
1000
0000
0100
0000
0010
0100
0000
1000
0001
0100
0010
1000
,
0100
0000
0000
0100
1000
0000
0000
0000
0100
0000
0000
0100
0001
0000
0000
0000
,
0010
0000
0000
0010
0001
0000
0000
0000
0010
0000
0000
0010
1000
0000
0000
0000
,
0010
0000
0000
0010
0100
0000
0000
0000
1000
0000
0000
1000
0001
0000
0000
0000
,
1000
0000
0000
0100
0010
0000
0000
0000
0001
0000
0100
0000
1000
0000
0100
0000
,
0010
0000
0000
1000
0010
0000
0000
0000
1000
0000
0000
0100
1000
0000
0000
0000
,
0100
0000
0000
0001
0100
0000
0000
0000
0001
0000
0000
0010
0001
0000
0000
0000
,
0010
0010
0100
0100
0001
0001
1000
1000
,
0001
1000
0001
1000
0010
1000
0010
1000
0100
0001
0100
0001
0100
0010
0100
0010
,
0001
0100
0000
0100
0010
0000
1000
0000
0100
0000
0010
0000
0110
0000
0000
0000
,
1100
0000
0100
0010
0001
0010
0011
0000
,
0001
0000
0010
0000
0011
0000
0000
0000
1001
0000
0000
0000
1000
0000
0100
0010
,
0001
0010
0011
0000
0110
0000
0100
0010
,
0001
0000
0000
0000
0000
0000
0100
0000
0000
0010
0000
0000
0100
0000
0000
0000
0000
0000
0100
0000
0010
0000
0100
0000
0010
0000
0000
0000
0000
0000
1000
0000
0000
0000
0000
0000
0001
0000
0000
0000
0000
0000
0100
0000
0000
0000
0000
0000
,
0110
0000
0000
0101
0000
1010
0000
0101
,
0001
0010
1000
0010
0001
0100
1000
0100
,
0110
0000
0000
1010
0000
0101
0000
1010
,
2000
0000
0000
3001
0000
0001
0001
0001
,
0101
0000
0100
0010
1000
0010
1010
0000
,
1000
0000
0010
0000
1010
0000
0000
0000
1001
0000
0000
0000
0001
0000
0100
0010
,
1000
0010
1010
0000
0110
0000
0100
0010
,
1000
0000
0000
0000
0000
0000
0100
0000
0000
0010
0000
0000
0100
0000
0000
0000
0000
0000
0100
0000
0010
0000
0100
0000
0010
0000
0000
0000
0000
0000
0001
0000
0000
0000
0000
0000
1000
0000
0000
0000
0000
0000
0100
0000
0000
0000
0000
0000
,
0010
0100
0010
0001
0010
0100
0010
1000
,
0010
0000
0110
0000
0010
0100
0100
0100
,
0010
0001
0100
1000
0100
0010
1000
0001
,
0010
0100
0010
0100
1000
0001
1000
0001
,
0100
0001
0000
0001
0010
0000
0100
0000
1000
0010
0000
0010
0100
0001
0010
0100
,
2000
0000
0000
0000
,
0000
0000
0000
0000
,
0000
0000
3000
0000
;
