#TITLE:m1dy Deluxe;
#SUBTITLE:;
#ARTIST:m1dy;
#TITLETRANSLIT:;
#SUBTITLETRANSLIT:;
#ARTISTTRANSLIT:;
#GENRE:Speedcore;
#CREDIT:;
#BANNER:m1dy Deluxe.png;
#BACKGROUND:m1dy Deluxe-bg.png;
#LYRICSPATH:;
#CDTITLE:;
#MUSIC:m1dy Deluxe.mp3;
#OFFSET:-0.042686;
#SAMPLESTART:14.091466;
#SAMPLELENGTH:18.731709;
#SELECTABLE:YES;
#BPMS:0.000000=205.000000
;
#STOPS:204.000000=0.878000
;
#BGCHANGES:-1.000=m1dy Deluxe.avi=1.000=0=0=0=StretchNoLoop====,
99999=-nosongbg-=1.000=0=0=0 // don't automatically add -songbackground-
;
#KEYSOUNDS:;
#ATTACKS:;

//---------------dance-single - ----------------
#NOTES:
     dance-single:
     :
     Easy:
     9:
     0.464055,0.652966,0.600334,0.115133,0.000000,308.000000,73.000000,14.000000,0.000000,0.000000,0.000000,0.464055,0.652966,0.600334,0.115133,0.000000,308.000000,73.000000,14.000000,0.000000,0.000000,0.000000:
// measure 0
0000
0000
0000
0000
,  // measure 1
0000
0000
0000
0000
,  // measure 2
0000
0000
0000
0000
,  // measure 3
1001
0000
0000
0000
,  // measure 4
0001
0001
0001
0000
,  // measure 5
0001
0001
0001
0000
,  // measure 6
1000
1000
1000
0000
,  // measure 7
1000
1000
0020
0030
,  // measure 8
2002
0000
0000
0000
,  // measure 9
0000
0000
0000
0000
,  // measure 10
0000
0000
3003
0000
,  // measure 11
0110
0000
0000
0200
,  // measure 12
0301
0001
0001
1001
,  // measure 13
1000
1000
1000
1001
,  // measure 14
0100
0100
0100
0110
,  // measure 15
0010
0010
0010
0200
,  // measure 16
0310
0001
0010
0001
,  // measure 17
0100
0001
0100
0001
,  // measure 18
1000
0010
1000
0010
,  // measure 19
1000
0100
1000
1100
,  // measure 20
0100
0100
0100
0010
,  // measure 21
0100
0100
0100
1000
,  // measure 22
0001
0001
0001
0100
,  // measure 23
0001
0001
0001
1000
,  // measure 24
0010
0010
0010
0100
,  // measure 25
0010
0010
0010
0001
,  // measure 26
1000
1000
1000
0001
,  // measure 27
2002
0000
0000
3003
,  // measure 28
0100
0001
0100
1000
,  // measure 29
0010
1000
0010
0001
,  // measure 30
0010
0100
0001
0100
,  // measure 31
0010
1000
0100
1000
,  // measure 32
0001
0010
1000
0010
,  // measure 33
0001
0100
1000
0100
,  // measure 34
0010
0100
0001
1000
,  // measure 35
0100
0010
0100
0110
,  // measure 36
0010
0001
1100
0000
,  // measure 37
0010
0010
1000
1000
,  // measure 38
0001
0010
1100
0000
,  // measure 39
1000
1000
0001
0001
,  // measure 40
0100
0001
1010
0000
,  // measure 41
1000
1000
0100
0100
,  // measure 42
0010
0001
1100
0000
,  // measure 43
1000
0001
0200
0310
,  // measure 44
0100
0001
1010
0000
,  // measure 45
1000
1000
0100
0100
,  // measure 46
0010
0001
1100
0000
,  // measure 47
1000
1000
0010
0010
,  // measure 48
0110
0000
0000
0000
,  // measure 49
1001
0000
0000
0000
,  // measure 50
0001
0010
0100
1000
,  // measure 51
0000
0002
0000
0000
,  // measure 52
0000
0000
0000
0000
,  // measure 53
0000
2003
0000
0000
,  // measure 54
0000
0000
0000
0000
,  // measure 55
3000
1001
1001
1001
,  // measure 56
1001
0110
0110
0110
,  // measure 57
0110
1010
0101
0011
,  // measure 58
1100
1000
0100
0010
,  // measure 59
0001
1000
1000
0100
,  // measure 60
0100
0010
0010
0001
,  // measure 61
0001
1000
0010
0100
,  // measure 62
0001
0000
0010
0000
0100
0000
1000
0001
,  // measure 63
1000
1001
1001
1001
,  // measure 64
1001
0110
0110
0110
,  // measure 65
0110
1010
0101
0011
,  // measure 66
1100
0100
0000
2002
,  // measure 67
3003
1010
0000
1010
,  // measure 68
0000
1010
0000
1010
,  // measure 69
0000
0101
0000
0101
,  // measure 70
0000
0101
0000
0101
,  // measure 71
0000
1001
1001
1001
,  // measure 72
0000
1001
1001
1001
,  // measure 73
0000
1000
0100
0010
,  // measure 74
0001
0200
0000
0000
,  // measure 75
0000
0310
0010
0010
,  // measure 76
0110
0100
0100
0100
,  // measure 77
0101
0001
0001
0001
,  // measure 78
1001
1000
1000
1000
,  // measure 79
1100
0100
0010
0100
,  // measure 80
0010
0001
0010
0001
,  // measure 81
0010
0100
1000
0100
,  // measure 82
1000
0010
0000
0000
,  // measure 83
0200
0301
0001
0001
,  // measure 84
1001
1000
1000
1000
,  // measure 85
1100
0100
0100
0100
,  // measure 86
0101
0100
0100
0100
,  // measure 87
1100
1000
1000
1000
,  // measure 88
1010
0010
0010
0010
,  // measure 89
0011
0010
0010
0010
,  // measure 90
0110
0000
0100
0000
0000
0100
0000
0000
,  // measure 91
0101
0001
1000
0001
,  // measure 92
1000
0100
0010
0100
,  // measure 93
0010
0001
0010
0100
,  // measure 94
1000
0010
1000
0001
,  // measure 95
0100
0110
0000
0000
,  // measure 96
0000
1001
0000
0000
,  // measure 97
0000
1010
0000
0000
,  // measure 98
0000
0101
0000
0000
,  // measure 99
0100
1001
0000
0000
;

//---------------dance-single - ----------------
#NOTES:
     dance-single:
     :
     Hard:
     18:
     1.000000,1.000000,0.542768,0.337174,0.625005,788.000000,66.000000,41.000000,0.000000,0.000000,0.000000,1.000000,1.000000,0.542768,0.337174,0.625005,788.000000,66.000000,41.000000,0.000000,0.000000,0.000000:
// measure 0
0000
0000
0000
0000
,  // measure 1
0000
0000
0000
0000
,  // measure 2
0000
0000
0000
0000
,  // measure 3
1001
0000
0000
0000
,  // measure 4
0010
0000
0000
0000
0100
0000
0010
0100
0000
0010
0100
0000
0010
0000
0100
0000
,  // measure 5
0001
0000
0000
0000
1000
0000
0001
0100
0000
0001
0100
0000
0010
0000
1000
0001
,  // measure 6
0010
0000
0000
0000
0001
0000
0010
0100
0000
0010
0100
0000
1000
0000
0100
0000
,  // measure 7
1000
0000
0000
0000
0010
0000
0100
0010
1000
0000
0000
0000
0000
0000
0000
0000
,  // measure 8
2002
0000
0000
0000
,  // measure 9
0000
0000
0000
0000
,  // measure 10
0000
0000
0000
3003
,  // measure 11
0210
0000
0000
1300
0100
0000
2100
0000
,  // measure 12
3001
0000
1000
0010
1000
0000
0001
1000
0000
0010
1000
0000
1100
0000
0000
0000
,  // measure 13
1000
0000
0001
0010
0001
0000
1000
0001
0000
0010
0001
0000
0001
1000
0100
1000
,  // measure 14
0001
0000
1000
0100
1000
0000
0001
1000
0000
0100
1000
0000
1010
0000
0000
0000
,  // measure 15
1000
0000
0001
0100
0001
1000
0001
2000
0000
3001
1000
0001
0020
0000
0000
0000
,  // measure 16
0130
0000
1000
0100
1000
0100
1000
0000
0010
0000
0100
0000
0010
0000
0100
0000
,  // measure 17
0001
0000
0010
0001
0010
0001
0010
0000
0100
0000
1000
0000
0010
1000
0001
0100
,  // measure 18
0001
0000
1000
0001
1000
0000
0001
1000
0100
0000
0010
0000
0100
1000
0100
1000
,  // measure 19
0100
0000
0010
0100
0010
0100
0010
0000
0001
0010
0001
0010
0001
1000
0000
0000
,  // measure 20
0100
0000
1000
0100
1000
0000
0010
0000
0100
0000
0001
0000
1000
0000
0100
0000
,  // measure 21
0001
0000
0100
0001
0100
1000
0010
0000
0100
0000
0001
0000
0010
0000
0001
0000
,  // measure 22
0010
0000
0100
1000
0100
0000
1000
0010
0100
0000
0001
0000
1000
0000
0100
0000
,  // measure 23
0001
0000
0100
0010
0100
0010
0100
0000
1000
0100
1000
0100
1000
0000
0001
0000
,  // measure 24
1001
0000
0001
0100
0001
0000
0010
0000
0100
0000
0010
0000
0001
0000
1000
0000
,  // measure 25
0010
0000
0100
0001
0100
0001
1000
0000
0100
0000
0010
0000
0100
0000
1000
0000
,  // measure 26
0010
0000
0100
0001
0100
0000
0001
0000
1000
0000
0100
0000
0010
0000
0001
0000
,  // measure 27
2002
0000
0000
3003
,  // measure 28
0010
0000
0100
0010
0100
0000
0010
0100
0010
0000
0100
0010
0100
0000
1000
0100
,  // measure 29
1000
0000
0100
1000
0100
1000
0100
1000
0100
0000
1000
0100
1000
0000
0001
1000
,  // measure 30
0001
0000
1000
0001
1000
0000
0001
1000
0001
0000
1000
0001
1000
0000
0100
1000
,  // measure 31
0100
0000
1000
0100
1000
0100
1000
0100
1000
0000
0001
0100
0001
0000
0100
0000
,  // measure 32
0010
1000
0010
1000
0010
0000
1000
0001
1000
0000
0001
0010
0001
0000
0010
0100
,  // measure 33
0010
0000
0100
1000
0100
1000
0001
1000
0001
0000
0100
0001
0100
0000
0010
0000
,  // measure 34
1000
0001
1000
0001
1000
0000
0100
0010
0100
0000
1000
0100
1000
0020
0000
0000
,  // measure 35
0130
0000
0001
0010
1000
0000
0010
0000
1000
0010
0001
0000
0101
0000
0000
0000
,  // measure 36
0001
0001
2000
0100
0001
3010
1001
0000
,  // measure 37
0001
0001
0010
0010
0100
0100
1001
1001
,  // measure 38
1000
0000
1000
0001
1000
0000
0010
1000
0010
0100
0001
1000
0100
0000
0100
0000
,  // measure 39
1000
1000
0010
0010
0100
0100
1001
1001
,  // measure 40
0001
0001
2000
0010
0001
3100
1001
0000
,  // measure 41
0001
0001
0100
0100
0010
0010
1001
1001
,  // measure 42
1000
0000
1000
0001
0010
0000
0100
0010
0001
1000
0010
0100
0001
0000
0001
0000
,  // measure 43
1000
1000
0100
0100
0010
0010
2002
3003
,  // measure 44
1000
1000
0002
0100
1000
0013
1001
0000
,  // measure 45
0001
0001
0100
0100
1000
1000
0110
0110
,  // measure 46
0010
0000
1000
0010
1000
0000
0001
0010
0100
1000
0001
0100
0001
0000
1000
0000
,  // measure 47
0010
0010
0100
0100
0001
0001
0110
0110
,  // measure 48
1000
1000
0002
0010
1000
0103
1001
0000
,  // measure 49
1000
1000
0100
0100
0010
0010
1001
0000
,  // measure 50
0101
0000
0101
0000
0101
0000
0101
0000
0001
0100
0010
1000
0001
0010
0100
1000
,  // measure 51
0001
0000
0000
0000
0001
0000
1000
0001
1000
0000
0001
0000
0010
0000
0100
0000
,  // measure 52
0010
0000
0001
0000
0100
0000
0010
0100
0010
0000
1000
0000
0010
0000
1000
0000
,  // measure 53
0001
0000
0010
0000
0100
0000
0010
0100
1000
0000
0100
0000
0001
0000
1000
0000
,  // measure 54
0010
0000
0001
0000
0100
0000
0001
0100
0001
0000
1000
0001
0010
0000
0100
0010
,  // measure 55
0001
0100
0110
0000
0110
0000
0110
0000
,  // measure 56
0110
0110
0110
0110
,  // measure 57
0110
0000
0000
0000
1001
0000
0000
0000
1001
0000
0000
0000
1001
0000
1000
0001
,  // measure 58
1000
0100
1000
0000
1010
0000
0110
0000
,  // measure 59
0101
0000
0001
0001
1000
1000
0001
0001
,  // measure 60
0010
0010
0100
0100
0010
0010
0001
0001
,  // measure 61
1000
1000
0010
0010
1000
1000
0100
0100
,  // measure 62
0001
0000
0001
0000
0100
0000
0100
1000
0010
0000
0010
0000
0100
0000
0100
0000
,  // measure 63
0001
0000
0001
0010
0100
0000
0100
0000
1000
0000
1000
0000
0001
0000
0001
0000
,  // measure 64
0100
0100
0001
0001
0010
0010
0100
0100
,  // measure 65
1000
1000
0010
0010
1000
1000
0001
0001
,  // measure 66
0100
0000
0100
0000
0010
0000
0100
0010
0100
0000
0001
0000
2001
0000
0000
0000
,  // measure 67
3100
1200
0310
0012
,  // measure 68
0103
0000
0201
0000
1300
0000
0120
1000
,  // measure 69
0130
0010
2010
0001
0100
3001
1002
0000
,  // measure 70
0103
0000
0021
0100
1000
0031
0012
0100
,  // measure 71
1000
0013
0001
0001
1000
1000
0010
0010
,  // measure 72
1000
1000
0100
0100
0001
0001
0100
0100
,  // measure 73
0010
0010
0001
0001
1000
1000
0010
0010
,  // measure 74
0100
0100
0002
0000
0000
0000
0000
0000
,  // measure 75
1003
0000
0000
0000
0001
0010
0001
0010
0100
0000
0010
0001
0000
0010
0001
0000
,  // measure 76
2001
0000
0000
0000
3010
1000
0010
1000
0010
0000
0100
0010
0000
0010
1000
0000
,  // measure 77
1002
0000
0000
0000
0103
0001
0100
0001
0010
0000
0100
0010
0000
0100
1000
0000
,  // measure 78
1002
0000
0000
0000
0103
0001
0100
0001
1000
0000
0100
1000
0000
1000
0010
0000
,  // measure 79
0120
0000
2030
0000
3001
1000
0001
1000
0001
0000
0100
0001
0000
0001
0010
0000
,  // measure 80
0210
0000
2300
0000
3010
1000
0010
1000
0010
0000
0100
0001
0000
0001
0010
0000
,  // measure 81
0210
0000
2300
0000
3001
0100
0001
0100
0001
0000
1000
0001
0000
0001
0010
0000
,  // measure 82
0210
2300
3020
0000
0000
0130
1001
0000
,  // measure 83
0102
0000
1003
0001
0010
0001
0100
0010
,  // measure 84
1000
0010
1000
1000
0001
0010
0100
0100
,  // measure 85
0010
0001
0100
0010
1000
0010
0100
0001
,  // measure 86
1000
0000
0001
0000
1000
0000
0100
0001
0100
0001
0100
0000
1000
0010
1000
0010
,  // measure 87
0100
0001
1000
0100
0010
0100
1000
0010
,  // measure 88
0100
0001
1000
1000
0001
0010
0100
0100
,  // measure 89
0010
0001
0100
0010
1000
0010
1000
0001
,  // measure 90
0010
0000
0200
0000
0310
0000
0100
1000
0100
1000
0001
0000
0100
0001
0100
0001
,  // measure 91
0010
0100
1000
0001
0010
0001
0100
0010
,  // measure 92
1000
0010
0100
0100
0001
1000
0010
0010
,  // measure 93
1000
0001
0010
0100
0010
0100
1000
0010
,  // measure 94
0100
0000
0001
0000
1000
0000
0100
0001
0100
0001
0100
0000
1000
0010
1000
0010
,  // measure 95
0100
0001
1001
0000
0000
0000
0000
0000
,  // measure 96
0010
1001
0000
0000
,  // measure 97
0100
0000
0000
0000
1001
0000
0000
0000
1000
0000
0010
0000
0000
0100
0000
0000
,  // measure 98
0000
0220
0000
0330
,  // measure 99
0100
1001
0000
0000
;

//---------------dance-single - ----------------
#NOTES:
     dance-single:
     :
     Beginner:
     4:
     0.231440,0.367293,0.164475,0.065790,0.000000,169.000000,20.000000,8.000000,0.000000,0.000000,0.000000,0.231440,0.367293,0.164475,0.065790,0.000000,169.000000,20.000000,8.000000,0.000000,0.000000,0.000000:
// measure 0
0000
0000
0000
0000
,  // measure 1
0000
0000
0000
0000
,  // measure 2
0000
0000
0000
0000
,  // measure 3
1001
0000
0000
0000
,  // measure 4
2000
0000
3000
0000
,  // measure 5
0020
0000
0030
0000
,  // measure 6
0200
0000
0300
0000
,  // measure 7
0002
0000
0003
0000
,  // measure 8
2002
0000
0000
0000
,  // measure 9
0000
0000
0000
0000
,  // measure 10
0000
0000
3003
0000
,  // measure 11
0110
0000
0000
0000
,  // measure 12
0010
0000
0010
0000
,  // measure 13
0100
0000
0100
0000
,  // measure 14
0001
0000
0001
0000
,  // measure 15
1000
0000
1000
0000
,  // measure 16
0001
0000
0010
0000
,  // measure 17
0100
0000
1000
0000
,  // measure 18
0010
0000
0100
0000
,  // measure 19
0001
0000
0000
0000
,  // measure 20
1000
0000
1000
0000
,  // measure 21
0100
0000
0100
0000
,  // measure 22
0010
0000
0010
0000
,  // measure 23
0001
0000
0001
0000
,  // measure 24
0100
0000
0010
0000
,  // measure 25
0100
0000
0010
0000
,  // measure 26
1000
0000
0001
0000
,  // measure 27
1001
0000
0000
0000
,  // measure 28
1000
0000
1000
0000
,  // measure 29
1000
1000
1000
0000
,  // measure 30
0001
0000
0001
0000
,  // measure 31
0001
0001
0001
0000
,  // measure 32
0100
0000
0100
0000
,  // measure 33
0100
0100
0100
0000
,  // measure 34
0010
0000
0010
0000
,  // measure 35
0010
0000
0000
0110
,  // measure 36
0010
0000
0010
0000
,  // measure 37
1000
0000
1000
0000
,  // measure 38
0001
0000
0001
0000
,  // measure 39
0010
0000
0010
0000
,  // measure 40
0100
0000
0100
0000
,  // measure 41
1000
0000
1000
0000
,  // measure 42
0001
0000
0001
0000
,  // measure 43
0100
0000
0100
0000
,  // measure 44
0010
0000
0010
0000
,  // measure 45
0010
0010
0010
0010
,  // measure 46
0010
0000
0100
0000
,  // measure 47
0010
0000
0100
0000
,  // measure 48
1001
0000
0000
0000
,  // measure 49
0110
0000
0000
0000
,  // measure 50
1001
0000
1001
0000
,  // measure 51
1001
0001
0000
0000
,  // measure 52
0000
0000
0000
0000
,  // measure 53
0000
1000
0000
0000
,  // measure 54
0000
0000
0000
0000
,  // measure 55
0000
0010
0000
0010
,  // measure 56
0000
0100
0000
0100
,  // measure 57
0000
0001
0000
1000
,  // measure 58
0000
1001
0000
0000
,  // measure 59
0000
1000
0000
0100
,  // measure 60
0000
0010
0000
0001
,  // measure 61
0000
1000
0000
0010
,  // measure 62
0000
0100
0100
0100
,  // measure 63
0100
0100
0000
0001
,  // measure 64
0000
0010
0000
1000
,  // measure 65
0000
0001
0000
0100
,  // measure 66
0000
1000
1000
1000
,  // measure 67
0000
0001
0000
1000
,  // measure 68
0000
0001
0000
1000
,  // measure 69
0000
0010
0000
0100
,  // measure 70
0000
0010
0000
0100
,  // measure 71
0000
0001
0001
0001
,  // measure 72
0000
1000
1000
1000
,  // measure 73
0000
1001
1001
1001
,  // measure 74
0000
0100
0000
0000
,  // measure 75
0000
0010
0000
0000
,  // measure 76
0000
0100
0000
0000
,  // measure 77
0000
1000
0000
0000
,  // measure 78
0000
0001
0000
0000
,  // measure 79
0000
0100
0000
0000
,  // measure 80
0000
0010
0000
0000
,  // measure 81
0000
1000
0000
0000
,  // measure 82
0000
2002
0000
3003
,  // measure 83
0000
0100
0000
0100
,  // measure 84
0000
0010
0000
0010
,  // measure 85
0000
0001
0000
0001
,  // measure 86
0000
1000
0000
1000
,  // measure 87
0000
0010
0000
0010
,  // measure 88
0000
0100
0000
0100
,  // measure 89
0000
0001
0000
0001
,  // measure 90
0000
1000
0000
0000
,  // measure 91
0000
1000
0000
0100
,  // measure 92
0000
1000
0000
0100
,  // measure 93
0000
0010
0000
0001
,  // measure 94
0000
0010
0000
0001
,  // measure 95
0000
1001
0000
0000
,  // measure 96
0000
0110
0000
0000
,  // measure 97
0000
1001
0000
0000
,  // measure 98
0000
0110
0000
0000
,  // measure 99
0000
1001
0000
0000
;

//---------------dance-single - ----------------
#NOTES:
     dance-single:
     :
     Medium:
     14:
     0.699019,0.652966,0.296055,0.098685,0.000000,547.000000,36.000000,12.000000,0.000000,0.000000,0.000000,0.699019,0.652966,0.296055,0.098685,0.000000,547.000000,36.000000,12.000000,0.000000,0.000000,0.000000:
// measure 0
0000
0000
0000
0000
,  // measure 1
0000
0000
0000
0000
,  // measure 2
0000
0000
0000
0000
,  // measure 3
1001
0000
0000
0000
,  // measure 4
2000
0000
0000
0000
,  // measure 5
3020
0000
0000
0000
,  // measure 6
0230
0000
0000
0000
,  // measure 7
0302
0000
1003
0000
,  // measure 8
2002
0000
0000
0000
,  // measure 9
0000
0000
0000
0000
,  // measure 10
0000
0000
0000
3003
,  // measure 11
0110
0000
0000
0010
,  // measure 12
1000
0100
0001
0100
1000
0010
0100
0000
,  // measure 13
0001
0010
1000
0010
0001
0100
0010
0000
,  // measure 14
0010
1000
0100
0001
0100
1000
0010
0000
,  // measure 15
0100
0001
0010
1000
0010
0001
0100
0000
,  // measure 16
0010
1000
0100
1000
0001
0100
0010
0100
,  // measure 17
0001
1000
0100
0010
0001
0010
0100
1000
,  // measure 18
0001
0100
0010
1000
0001
0010
0100
1000
,  // measure 19
0001
0000
1000
0001
0000
0001
1001
0000
,  // measure 20
1000
0010
0001
0010
0100
0001
0010
0100
,  // measure 21
1000
0001
0100
1000
0100
0001
0010
0100
,  // measure 22
1000
0100
0010
0001
0010
1000
0010
0100
,  // measure 23
1000
0010
0100
0001
0010
0100
1000
0000
,  // measure 24
1000
0100
0010
0001
0100
0010
0100
0001
,  // measure 25
1000
0100
0010
0100
1000
0010
0100
0001
,  // measure 26
0100
1000
0100
0001
0010
0100
1000
0010
,  // measure 27
0220
0000
0330
0000
,  // measure 28
0010
1000
0100
0100
1000
0001
0100
0100
,  // measure 29
0001
0010
1000
1000
0010
0001
1000
1000
,  // measure 30
0010
0100
0001
1000
0100
0010
0100
1000
,  // measure 31
0010
0100
0001
1000
0100
0010
0100
0000
,  // measure 32
0010
0001
0010
0010
0001
0100
0001
0001
,  // measure 33
1000
0100
1000
1000
0010
0100
0010
0010
,  // measure 34
0100
0001
0010
0100
1000
0010
0100
0001
,  // measure 35
1000
0000
1000
0100
0000
0100
0110
0000
,  // measure 36
0010
0001
0100
1000
0100
0001
0010
0000
,  // measure 37
0010
1000
0100
0001
0100
1000
0010
0000
,  // measure 38
0100
0001
0010
0100
1000
0100
0010
0000
,  // measure 39
0010
0001
0100
0010
1000
0100
0010
0001
,  // measure 40
0010
0100
1000
0010
0100
0001
0010
0000
,  // measure 41
0010
0001
0100
0010
1000
0100
0010
0000
,  // measure 42
0010
0100
1000
0010
0100
0001
0010
0100
,  // measure 43
1000
0000
1000
0001
0000
0001
1000
0000
,  // measure 44
0100
1000
0010
0001
0010
1000
0100
0000
,  // measure 45
0100
0001
0010
1000
0010
0001
0100
0000
,  // measure 46
0010
1000
0100
0010
0100
1000
0010
0100
,  // measure 47
0001
0010
0100
1000
0001
0100
0010
0000
,  // measure 48
1000
0100
0001
0010
,  // measure 49
1010
1000
0100
0010
,  // measure 50
0001
0100
0010
0100
0001
1000
0100
1000
,  // measure 51
1001
1000
0100
1000
,  // measure 52
0100
0010
0001
0100
,  // measure 53
0010
1000
0001
1000
,  // measure 54
0001
0010
0100
1000
,  // measure 55
0001
1001
1001
0110
,  // measure 56
0110
1010
1010
0101
,  // measure 57
0101
0011
0011
1100
,  // measure 58
1100
1000
0100
0010
,  // measure 59
0001
0000
1000
0100
1000
0100
1000
0100
,  // measure 60
1000
0000
0001
0100
0001
0100
0001
0100
,  // measure 61
0001
0000
1000
0010
1000
0010
1000
0010
,  // measure 62
1000
0000
0010
1000
0100
0010
0100
1000
,  // measure 63
0010
0100
0001
0010
0001
0010
0001
0010
,  // measure 64
0001
0001
1000
0100
1000
0100
1000
0100
,  // measure 65
1000
1000
0010
0100
0010
0100
0010
0100
,  // measure 66
0010
0010
0100
0001
1000
0000
1001
0000
,  // measure 67
0000
1001
0000
0110
,  // measure 68
0000
0011
0000
1100
,  // measure 69
0000
1010
0000
0101
,  // measure 70
0000
0110
0000
1001
,  // measure 71
0000
0001
0010
1000
,  // measure 72
0010
0001
0100
1000
,  // measure 73
0100
0001
0010
0100
,  // measure 74
1000
2002
0000
3003
,  // measure 75
0000
0000
0100
0001
0100
0001
0100
0001
,  // measure 76
0100
0000
0001
1000
0001
1000
0001
1000
,  // measure 77
0001
0000
1000
0010
1000
0010
1000
0010
,  // measure 78
1000
0000
0010
0100
0010
0100
0010
0100
,  // measure 79
0010
0000
0010
1000
0100
1000
0001
0100
,  // measure 80
0010
0000
0010
0100
0001
0010
0100
1000
,  // measure 81
0001
0000
0001
1000
0100
0010
0001
1000
,  // measure 82
0010
0220
0000
0330
,  // measure 83
0100
0000
0001
0010
0100
0010
0001
1000
,  // measure 84
0010
0000
0010
1000
0100
0010
0100
1000
,  // measure 85
0001
0000
0001
0100
1000
0100
0010
1000
,  // measure 86
0001
0000
0001
0010
0100
1000
0100
0010
,  // measure 87
0001
1000
0010
0100
0001
0100
0010
1000
,  // measure 88
0001
0000
0001
0010
0100
1000
0001
1000
,  // measure 89
0010
0000
0010
0100
1000
0100
0001
0010
,  // measure 90
0100
0000
0100
0000
1000
0001
0000
0001
,  // measure 91
1001
0000
1000
0010
0100
0010
1000
0100
,  // measure 92
0010
0100
1000
0001
0100
0010
0100
0001
,  // measure 93
0010
0100
0010
0001
0100
1000
0100
0001
,  // measure 94
0010
0100
1000
0010
0001
0010
1000
0100
,  // measure 95
0010
0001
1000
0000
0010
0000
0100
0000
,  // measure 96
0001
1001
1000
0100
,  // measure 97
0010
0011
0100
1000
,  // measure 98
0001
1001
0000
0000
,  // measure 99
0010
0110
0000
0000
;

//---------------dance-single - ----------------
#NOTES:
     dance-single:
     :
     Challenge:
     19:
     1.000000,1.000000,1.000000,0.337174,0.904613,832.000000,168.000000,41.000000,0.000000,0.000000,0.000000,1.000000,1.000000,1.000000,0.337174,0.904613,832.000000,168.000000,41.000000,0.000000,0.000000,0.000000:
// measure 0
0000
0000
0000
0000
,  // measure 1
0000
0000
0000
0000
,  // measure 2
0000
0000
0000
0000
,  // measure 3
1001
0000
0000
0000
,  // measure 4
0010
0000
0000
1000
0100
0000
1000
0001
0000
0100
0010
0000
1000
0000
0001
0010
,  // measure 5
0002
0000
0000
0000
0103
0000
0010
1000
0000
0010
0001
0000
0010
0000
1000
0100
,  // measure 6
0001
0000
0000
0001
0100
0000
1000
0010
0000
0100
0001
0000
1000
0000
0010
0100
,  // measure 7
0020
0000
0000
0000
1030
0000
0001
0100
0002
0000
0000
0000
0003
0000
0000
0000
,  // measure 8
2002
0000
0000
0000
,  // measure 9
0000
0000
0000
0000
,  // measure 10
0000
0000
0000
0000
0000
0000
0000
3003
,  // measure 11
0110
0000
0000
0110
1001
0000
0002
0000
,  // measure 12
1003
0000
0100
0001
0100
0000
1000
0000
0010
0001
0010
0000
1010
0000
1000
0001
,  // measure 13
1001
0000
0010
1000
0010
0000
0001
0000
0100
1000
0100
0000
0101
0000
0010
0100
,  // measure 14
0110
0000
1000
0001
1000
0000
0010
0000
0100
0010
0100
0000
1001
0000
0100
0000
,  // measure 15
0001
0000
0100
0010
0100
0000
0010
0000
0001
1000
0001
0000
1001
0000
1000
0000
,  // measure 16
0010
0000
0100
0001
0100
0000
0010
1000
0010
1000
0001
0000
0010
0000
0100
1000
,  // measure 17
0100
0000
1000
0001
1000
0000
0001
0100
0001
0100
1000
0000
1100
0000
0010
1000
,  // measure 18
0010
0000
1000
0100
1000
0000
0001
0010
0001
0010
1000
0000
1010
0000
0010
0100
,  // measure 19
1000
0000
0001
0100
0010
0000
1000
0001
0000
0010
0100
0000
0110
0001
0000
0000
,  // measure 20
0001
0000
0100
0000
1010
0000
0010
0100
0001
0100
0010
0000
1010
0000
1000
0001
,  // measure 21
0010
0000
0001
0100
0010
0100
0001
1000
0100
0010
0001
0000
1100
0000
0001
0100
,  // measure 22
1000
0000
0100
0000
0101
0000
0001
0000
0010
0001
0100
0000
0110
0000
0010
0000
,  // measure 23
1000
0000
0001
0010
0100
1000
0100
0001
0100
0010
0001
1000
0010
0000
0110
0000
,  // measure 24
0001
0000
1000
0010
1000
0000
0001
0010
0100
0010
0001
0000
1001
0000
1000
0100
,  // measure 25
0001
0000
0100
0010
0100
1000
0001
0100
0001
0010
0100
0000
1100
0000
0010
0001
,  // measure 26
0100
0000
0010
0000
1010
0000
1000
0100
0001
0100
1000
0000
0010
0000
0000
0000
,  // measure 27
0220
0000
0000
0330
,  // measure 28
1001
0000
0001
0100
1000
0000
1000
0100
0001
0000
1000
0100
0001
0000
0001
0100
,  // measure 29
1000
0000
1000
0010
0001
0000
0001
0010
1000
0000
0001
0010
0100
0000
1000
0001
,  // measure 30
0100
0000
1000
0100
0001
0000
1000
0100
0001
0000
1000
0010
0001
0000
1000
0010
,  // measure 31
0001
0000
1000
0100
0001
0000
1000
0100
0010
0001
0100
0010
1000
0000
0000
0000
,  // measure 32
0001
0010
1000
0010
0001
0000
1000
0100
0010
0000
0001
0100
1000
0000
1000
0100
,  // measure 33
0001
0000
0100
0010
1000
0000
1000
0001
0010
0000
0010
0001
0100
0000
0100
0010
,  // measure 34
1000
0000
0001
0010
0100
0000
0100
1000
0001
0000
0100
0010
1000
0000
0001
0010
,  // measure 35
0001
0100
0000
0010
0000
0000
0110
1000
0000
0000
1001
0000
0110
0000
0000
0000
,  // measure 36
0010
0001
1001
1000
0010
0100
0101
0001
,  // measure 37
1001
0000
1001
0000
0110
0000
0110
0000
1001
0000
1001
0000
0110
0000
0010
1000
,  // measure 38
0100
0000
0001
0100
1000
0000
0010
0100
0001
1000
0100
0010
0001
0000
0101
0000
,  // measure 39
0100
0000
0010
0000
1010
0000
1000
0001
1001
0000
1100
0000
0110
0000
0100
0000
,  // measure 40
0010
0001
0101
0100
0010
1000
1100
0100
,  // measure 41
0011
0000
0011
0000
1100
0000
1100
0000
1001
0000
1001
0000
0110
0000
0010
1000
,  // measure 42
0001
0000
0010
0100
1000
0000
1000
0100
0001
0100
0010
0001
1000
0010
0100
0000
,  // measure 43
0110
0000
1000
0000
0001
0000
1001
0100
0000
0000
0110
0000
1001
0000
0010
0000
,  // measure 44
1000
0100
0101
0100
0010
0001
1001
1000
,  // measure 45
1010
0000
0101
0000
0011
0000
1100
0000
1001
0000
0110
0000
1001
0000
1000
0010
,  // measure 46
0100
0000
0001
1000
0100
0000
1000
0010
0001
0010
0100
0001
1000
0000
0100
0000
,  // measure 47
0110
0000
0001
0010
0001
0000
1001
0000
1000
0100
1000
0000
2002
0000
3000
0000
,  // measure 48
0103
0010
2000
0000
0001
0000
3010
0000
,  // measure 49
1010
0010
0001
1000
0100
0001
0010
0100
,  // measure 50
0110
0000
1001
0000
1010
0000
0110
0000
0100
1000
0100
0001
0010
1000
0010
0001
,  // measure 51
2002
3003
0000
0000
1001
0000
0010
0100
0010
0000
1000
0000
0100
0000
1000
0000
,  // measure 52
0001
0000
0100
0000
0010
0000
1000
0010
1000
0000
0001
0000
0010
0000
0100
0000
,  // measure 53
1000
0000
0100
0000
0010
0000
0001
0100
0001
0000
0100
0000
0010
0000
1000
0000
,  // measure 54
0100
0000
1000
0000
0001
0000
0100
0010
0100
0000
0001
0000
0010
0000
0100
0000
,  // measure 55
1000
0001
0011
0000
1100
0000
1010
0000
,  // measure 56
0101
0110
1001
0110
,  // measure 57
0011
0000
0000
0000
1100
0000
0000
0000
0101
0000
0000
0000
1010
0000
0000
0110
,  // measure 58
0001
0010
1100
0000
0110
0000
0011
0000
,  // measure 59
1001
0000
0000
0000
1001
0000
0010
1000
0001
0000
0010
0100
1000
0000
0001
1000
,  // measure 60
0100
0000
0010
0001
0100
0000
0010
1000
0100
0000
0010
0100
1000
0000
0101
0000
,  // measure 61
1010
0000
0101
0000
0011
0000
0001
1000
0100
0000
1000
0001
0100
0000
0010
1000
,  // measure 62
0001
0000
0011
0000
1100
0000
0001
0100
1000
0000
0100
0001
0101
0000
0001
0010
,  // measure 63
0100
1000
1001
1001
0110
0110
0011
0011
,  // measure 64
1100
1100
1010
1010
0101
0101
1001
1001
,  // measure 65
0110
0110
0011
1100
1010
0101
1001
1100
,  // measure 66
0011
0000
1100
0000
1001
0000
1000
0100
0001
0000
0100
0000
0220
0000
0000
0000
,  // measure 67
0330
0022
0033
2200
,  // measure 68
3300
2020
3030
0202
,  // measure 69
0303
0022
0033
0220
,  // measure 70
0330
0000
0000
0000
2200
0000
0000
0000
3300
0000
0000
0000
1001
0000
0000
1001
,  // measure 71
0010
0110
0100
0001
0010
1000
0010
0100
,  // measure 72
1000
0010
0100
0001
0010
0100
1000
0010
,  // measure 73
0100
0001
0011
0011
1100
1100
0101
0101
,  // measure 74
1010
0110
2002
0000
0000
0000
0000
0000
,  // measure 75
3003
0000
0000
0000
1000
0100
1000
0100
1000
0000
1000
0001
0000
0001
0100
0000
,  // measure 76
0110
0000
0000
0000
0010
1000
0010
1000
0010
0000
1000
0001
0000
0001
0010
0000
,  // measure 77
0011
0000
0000
0000
0001
0010
0001
0010
0100
0000
0100
1000
0000
1000
0001
0000
,  // measure 78
1001
0000
0000
0000
0010
0100
0010
0100
0010
0000
0010
1000
0000
1000
0001
0000
,  // measure 79
0220
0000
0030
0000
0310
0001
0010
0001
0010
0000
0010
0100
0000
0100
1000
0000
,  // measure 80
1100
0000
1001
0000
0001
0100
0001
0100
0001
0000
0100
0010
0000
0010
1000
0000
,  // measure 81
1010
0000
0101
0000
0001
1000
0001
1000
0100
0000
0100
0010
0000
0010
0001
0000
,  // measure 82
1001
0110
2002
0000
3003
0100
0010
0000
,  // measure 83
0120
0000
0000
0000
0130
0000
1000
0100
1000
0000
1000
0001
0000
0001
0100
0000
,  // measure 84
0010
0000
0100
0001
0100
0000
0010
1000
0010
0100
0001
1000
0100
0010
0001
0000
,  // measure 85
1001
0000
0010
0100
0010
0000
1000
0100
1000
0000
0001
0100
0000
0001
0010
0000
,  // measure 86
0011
0000
0001
0010
0100
0000
1000
0100
1000
0001
0100
0010
1000
0100
0010
0001
,  // measure 87
2000
0000
0001
0000
3001
0000
0100
0010
0100
0000
0001
1000
0000
1000
0100
0000
,  // measure 88
1000
0000
0100
0010
0100
0000
1000
0010
1000
0100
0010
0100
1000
0001
0100
0010
,  // measure 89
0100
0000
0001
1000
0100
0000
0010
0001
0010
0000
0100
1000
0000
0100
1000
0000
,  // measure 90
0010
0000
0100
0001
0011
0000
0000
0110
1000
0000
0110
0001
0000
0110
1000
0000
,  // measure 91
1001
0000
0000
0000
0110
0000
1000
0100
1000
0000
1000
0001
0000
0001
0100
0000
,  // measure 92
0010
0000
1000
0100
1000
0000
1000
0100
0010
0001
0010
0100
1000
0010
0100
0000
,  // measure 93
1001
0000
0010
0100
0010
0000
0001
0010
0001
0000
1000
0010
0000
0100
0001
0000
,  // measure 94
1001
0000
1000
0100
1000
0000
0001
0100
1000
0100
0010
1000
0001
0010
1000
0010
,  // measure 95
0002
1003
1001
0000
0000
0000
0000
0000
,  // measure 96
0010
0110
0000
0000
,  // measure 97
0100
0000
0000
0000
0001
0000
0000
0000
0100
0000
0010
0000
0000
1000
0000
0000
,  // measure 98
0000
0200
0000
0000
,  // measure 99
0310
2002
0000
3003
;
