#VERSION:0.81;
#TITLE:Uptown Girl;
#SUBTITLE:;
#ARTIST:Billy Joel;
#TITLETRANSLIT:;
#SUBTITLETRANSLIT:;
#ARTISTTRANSLIT:;
#GENRE:Pop-Rock;
#ORIGIN:;
#CREDIT:N. Muriel;
#BANNER:Uptown Girl.png;
#BACKGROUND:Uptown Girl-bg.png;
#PREVIEWVID:Preview.avi;
#JACKET:Uptown Girl-jacket.png;
#CDIMAGE:;
#DISCIMAGE:;
#LYRICSPATH:;
#CDTITLE:;
#MUSIC:Uptown Girl.mp3;
#OFFSET:-1.472900;
#SAMPLESTART:8.940001;
#SAMPLELENGTH:15.000000;
#SELECTABLE:YES;
#BPMS:0=123.789,1=123.047,2=125.51,3=131.635,4=124.266,5=127.838,6=127.851,7=130.255,8=125.51,9=134.499,10=124.752,11=130.268,12=122.534,13=131.917,14=129.731,15=125.249,16=125.778,17=131.635,18=135.11,19=121.315,20=126.283,21=132.771,22=128.916,23=125.51,24=128.08,25=133.927,26=126.821,27=129.452,28=126.277,29=133.333,30=128.403,31=127.838,33=127.851,34=133.927,35=127.838,36=122.285,37=132.174,38=134.233,39=126.054,40=132.466,41=136.589,42=124.266,43=125.243,44=126.289,45=136.265,46=129.452,47=127.328,48=127.838,49=132.214,50=128.64,51=127.053,52=124.758,53=133.927,54=127.838,55=127.845,56=127.838,57=130.255,58=125.516,59=140.573,60=122.319,61=129.973,62=132.512,63=126.785,64=128.117,65=122.279,66=136.272,67=131.081,68=129.446,69=126.821,70=137.762,71=128.397,72=135.999,73=127.845,74=133.927,75=123.743,76=127.845,77=132.214,78=140.625,79=131.629,80=124.266,81=140.625,82=127.838,83=127.328,84=128.359,85=127.838,86=127.845,87=127.838,88=122.285,89=133.927,90=127.838,91=127.845,92=127.838,93=131.629,94=130.012,95=133.927,96=127.838,97=122.285,98=133.927,99=127.845,100=127.838,102=127.845,103=132.765,104=128.916,105=127.845,106=129.967,107=133.934,108=134.492,109=131.126,110=138.411,111=135.999,112=127.838,113=127.845,114=133.927,115=127.838,116=127.845,117=127.838,118=133.927,119=122.285,120=128.359,121=127.328,122=127.838,123=127.845,124=133.927,125=125.243,126=122.54,127=136.582,128=127.838,129=127.845,130=140.625,131=122.279,132=130.506,133=127.845,134=119.94,135=127.838,136=127.845,137=134.492,138=133.065,139=122.54,140=127.838,141=140.625,142=127.838,143=127.845,144=122.279,145=133.934,146=133.927,149=122.756,150=127.328,151=129.973,152=136.265,153=128.916,154=128.397,155=133.934,156=127.838,157=133.927,158=122.285,159=145.882,160=118.564,161=127.845,162=133.927,163=123.265,164=128.922,165=126.779,166=127.845,167=129.439,168=131.081,169=127.845,170=126.779,171=134.499,172=128.397,173=127.838,174=127.845,175=133.927,177=122.285,178=133.927,179=120.393,180=129.446,181=136.85,182=125.778,183=127.845,184=127.838,185=127.845,186=130.835,187=130.789,188=127.845,189=133.927,190=127.838,191=126.785,192=123.265,193=127.845,194=133.927,195=122.279,196=127.845,197=127.838,198=133.927,199=123.749,200=126.277,201=133.934,202=133.927,204=117.189,205=133.32,206=128.397,207=127.845,208=127.838,209=133.927,210=133.934,211=117.183,212=127.845,213=133.927,214=122.285,215=133.927,216=127.838,217=133.927,218=133.934,219=127.838,221=122.756,222=127.328,223=136.272,224=125.778,225=133.927,226=127.845,227=127.838,229=122.285,230=133.927,231=127.845,232=127.838,233=133.927,234=122.285,235=133.927,236=120.607,237=134.801,238=128.359,239=128.397,240=131.668;
#STOPS:;
#DELAYS:;
#WARPS:;
#TIMESIGNATURES:0.000=4=4;
#TICKCOUNTS:0.000=4;
#COMBOS:0.000=1;
#SPEEDS:0.000=1.000=0.000=0;
#SCROLLS:0.000=1.000;
#FAKES:;
#LABELS:0.000=Song Start;
#BGCHANGES:-2.500=Uptown Girl.avi=1.000=1=0=0=StretchNoLoop==CrossFade==,
99999=-nosongbg-=1.000=0=0=0 // don't automatically add -songbackground-
;
#KEYSOUNDS:;
#ATTACKS:
;

//---------------dance-single - ----------------
#NOTEDATA:;
#CHARTNAME:;
#STEPSTYPE:dance-single;
#DESCRIPTION:;
#CHARTSTYLE:;
#DIFFICULTY:Beginner;
#METER:4;
#RADARVALUES:0.139902,0.144489,0.008027,0.104353,0.000000,108.000000,1.000000,13.000000,0.000000,0.000000,0.000000,0.000000,0.000000,0.139902,0.144489,0.008027,0.104353,0.000000,108.000000,1.000000,13.000000,0.000000,0.000000,0.000000,0.000000,0.000000;
#CREDIT:;
#NOTES:
0000
0000
0000
0000
,
0000
0000
0000
0000
,
0000
0000
0000
0000
,
0000
0000
0000
0000
,
1000
1000
1000
0000
,
0000
0000
0100
0000
,
0010
0010
0010
0000
,
0000
0000
0001
0000
,
0100
0100
0100
0000
,
0000
0000
0010
0000
,
1000
1000
1000
0000
,
0000
0000
0001
0000
,
0010
0010
0010
0000
,
0000
0000
0100
0000
,
1000
1000
1000
0000
,
0000
0000
0001
0000
,
0100
0100
0100
0000
,
0000
0000
0010
0000
,
1000
1000
1000
0000
,
0000
0000
0001
0000
,
0000
0000
0010
0000
,
0020
0000
0130
0000
,
0100
0000
1000
0000
,
0001
0001
0001
0000
,
0000
0000
0200
0000
,
0310
0000
0100
0000
,
0001
0000
1000
0000
,
0001
0001
0001
0000
,
0000
0000
1000
0000
,
0010
0010
0010
0000
,
0100
0100
0100
0000
,
0001
0001
0001
0000
,
1000
0000
0000
1000
,
1000
0000
0000
0001
,
0001
0000
0000
0010
,
0010
0000
0000
0100
,
0100
0000
0000
1000
,
1000
0000
0000
0010
,
0010
0000
0000
0100
,
0100
0000
0001
0001
,
2000
0000
0000
0000
,
3002
0000
0000
0000
,
0023
0000
0000
0000
,
0230
0000
0000
0000
,
2300
0000
0000
0000
,
3200
0000
0000
0000
,
0320
0000
0000
0000
,
0032
0000
0000
0000
,
1003
1000
1000
0000
,
0000
0000
0001
0001
,
0002
0000
1003
0000
,
0000
0000
0100
0000
,
0100
0100
0100
0000
,
0000
0000
0010
0010
,
0020
0000
0130
0000
,
0000
0000
0001
0000
,
1000
1000
1000
0000
,
0000
0000
0001
0001
,
0002
0000
1003
0000
,
0000
0000
0100
0000
,
0110
0000
0000
0000
;

//---------------dance-single - ----------------
#NOTEDATA:;
#CHARTNAME:;
#STEPSTYPE:dance-single;
#DESCRIPTION:;
#CHARTSTYLE:;
#DIFFICULTY:Easy;
#METER:5;
#RADARVALUES:0.283244,0.385304,0.056190,0.409385,0.000000,189.000000,7.000000,51.000000,0.000000,0.000000,0.000000,0.000000,0.000000,0.283244,0.385304,0.056190,0.409385,0.000000,189.000000,7.000000,51.000000,0.000000,0.000000,0.000000,0.000000,0.000000;
#CREDIT:;
#NOTES:
0000
2000
3002
0013
,
0002
2003
3020
0130
,
0010
2000
3002
0013
,
0002
0023
0230
2300
,
3001
0001
0001
0000
,
0000
1000
0010
1000
,
0010
0010
0010
0000
,
0000
0100
0001
0100
,
0001
0001
0001
0000
,
0000
1000
0100
1000
,
0100
0100
0100
0000
,
0000
0010
0100
1000
,
0001
0001
0001
0000
,
0000
0100
0010
1000
,
0001
0001
0001
0000
,
0000
0010
0001
0100
,
1000
1000
1000
0000
,
0000
0100
0010
1000
,
0100
0100
0100
0000
,
0000
0010
0100
0000
,
0000
1000
0001
0010
,
0200
0000
0310
0100
,
2000
0000
3001
1000
,
0010
0010
0010
0000
,
0000
0100
0001
1000
,
0200
0000
0310
0100
,
2000
0000
3001
1000
,
0010
0010
0010
0000
,
0000
0100
0001
0010
,
0100
0010
0110
0000
,
0100
1000
1100
0000
,
1000
0001
1001
0001
,
0100
0100
0100
0000
,
0000
0010
1000
0010
,
1000
1000
1000
0000
,
0000
0001
0010
0001
,
0010
0010
0010
0000
,
0000
0100
0010
0100
,
1000
1000
1000
0000
,
0000
0001
0100
0000
,
0000
0002
0023
2030
,
3002
0203
2300
3002
,
0203
0320
2030
3200
,
0320
0032
2003
3002
,
0003
2000
3020
0032
,
2003
3200
0302
2003
,
3200
0320
0032
0023
,
0230
2300
3002
2003
,
3001
0001
0001
0000
,
0000
0010
0110
0100
,
2000
0000
3001
1000
,
0020
0000
0130
0010
,
1000
1000
1000
0000
,
0000
0001
0011
0010
,
0020
0000
0130
0010
,
0002
0000
1003
0001
,
0100
0100
0100
0000
,
0000
0010
0110
0100
,
0002
0000
1003
0001
,
0020
0000
0130
0010
,
0110
0000
0000
0000
;

//---------------dance-single - ----------------
#NOTEDATA:;
#CHARTNAME:;
#STEPSTYPE:dance-single;
#DESCRIPTION:;
#CHARTSTYLE:;
#DIFFICULTY:Medium;
#METER:7;
#RADARVALUES:0.385304,0.385304,0.200679,0.457548,0.000000,254.000000,25.000000,57.000000,0.000000,0.000000,0.000000,0.000000,0.000000,0.385304,0.385304,0.200679,0.457548,0.000000,254.000000,25.000000,57.000000,0.000000,0.000000,0.000000,0.000000,0.000000;
#CREDIT:;
#NOTES:
0000
0020
2030
3200
,
0320
0230
2300
3002
,
0003
0200
0320
2030
,
3002
0023
0230
2300
,
3010
0010
0110
0000
,
0010
0000
1000
0001
1000
0000
0100
0010
,
0100
0100
0110
0000
,
0100
0000
1000
0001
1000
0000
0001
0100
,
0001
0010
0110
0020
,
0031
0000
0010
0001
0100
0000
0010
0100
,
0001
0001
1001
2000
,
3100
0000
1000
0100
0010
0000
0100
1000
,
0010
0010
0110
0000
,
0010
0000
1000
0100
1000
0000
0001
0100
,
0001
0010
0110
1100
,
1000
0000
0001
0100
0001
0000
0010
0100
,
0010
0100
2000
3001
,
1000
0000
0010
0100
0010
0000
1000
0001
,
1000
0001
0010
0100
,
0010
0100
1000
0100
0001
0000
0000
0000
,
0100
1000
0010
0100
,
0002
0000
1003
0001
,
0020
0000
0130
0010
,
0110
0110
1001
1000
,
0010
0100
0001
1000
,
0200
0000
0310
0100
,
2000
0000
3001
1000
,
1010
0110
0101
0000
,
0002
1000
0010
0100
,
0010
0100
1003
0000
,
2000
0010
3100
0000
,
0002
0100
1000
0103
,
0001
0010
0110
0100
,
0100
0000
1000
0001
1000
0000
0010
0100
,
0010
0010
1010
1000
,
1000
0000
0001
0010
0001
0000
0010
0100
,
0010
0010
0110
0100
,
0100
0000
1000
0000
0001
0010
0001
0000
,
0100
0100
0110
0100
,
0100
0001
0100
1000
0100
0000
0000
0000
,
0000
0002
0023
0230
,
0320
0032
2003
3020
,
0032
2003
3200
0302
,
0023
0230
2300
3002
,
0003
2000
3020
0032
,
2003
3200
0302
2003
,
3200
0320
0230
2300
,
3002
0023
0230
2300
,
3001
0001
1001
1000
,
0010
0100
0110
1001
,
2000
0000
0000
3001
1000
0000
0100
0000
,
0010
0000
0100
0010
0100
0000
0010
0100
,
0010
0010
0110
0010
,
0001
1000
1010
0100
,
0002
0000
0000
1003
0001
0000
1000
0000
,
0100
0000
0100
0010
0100
0000
0010
0100
,
0010
0010
0110
0100
,
1000
0001
0011
0001
,
2000
0000
0000
3001
1000
0000
0100
0000
,
0010
0000
0100
0010
0100
0000
0010
0100
,
0110
0000
0000
0000
;

//---------------dance-single - ----------------
#NOTEDATA:;
#CHARTNAME:;
#STEPSTYPE:dance-single;
#DESCRIPTION:;
#CHARTSTYLE:;
#DIFFICULTY:Hard;
#METER:10;
#RADARVALUES:0.459842,0.433467,0.417413,0.192652,0.060204,325.000000,52.000000,24.000000,0.000000,0.000000,0.000000,0.000000,0.000000,0.459842,0.433467,0.417413,0.192652,0.060204,325.000000,52.000000,24.000000,0.000000,0.000000,0.000000,0.000000,0.000000;
#CREDIT:;
#NOTES:
// measure 0
1001
1020
0100
0031
,  // measure 1
0200
0001
0010
1300
,  // measure 2
0010
2010
0001
3100
,  // measure 3
0012
0000
1000
0000
0103
0100
1000
0100
,  // measure 4
0101
0011
0110
0100
,  // measure 5
1000
0000
0010
1000
0010
0001
0010
0100
,  // measure 6
0010
1000
1100
0100
,  // measure 7
0010
0100
1000
0001
0100
1000
0100
0001
,  // measure 8
0010
0100
0110
0020
,  // measure 9
0031
0010
0100
0010
0001
1000
0010
0100
,  // measure 10
0010
0000
2000
3010
1000
0000
0002
0000
,  // measure 11
0013
0001
0100
0010
0100
0000
0001
0010
,  // measure 12
1000
1010
0110
1001
,  // measure 13
1010
0000
1000
0010
0100
0001
1000
0100
,  // measure 14
1000
0000
0200
0310
0100
0000
0110
0000
,  // measure 15
0010
0001
0100
1000
0100
0001
0010
0100
,  // measure 16
1000
0001
2001
3010
,  // measure 17
1000
0010
0100
0010
0001
0010
1000
0100
,  // measure 18
0001
0100
0110
1001
,  // measure 19
1000
0000
0100
0000
0010
0000
0001
0000
1000
0000
0001
1000
0001
1000
0001
1000
,  // measure 20
0010
0100
0010
1000
,  // measure 21
2010
0000
3001
0001
,  // measure 22
0021
0000
0100
0130
,  // measure 23
0110
0000
1100
0000
1000
0001
0100
0001
,  // measure 24
0010
0100
0010
0001
,  // measure 25
2001
0000
0010
3010
,  // measure 26
1200
0000
0010
0310
,  // measure 27
0100
0000
0000
1000
0100
0000
0000
0100
1000
0000
0001
0000
0100
0000
0100
0000
,  // measure 28
0010
0100
0001
0010
,  // measure 29
0110
1100
1001
0001
,  // measure 30
0101
0110
1010
1000
,  // measure 31
0011
0000
0000
0000
0110
0000
0000
0000
1100
0000
1000
0001
1000
0001
1000
0000
,  // measure 32
0100
0000
0000
0000
0100
0000
0000
0000
0100
0000
0010
0100
0010
0000
0100
0010
,  // measure 33
0100
0000
1000
0001
1000
0001
1001
0000
,  // measure 34
0010
0000
0000
0000
0010
0000
0000
0000
0010
0000
0100
0010
0100
0000
0010
0100
,  // measure 35
0010
0000
0001
1000
0001
1000
1001
0000
,  // measure 36
0100
0000
0000
0000
0100
0000
0000
0000
0100
0000
0010
0100
0010
0000
0100
0010
,  // measure 37
0100
0000
1000
0001
1000
0001
1001
0000
,  // measure 38
0010
0000
0000
0000
0010
0000
0000
0000
0010
0000
0100
0010
0100
0000
0010
0100
,  // measure 39
0010
1000
0001
0010
0100
0100
0110
0000
,  // measure 40
1001
1020
0100
0031
,  // measure 41
0200
0001
0010
1300
,  // measure 42
0002
0100
0010
1003
,  // measure 43
2000
0100
0010
3001
,  // measure 44
0110
0021
0100
1030
,  // measure 45
0200
1000
0010
0301
,  // measure 46
2000
0010
0100
3001
,  // measure 47
0002
0000
0010
0000
0100
0000
1003
0001
,  // measure 48
0001
0000
0010
0001
0100
0000
0110
0000
,  // measure 49
0010
0000
1000
1000
1010
0000
0110
0000
,  // measure 50
0102
0000
1003
0001
1000
0000
0100
0100
,  // measure 51
0010
0000
0100
1000
0100
0000
1000
0001
,  // measure 52
0100
0000
0100
0000
0101
0000
0001
0001
,  // measure 53
0010
0100
1100
0011
,  // measure 54
2001
0000
3001
1000
0001
0000
0100
0100
,  // measure 55
0010
0000
1000
0010
1000
0000
0001
0010
,  // measure 56
0001
0000
0100
0000
0110
0000
0010
0010
,  // measure 57
1000
0001
0011
0010
,  // measure 58
0210
0000
0310
0100
0010
0000
0100
0100
,  // measure 59
1000
0000
0001
1000
0001
0000
0100
0010
,  // measure 60
0110
0000
0000
0000
;
