#VERSION:0.81;
#TITLE:Tsukematsukeru;
#SUBTITLE:;
#ARTIST:Kyary Pamyu Pamyu;
#TITLETRANSLIT:;
#SUBTITLETRANSLIT:;
#ARTISTTRANSLIT:;
#GENRE:Pop;
#ORIGIN:;
#CREDIT:N. Muriel;
#BANNER:Tsukematsukeru.png;
#BACKGROUND:Tsukematsukeru-bg.png;
#PREVIEWVID:Preview.avi;
#JACKET:Tsukematsukeru-jacket.png;
#CDIMAGE:;
#DISCIMAGE:;
#LYRICSPATH:;
#CDTITLE:;
#MUSIC:Tsukematsukeru.mp3;
#OFFSET:-0.033000;
#SAMPLESTART:65.610001;
#SAMPLELENGTH:15.000000;
#SELECTABLE:YES;
#DISPLAYBPM:145.000000;
#BPMS:0.000=145.000,
191.021=140.715,
192.000=145.000;
#STOPS:;
#DELAYS:;
#WARPS:;
#TIMESIGNATURES:0.000=4=4;
#TICKCOUNTS:0.000=4;
#COMBOS:0.000=1;
#SPEEDS:0.000=1.000=0.000=0;
#SCROLLS:0.000=1.000;
#FAKES:;
#LABELS:0.000=Song Start;
#BGCHANGES:-0.500=Tsukematsukeru.avi=1.000=1=0=0=StretchNoLoop==CrossFade==,
99999=-nosongbg-=1.000=0=0=0 // don't automatically add -songbackground-
;
#KEYSOUNDS:;
#ATTACKS:
;

//---------------dance-single - ----------------
#NOTEDATA:;
#CHARTNAME:;
#STEPSTYPE:dance-single;
#DESCRIPTION:;
#CHARTSTYLE:;
#DIFFICULTY:Easy;
#METER:5;
#RADARVALUES:0.354580,0.389739,0.130145,0.371844,0.000000,213.000000,14.000000,40.000000,0.000000,0.000000,0.000000,0.000000,0.000000,0.354580,0.389739,0.130145,0.371844,0.000000,213.000000,14.000000,40.000000,0.000000,0.000000,0.000000,0.000000,0.000000;
#CREDIT:;
#DISPLAYBPM:145.000000;
#NOTES:
0010
0000
1000
0000
,
0001
0001
0001
0000
,
0100
0000
0001
0000
,
1000
1000
1000
0000
,
0010
0000
0100
0000
,
0001
0001
0001
0000
,
0010
0000
0100
0000
,
1000
1000
1000
1001
,
0001
0100
0001
0100
,
0001
1000
0001
0000
,
1000
0100
1000
0100
,
1000
0001
1000
0000
,
0010
1000
0010
1000
,
0001
1000
0001
0000
,
0010
0001
0010
0001
,
1000
0001
1000
0000
,
0200
1300
0200
1300
,
0100
0010
0001
0000
,
0020
0031
0020
0031
,
0010
0100
1000
0000
,
0020
1030
0020
1030
,
0010
0100
0001
0000
,
0200
0301
0200
0301
,
0100
0010
1000
0000
,
0002
1003
0002
1003
,
0110
0110
0110
0000
,
2000
3001
2000
3001
,
0110
0110
0110
0000
,
0200
0310
0200
0310
,
1001
1001
1001
0000
,
0020
0130
0020
0130
,
1001
1001
1001
0000
,
1000
0000
0000
0001
0000
0000
0010
0000
,
0001
0000
0000
1000
0000
0000
0010
0000
,
1000
0000
0000
0001
0000
0000
0100
0000
,
0001
0000
0000
1000
0000
0000
0100
0000
,
1000
0000
1000
0000
,
0001
0000
0001
0000
,
0010
0000
0010
0000
,
0100
0100
0100
0100
,
1000
0001
1000
0001
,
0010
0010
0010
0000
,
0001
1000
0001
1000
,
0100
0100
0110
0000
,
0010
0001
0010
0001
,
0100
0100
0100
0000
,
0010
1000
0010
1000
,
0100
0100
0100
0000
,
0020
0130
0020
0130
,
0010
0001
0010
0000
,
0020
0130
0200
1300
,
1000
0001
1000
0000
,
0200
0310
0200
0310
,
0100
1000
0100
0000
,
0200
0310
0020
0031
,
0001
1000
0001
0000
,
0200
0320
0230
0301
,
0001
1000
1000
0000
,
0200
0320
0230
2300
,
3001
0001
0001
0000
,
0200
0320
0230
0301
,
0001
1000
1000
0000
,
0020
0230
0320
2030
,
3001
0001
0001
0002
,
2003
0000
3000
0000
;

//---------------dance-single - ----------------
#NOTEDATA:;
#CHARTNAME:;
#STEPSTYPE:dance-single;
#DESCRIPTION:;
#CHARTSTYLE:;
#DIFFICULTY:Hard;
#METER:10;
#RADARVALUES:0.575030,0.509659,0.446213,0.418324,0.000000,340.000000,48.000000,45.000000,0.000000,0.000000,0.000000,0.000000,0.000000,0.575030,0.509659,0.446213,0.418324,0.000000,340.000000,48.000000,45.000000,0.000000,0.000000,0.000000,0.000000,0.000000;
#CREDIT:;
#DISPLAYBPM:145.000000;
#NOTES:
// measure 0
0110
0000
0010
0001
0101
0000
0001
1000
,  // measure 1
0100
0001
0100
1000
0010
0000
0000
0000
,  // measure 2
0100
0100
0010
0010
1000
0000
0001
1000
,  // measure 3
0001
0011
1100
0000
,  // measure 4
0110
0000
0010
0100
1100
0000
0010
0001
,  // measure 5
0100
1000
0100
0001
0010
0000
0000
0000
,  // measure 6
0100
1000
0020
1030
0010
0000
0100
0010
,  // measure 7
0100
0000
0001
1000
0001
0000
1001
0000
,  // measure 8
1000
0000
0100
0010
0110
0000
0010
0001
,  // measure 9
0100
1000
0100
0001
0010
0000
0100
0000
,  // measure 10
1000
1000
0001
0001
0010
0000
0100
0010
,  // measure 11
0100
1100
0011
0000
,  // measure 12
1001
0000
0001
1000
1010
0000
1000
0001
,  // measure 13
0100
1000
0100
0001
0010
0000
0000
0000
,  // measure 14
0100
0100
0010
0010
0001
0000
1000
0010
,  // measure 15
1000
0000
0001
0010
0001
0010
0010
0010
,  // measure 16
0200
1300
0200
1300
,  // measure 17
0100
1000
0100
0001
0100
0000
0000
0000
,  // measure 18
0020
0000
0031
0001
0020
0000
0031
0001
,  // measure 19
0010
1000
0010
0001
0010
0000
0000
0000
,  // measure 20
0002
1003
0002
1003
,  // measure 21
0001
0100
1000
0100
0001
0000
0000
0000
,  // measure 22
2000
3001
2000
3001
,  // measure 23
1000
0100
0001
0100
1000
0100
0010
0001
,  // measure 24
0200
1300
0200
0301
,  // measure 25
0001
0100
1000
0100
0001
0000
0000
0000
,  // measure 26
0020
0000
0031
0001
0020
0000
1030
1000
,  // measure 27
0010
0001
1000
0010
0100
0000
0000
0000
,  // measure 28
0200
0301
0200
1300
,  // measure 29
0100
0001
1000
0100
0010
0000
0000
0000
,  // measure 30
0002
0000
0013
0010
1000
1000
0010
0010
,  // measure 31
0001
0010
1000
0010
0001
0000
1001
1000
,  // measure 32
0010
0000
0110
0110
0010
1000
0010
0000
,  // measure 33
1000
0000
1001
1001
0001
0010
0001
0010
,  // measure 34
0100
0000
0110
0110
0100
1000
0100
0000
,  // measure 35
1000
0000
1001
1001
0001
0100
0002
0000
,  // measure 36
1003
0000
1001
0001
0100
0000
0010
0000
,  // measure 37
0110
0000
0010
1000
0000
1000
0001
0011
,  // measure 38
0000
0000
0110
0000
0100
1000
0100
0020
,  // measure 39
0000
0000
0001
0000
0000
0100
0100
0130
,  // measure 40
0110
0000
0100
1000
1100
0000
1000
0001
,  // measure 41
0100
1000
0100
0001
0010
0000
0000
0000
,  // measure 42
0100
0100
0010
0010
0110
0000
0100
1000
,  // measure 43
1100
0011
1001
0000
,  // measure 44
1000
0000
1010
0010
0100
0000
0101
0001
,  // measure 45
0010
1000
0010
0001
0100
0000
0000
0000
,  // measure 46
0010
0010
2000
3001
1000
0000
0100
0010
,  // measure 47
0100
0000
0010
0001
0011
0000
1001
0000
,  // measure 48
2010
3100
0012
0103
,  // measure 49
0001
0010
1000
0010
0001
0000
0000
0000
,  // measure 50
2100
3010
0102
0013
,  // measure 51
0001
0100
1000
0100
0001
0000
0000
0000
,  // measure 52
2001
3100
1002
0103
,  // measure 53
0001
0010
1000
0010
0001
0000
0000
0000
,  // measure 54
2001
3010
1002
0013
,  // measure 55
0001
0100
1000
0100
0001
0000
1000
1000
,  // measure 56
0020
0000
0230
0000
0320
0000
0130
0010
,  // measure 57
1010
0000
1000
0001
1002
0000
0000
0000
,  // measure 58
0020
0030
0200
0300
0020
0030
0200
0300
,  // measure 59
1003
0010
0001
0010
1000
0000
0001
0000
,  // measure 60
0020
0000
0230
0000
0320
0000
0130
0010
,  // measure 61
0011
0000
0001
1000
2001
0000
0000
0000
,  // measure 62
0020
0030
0200
0300
0020
0030
0200
3300
,  // measure 63
0001
0010
1000
0010
0001
0000
2002
0000
,  // measure 64
0000
0000
3003
0000
;

//---------------dance-single - ----------------
#NOTEDATA:;
#CHARTNAME:;
#STEPSTYPE:dance-single;
#DESCRIPTION:;
#CHARTSTYLE:;
#DIFFICULTY:Beginner;
#METER:2;
#RADARVALUES:0.102257,0.089243,0.027888,0.009296,0.000000,73.000000,3.000000,1.000000,0.000000,0.000000,0.000000,0.000000,0.000000,0.102257,0.089243,0.027888,0.009296,0.000000,73.000000,3.000000,1.000000,0.000000,0.000000,0.000000,0.000000,0.000000;
#CREDIT:;
#DISPLAYBPM:145.000000;
#NOTES:
0001
0000
0000
0000
,
0010
0000
0000
0000
,
0100
0000
0000
0000
,
1000
0000
0000
0000
,
0010
0000
0000
0000
,
0100
0000
0000
0000
,
0001
0000
0000
0000
,
1000
0000
0000
0000
,
1001
0000
0000
0000
,
0100
0000
0000
0000
,
0010
0000
0000
0000
,
0001
0000
0000
0000
,
1000
0000
0000
0000
,
0010
0000
0000
0000
,
0001
0000
0000
0000
,
0100
0000
0000
0000
,
1000
0000
0000
0000
,
0010
0000
0010
0000
,
0010
0000
0000
0000
,
0100
0000
0100
0000
,
0100
0000
0000
0000
,
0001
0000
0001
0000
,
0001
0000
0000
0000
,
1000
0000
1000
0000
,
1001
0000
0000
0000
,
0100
0000
0000
0000
,
0010
0000
0000
0000
,
0001
0000
0000
0000
,
1000
0000
0000
0000
,
0010
0000
0000
0000
,
0100
0000
0000
0000
,
0001
0000
0000
0000
,
1001
0000
0000
0000
,
0100
0000
0000
0000
,
0001
0000
0000
0000
,
0100
0000
0000
0000
,
0010
0000
0000
0000
,
0001
0000
0000
0000
,
1000
0000
0000
0000
,
0020
0000
0030
0000
,
0100
0000
0000
0000
,
0100
0000
0000
0000
,
0001
0000
0000
0000
,
0001
0000
0000
0000
,
1000
0000
0000
0000
,
1000
0000
0000
0000
,
0010
0000
0000
0000
,
0010
0000
0000
0000
,
0100
0000
0000
0000
,
0001
0000
0000
0000
,
1000
0000
0000
0000
,
0100
0000
0000
0000
,
0010
0000
0000
0000
,
0001
0000
0000
0000
,
1000
0000
0000
0000
,
0010
0000
0000
0000
,
0100
0000
0000
0000
,
0001
0000
0001
0000
,
0001
0000
0000
0000
,
1000
0000
1000
0000
,
1000
0000
0000
0000
,
0100
0000
0100
0000
,
0100
0000
0000
0000
,
0010
0000
0010
0000
,
0010
0000
0000
0000
;

//---------------dance-single - ----------------
#NOTEDATA:;
#CHARTNAME:;
#STEPSTYPE:dance-single;
#DESCRIPTION:;
#CHARTSTYLE:;
#DIFFICULTY:Medium;
#METER:8;
#RADARVALUES:0.410356,0.359759,0.102257,0.037184,0.000000,294.000000,11.000000,4.000000,0.000000,0.000000,0.000000,0.000000,0.000000,0.410356,0.359759,0.102257,0.037184,0.000000,294.000000,11.000000,4.000000,0.000000,0.000000,0.000000,0.000000,0.000000;
#CREDIT:;
#DISPLAYBPM:145.000000;
#NOTES:
0010
1000
0100
1000
,
0010
0100
0001
0000
,
0001
1000
0100
0100
,
0010
0001
1001
0000
,
0010
0100
0001
0100
,
0010
1000
0100
1000
,
0010
0100
0001
0010
,
0100
0010
0110
0000
,
0100
0000
1000
0000
0100
0000
1000
0001
,
1000
0010
0100
0001
,
0010
0000
0100
0000
0001
0000
0100
1000
,
0001
0100
0010
0010
,
1000
0000
0100
0000
1000
0000
0001
0100
,
0010
0100
0001
0010
,
0100
0000
1000
0000
0001
0000
0100
0010
,
0100
0001
0010
0100
,
0001
0010
0001
0010
,
0100
1000
0100
1000
0010
0000
0100
0000
,
0001
0010
0100
0010
,
0001
0100
0010
0100
0001
0000
1000
0000
,
0100
0010
0001
0100
,
0010
1000
0001
1000
0100
0000
0010
0000
,
0001
0100
0010
0100
,
0001
0010
0100
0010
0001
0000
1000
0000
,
1001
0010
0110
0100
,
0001
0100
1000
0100
0001
0000
0010
0000
,
1100
0010
0101
0010
,
0100
1000
0010
1000
0100
0000
0010
0000
,
0011
0100
1010
0100
,
0001
0010
1000
0010
0001
0000
0100
0000
,
0010
0101
0010
1100
,
1000
0001
1000
0100
0010
0000
0001
0000
,
1000
0100
0001
0100
,
1000
0000
1000
0010
0000
0000
0100
0000
,
0001
0010
0100
1000
,
0001
0000
0001
0200
0000
0000
0310
0000
,
1000
0100
0001
0100
,
1000
0000
0010
2000
0000
0000
3001
0000
,
0010
0100
1000
0001
,
0200
0000
0000
0300
,
0010
0000
1000
0100
1000
0000
0001
0100
,
0001
0010
0100
0100
,
1000
0000
0010
1000
0010
0000
0100
0001
,
0100
0001
0010
0100
,
1000
0000
0001
0100
0001
0000
1000
0100
,
1000
0010
0001
1000
,
0100
0000
0001
0010
0001
0000
1000
0100
,
1000
0010
0100
1001
,
0100
0010
0001
1000
,
0010
0100
0001
0100
0010
0000
1000
0000
,
0100
0001
0100
1000
,
0010
0100
0001
0100
0010
0000
1000
0000
,
0001
0010
0100
0010
,
0001
1000
0100
1000
0001
0000
0100
0000
,
0010
0100
0001
0010
,
0100
0010
0001
0010
0100
0000
1000
0000
,
0010
0100
0001
1000
,
0001
0100
0010
0100
0001
0000
1000
0000
,
0100
0010
0001
1000
,
0010
0100
0001
0100
1000
0000
0100
0000
,
0010
0000
1000
0000
0001
0000
0010
0100
,
1000
0000
1000
0001
0100
0000
0010
0000
,
1000
0100
0010
0100
,
1000
0001
1000
0010
0100
0000
0002
0000
,
0000
0000
0003
0000
;
