#VERSION:0.81;
#TITLE:The Fear;
#SUBTITLE:;
#ARTIST:Lily Allen;
#TITLETRANSLIT:;
#SUBTITLETRANSLIT:;
#ARTISTTRANSLIT:;
#GENRE:Electro-Pop;
#ORIGIN:;
#CREDIT:N. Muriel;
#BANNER:The Fear.png;
#BACKGROUND:The Fear-bg.png;
#PREVIEWVID:Preview.avi;
#JACKET:The Fear-jacket.png;
#CDIMAGE:;
#DISCIMAGE:;
#LYRICSPATH:;
#CDTITLE:;
#MUSIC:The Fear.mp3;
#OFFSET:-0.074405;
#SAMPLESTART:36.299999;
#SAMPLELENGTH:15.000000;
#SELECTABLE:YES;
#BPMS:0.000=67.000,
7.000=61.425,
8.000=74.754,
9.000=66.999,
10.000=67.001,
11.000=67.879,
12.000=70.664,
13.000=62.165,
14.000=66.999,
15.000=67.001,
16.000=66.999,
17.000=71.645,
18.000=66.999,
19.000=66.143,
20.000=69.711,
21.000=61.426,
22.000=66.999,
23.000=67.001,
24.000=134.000,
52.000=67.000,
54.000=134.000,
118.000=67.000;
#STOPS:;
#DELAYS:;
#WARPS:;
#TIMESIGNATURES:0.000=4=4,
52.000=2=4,
54.000=4=4;
#TICKCOUNTS:0.000=4;
#COMBOS:0.000=1;
#SPEEDS:0.000=1.000=0.000=0;
#SCROLLS:0.000=1.000;
#FAKES:;
#LABELS:0.000=Song Start;
#BGCHANGES:-0.250=The Fear.avi=1.000=1=0=0=StretchNoLoop==CrossFade==,
99999=-nosongbg-=1.000=0=0=0 // don't automatically add -songbackground-
;
#KEYSOUNDS:;
#ATTACKS:
;

//---------------dance-single - ----------------
#NOTEDATA:;
#CHARTNAME:;
#STEPSTYPE:dance-single;
#DESCRIPTION:;
#CHARTSTYLE:;
#DIFFICULTY:Easy;
#METER:5;
#RADARVALUES:0.234078,0.243962,0.109237,0.097099,0.000000,118.000000,9.000000,8.000000,0.000000,0.000000,0.000000,0.000000,0.000000,0.234078,0.243962,0.109237,0.097099,0.000000,118.000000,9.000000,8.000000,0.000000,0.000000,0.000000,0.000000,0.000000;
#CREDIT:;
#NOTES:
0000
0000
0000
0000
,
0000
0000
0000
0000
,
0000
0000
0010
0010
1000
0000
1000
1000
,
0001
0000
0010
0010
0010
0000
0100
0010
,
0100
0000
1000
1000
0001
0000
0100
0100
,
0001
0000
0010
0010
0100
0000
1000
0100
,
1100
0000
1000
0001
,
1001
0000
0001
0100
,
0101
0000
0100
0010
,
0110
0000
0010
1000
,
1001
0000
1000
0100
,
0110
0000
0010
0001
,
0101
0000
0001
1000
,
1100
0000
0010
0000
,
0010
0010
0001
0000
,
0001
0001
1000
0010
,
1000
0000
0020
0130
,
0020
0130
0010
0000
,
1000
1000
0001
0000
,
0010
0001
0010
0000
,
0100
0010
0200
0000
,
2300
0000
3001
0000
,
1000
0010
0100
0000
,
0010
0100
0001
0000
,
0001
1000
0200
0310
,
0200
0310
0100
0000
,
1000
0100
0010
0000
,
0100
1000
0010
0000
,
0100
0010
0002
0000
,
0023
0000
0000
0000
0130
0100
0100
0000
,
0010
0010
0010
0000
1000
1000
1000
0000
,
0001
0001
0001
0000
0010
0010
0001
0000
,
1000
1000
0100
0000
1000
1000
0001
0000
,
0010
0010
0100
0000
1001
0000
0000
0000
;

//---------------dance-single - ----------------
#NOTEDATA:;
#CHARTNAME:;
#STEPSTYPE:dance-single;
#DESCRIPTION:;
#CHARTSTYLE:;
#DIFFICULTY:Medium;
#METER:7;
#RADARVALUES:0.355452,0.364577,0.048550,0.012137,0.127443,200.000000,4.000000,1.000000,0.000000,0.000000,0.000000,0.000000,0.000000,0.355452,0.364577,0.048550,0.012137,0.127443,200.000000,4.000000,1.000000,0.000000,0.000000,0.000000,0.000000,0.000000;
#CREDIT:;
#NOTES:
0000
0000
0000
0000
,
0000
0000
0000
0000
,
0000
0000
0000
0001
0010
0000
0000
0100
0000
0000
0000
0010
0000
0001
0100
0001
,
0100
0000
0010
0000
0010
0000
1000
0001
0000
0000
0010
0000
0100
1000
0100
1000
,
0100
0000
0000
1000
0001
0000
0000
0100
0000
0000
0010
1000
0000
0001
0010
0001
,
0000
0100
0000
0010
0100
0000
0000
0001
0000
1000
0100
1000
0000
0100
0010
0000
,
0001
0000
1000
0000
0001
0010
0001
0010
,
0000
0001
0100
0010
0000
1000
0001
2000
,
0000
3100
0000
0000
0010
0100
0010
0100
,
0000
0100
0001
0010
0100
0000
0010
0001
,
1000
0000
0010
0000
1000
0001
1000
0001
,
0000
0010
0100
0010
0000
0100
1000
0100
,
1000
0000
0001
0000
0100
0010
0100
0000
,
0110
0000
1001
1000
,
0010
0100
0010
0100
0000
0100
0001
0010
,
0000
0100
0010
0001
1000
0000
1001
0000
,
1000
0010
1000
0010
0100
0010
0100
0010
,
0100
0010
0100
0010
1000
0000
0100
0000
,
1000
0001
1000
0001
0000
0010
0001
0100
,
0000
0010
0100
0001
1000
0000
0100
0000
,
0100
0010
0000
0010
0001
0000
0001
1000
,
0000
1000
0010
0000
0100
0000
0100
0000
,
0001
0010
0001
0000
0010
0000
0010
0000
,
0100
1000
0100
0000
1000
0000
1001
0000
,
0001
0100
0001
0000
0010
0100
0010
0100
,
0010
0100
0010
0100
1000
0000
1000
0001
,
0000
0001
1000
0010
0000
0100
0010
1000
,
0000
0100
0010
0001
0100
0000
0010
0000
,
1000
0000
0001
0000
0010
0000
0100
0010
,
0000
0000
0010
0000
0001
0000
0100
0000
0010
0000
0010
0000
0010
0000
0000
1000
,
0000
1000
0000
0000
0001
0000
0001
0000
0010
0000
0010
0000
0010
0000
0010
0000
,
0100
0100
0100
0100
1000
1000
1000
1000
,
0001
0001
0001
0001
0100
0100
0100
0100
,
0010
0010
0010
0010
0000
0000
0000
0000
;

//---------------dance-single - ----------------
#NOTEDATA:;
#CHARTNAME:;
#STEPSTYPE:dance-single;
#DESCRIPTION:;
#CHARTSTYLE:;
#DIFFICULTY:Beginner;
#METER:2;
#RADARVALUES:0.119640,0.160214,0.036412,0.024275,0.000000,64.000000,3.000000,2.000000,0.000000,0.000000,0.000000,0.000000,0.000000,0.119640,0.160214,0.036412,0.024275,0.000000,64.000000,3.000000,2.000000,0.000000,0.000000,0.000000,0.000000,0.000000;
#CREDIT:;
#NOTES:
0000
0000
0000
0000
,
0000
0000
0000
0000
,
0000
1000
1000
0001
,
0001
0010
0010
0100
,
0100
1000
1000
0010
,
0010
0100
0100
0001
,
0001
0000
0010
0000
,
0010
0000
0100
0000
,
0100
0000
1000
0000
,
1000
0000
0001
0000
,
0001
0000
1000
0000
,
1000
0000
0100
0000
,
0100
0000
0010
0000
,
0010
0000
1001
0000
,
0000
0000
0000
0000
,
0000
0000
0110
0000
,
0000
0000
0020
0000
,
0000
0000
0130
0000
,
0000
0000
0000
0000
,
0000
0000
1001
0000
,
0000
0000
2000
0000
,
0000
0000
3001
0000
,
0001
0000
0001
0000
,
0001
0000
1000
0000
,
1000
0000
1000
0000
,
1000
0000
0010
0000
,
0010
0000
0010
0000
,
0010
0000
0100
0000
,
0100
0000
0100
0000
,
0100
0000
0001
0001
,
0001
0000
1000
1000
,
1000
0000
0010
0010
,
0010
0000
0100
0100
,
0100
0000
0000
0000
;

//---------------dance-single - ----------------
#NOTEDATA:;
#CHARTNAME:;
#STEPSTYPE:dance-single;
#DESCRIPTION:;
#CHARTSTYLE:;
#DIFFICULTY:Hard;
#METER:11;
#RADARVALUES:0.499367,0.650564,0.109237,0.169924,0.382328,265.000000,9.000000,14.000000,0.000000,0.000000,0.000000,0.000000,0.000000,0.499367,0.650564,0.109237,0.169924,0.382328,265.000000,9.000000,14.000000,0.000000,0.000000,0.000000,0.000000,0.000000;
#CREDIT:;
#NOTES:
0000
0000
0000
0000
,
0000
0000
0000
0000
,
0000
0000
0000
0000
0000
0000
0100
0000
0010
0000
0001
0000
0100
0000
0010
0000
0000
0000
1000
0010
0000
0000
1000
0000
0000
0000
0001
0000
1000
0000
0001
0000
,
1000
0000
0000
0000
0100
0000
0100
0000
0010
0000
0001
0000
0100
0000
0010
0000
0000
0010
0000
0000
1000
0000
1000
0000
0001
0000
0010
0000
0100
0000
1000
0000
,
0001
0000
0000
1000
0010
1000
0001
0010
0000
0000
0100
0010
0000
0001
0010
0100
,
0000
1000
0000
0001
1000
0010
0100
0010
0000
1000
0001
1000
0000
0100
0010
0100
,
0010
0000
0001
0001
0010
0001
0100
0010
,
0000
1000
0001
1000
0000
0100
0010
0100
,
0000
1000
0000
0001
1000
0010
0100
0010
,
0000
1000
0010
1000
0001
0010
0100
0001
,
0000
0101
0000
0100
1000
0010
0100
0010
,
0000
0100
0010
1000
0000
1000
0001
0010
,
0110
0000
0010
0001
0010
0100
1000
0010
,
0000
1000
0010
0100
0000
0010
0100
0001
0010
0000
0000
0000
0110
0000
0000
0000
,
0100
1000
0001
1000
0000
0001
0100
0010
,
1000
0001
1000
0010
0100
0010
0100
0010
,
0100
0001
1000
0100
0020
0130
0020
0031
,
0020
0130
0020
0031
0010
0000
0110
0100
,
1000
0010
0100
0010
0000
1000
0001
0010
,
0000
0100
0010
0001
0100
0000
0101
0000
,
0100
0010
0200
0000
0320
0000
1030
0020
,
0000
0031
0010
1000
0001
0000
1001
1000
,
0010
0100
0010
1000
0000
0100
0010
1000
,
0000
0010
0001
0100
0001
0100
0001
0100
,
0010
0100
0001
0010
0200
1300
0200
0310
,
0200
1300
0200
0310
0100
0000
0110
0010
,
0000
0001
0010
0001
0000
0100
0001
0100
,
0000
0010
0100
0010
1000
0000
1002
0000
,
0013
0002
0000
0103
0002
0000
1003
0001
,
0000
0000
0010
0000
0100
0000
1000
0000
0010
0000
0010
0000
0010
0000
0000
0110
,
0000
0000
0100
0010
0100
0000
0000
0100
0001
0000
0000
0001
1000
0000
0000
1000
0100
0000
0000
0100
0010
0000
0000
0100
0010
0000
0000
0010
0001
0000
0000
0010
,
0001
0000
0000
0001
0100
0000
0000
0001
0100
0000
0000
0100
0010
0000
0000
0100
0010
0000
0000
0010
1000
0000
0000
1000
0001
0000
0000
0001
0010
0000
0000
0010
,
0100
0000
0000
0100
1000
0000
0000
1000
0001
0000
0000
0001
0100
0000
0000
0100
0010
0000
0000
0010
1000
0000
0000
1000
0100
0000
0000
0010
0001
0000
0000
0001
,
0100
0000
0000
0001
1000
0000
0000
1000
0100
0000
0000
1000
0001
0000
0000
0001
0100
0000
0000
0000
0000
0000
0000
0000
0000
0000
0000
0000
0000
0000
0000
0000
;
