#VERSION:0.81;
#TITLE:Sanpo;
#SUBTITLE:;
#ARTIST:♪♪♪♪♪;
#TITLETRANSLIT:;
#SUBTITLETRANSLIT:;
#ARTISTTRANSLIT:;
#GENRE:My Neighbor Totoro;
#ORIGIN:;
#CREDIT:;
#BANNER:Sanpo.png;
#BACKGROUND:Sanpo-bg.png;
#PREVIEWVID:;
#JACKET:Sanpo-jacket.png;
#CDIMAGE:;
#DISCIMAGE:;
#LYRICSPATH:;
#CDTITLE:;
#MUSIC:Sanpo.mp3;
#OFFSET:-0.100262;
#SAMPLESTART:11.839999;
#SAMPLELENGTH:15.000000;
#SELECTABLE:YES;
#BPMS:0.000=122.000;
#STOPS:;
#DELAYS:;
#WARPS:;
#TIMESIGNATURES:0.000=4=4;
#TICKCOUNTS:0.000=4;
#COMBOS:0.000=1;
#SPEEDS:0.000=1.000=0.000=0;
#SCROLLS:0.000=1.000;
#FAKES:;
#LABELS:0.000=Song Start;
#BGCHANGES:;
#KEYSOUNDS:;
#ATTACKS:
;

//---------------dance-single - ----------------
#NOTEDATA:;
#CHARTNAME:;
#STEPSTYPE:dance-single;
#DESCRIPTION:;
#CHARTSTYLE:;
#DIFFICULTY:Easy;
#METER:5;
#RADARVALUES:0.289846,0.300566,0.318591,0.041920,0.000000,199.000000,38.000000,5.000000,0.000000,0.000000,0.000000,0.000000,0.000000,0.289846,0.300566,0.318591,0.041920,0.000000,199.000000,38.000000,5.000000,0.000000,0.000000,0.000000,0.000000,0.000000;
#CREDIT:;
#NOTES:
1001
0000
1001
0000
,
1001
1001
1001
0000
,
0110
0000
0110
0000
,
0110
0110
0110
0000
,
0020
0000
0000
0000
,
1030
0010
0010
0000
,
1000
0001
1000
0000
,
0001
0010
0100
0000
,
1000
0010
0100
0010
,
1000
0001
0001
0000
,
1000
0001
0011
0000
,
0001
1000
1001
0000
,
0000
1000
0010
0100
,
0110
0000
0010
0010
,
1000
0001
1000
0010
,
0110
0010
1000
0100
,
0010
0010
0110
0000
,
0001
0010
0100
1000
,
0002
0000
1003
0001
,
0020
0000
0130
0010
,
0001
0100
0001
1000
,
0100
1000
0010
0001
,
0010
0010
0100
0100
,
0001
0000
1001
1000
,
0100
0100
0010
0010
,
0001
1000
0001
1000
,
0010
0100
0010
1000
,
0001
0010
0100
0000
,
0110
0000
1001
0000
,
0110
0110
0110
0000
,
0010
0001
0001
0000
,
0100
0010
1000
0000
,
0001
0010
0100
0010
,
0001
1000
1001
0000
,
1000
0010
0011
0000
,
0010
0100
0101
0000
,
0000
0001
0010
0100
,
0110
0000
0010
0010
,
0001
1000
0010
0100
,
0110
0010
1000
0010
,
0100
0100
0001
1000
,
0100
0010
0001
1000
,
0020
0000
0130
0010
,
2000
0000
3001
1000
,
0100
0100
0010
0010
,
0001
0010
0100
1000
,
0010
0100
0010
1000
,
0001
0000
1001
1000
,
0100
0100
0010
0100
,
1000
0010
0001
0010
,
0100
0100
0010
1000
,
0010
1000
0001
0000
,
0011
0000
1100
0000
,
1010
0101
1010
0010
,
0100
0010
1000
0001
,
0010
0001
0100
0000
,
0110
0000
1001
0000
,
0001
0010
0100
1000
,
0001
0100
0010
1000
,
1001
0110
1001
1001
;

//---------------dance-single - ----------------
#NOTEDATA:;
#CHARTNAME:;
#STEPSTYPE:dance-single;
#DESCRIPTION:;
#CHARTSTYLE:;
#DIFFICULTY:Hard;
#METER:14;
#RADARVALUES:0.719825,0.676273,0.226368,0.083840,1.000000,564.000000,27.000000,10.000000,0.000000,0.000000,0.000000,0.000000,0.000000,0.719825,0.676273,0.226368,0.083840,1.000000,564.000000,27.000000,10.000000,0.000000,0.000000,0.000000,0.000000,0.000000;
#CREDIT:;
#NOTES:
0010
0000
0100
1000
0100
1000
0010
0000
0100
0010
0100
0010
,
1000
0000
0000
0000
1000
0001
0100
0000
0000
0000
0001
0000
0010
0000
0000
0000
0010
0100
1000
0000
0000
0000
0001
0000
,
1000
0000
0010
1000
0010
1000
0100
0000
0100
0010
0100
0010
,
0001
0000
1000
0001
0010
0100
1000
0001
1000
0001
0000
0000
,
1000
0010
0100
0001
1000
0100
0010
0001
,
1001
0000
0000
1000
0100
0010
0100
0000
0010
0001
0100
0001
,
0100
0000
0100
0010
1000
0100
0010
0000
0100
0010
0000
0100
,
1000
0000
1000
0001
0100
0010
1000
0000
0010
1000
0000
0001
,
0010
0000
0000
0000
0100
0000
0010
0000
0001
0000
0100
0000
0010
0000
0000
1000
0000
0000
0001
0000
0000
0010
0000
0000
,
0110
0000
0000
0100
1000
0010
0001
0000
0000
0110
0000
0000
,
1001
0000
1000
0100
1000
0100
1000
0000
0001
0100
0001
0100
,
0001
0000
0010
0001
0010
0001
0010
0000
0010
1000
0010
1000
,
0010
0000
0100
1000
0100
1000
0100
0000
0100
0001
0100
0001
,
0100
0000
1000
0010
1000
0010
1000
0000
0001
0010
0001
0010
,
0001
0000
0010
0100
1000
0010
0100
0000
0001
0100
0010
1000
,
0100
0000
0010
0100
1000
0010
0100
0000
0001
0100
0010
1000
,
0001
0000
1000
0001
0100
0010
0110
0000
0000
1000
0100
1000
,
0100
0000
0000
0000
0010
0000
0100
0000
0000
0000
1000
0000
0001
0000
0000
0000
0100
0001
0100
0000
0000
0000
0010
0000
,
0100
0000
0010
1000
0010
1000
0020
0000
0130
0010
1000
0001
,
0100
0000
0001
0010
0001
0010
0001
0000
0010
0100
1000
0100
,
1000
0001
0100
0001
1000
0100
1000
0001
0010
0001
1000
0010
,
0100
0000
0000
0000
0010
0100
0010
0000
0000
0000
1000
0000
0001
0000
0000
0000
0010
0100
0010
0000
0001
0000
0010
0000
,
0001
0000
0010
0100
1000
0010
0100
0000
0100
0001
0010
0100
,
0010
0000
0001
0010
0100
1000
0010
0000
1000
0010
0100
0001
,
1000
0000
0001
1000
0010
0100
0010
0000
1000
0001
0010
0100
,
0020
0000
0000
0000
0031
0010
0002
0000
0000
0000
0103
0001
0200
0000
0000
0000
0310
0100
0020
0000
0000
0000
1030
0010
,
1000
0000
0001
1000
0010
0100
0110
0000
0010
1000
0100
1000
,
0100
0000
0000
0110
0000
0010
0001
0000
0000
1001
0000
1000
,
0010
0000
0000
0100
0010
0100
0110
0000
0000
0001
1000
0001
,
1001
0000
1000
0010
0000
0100
0001
0000
0000
1001
0000
0000
,
0110
0000
0000
0000
0010
0100
1000
0000
0010
0000
0100
0000
0010
0000
0000
0000
0000
0000
0101
0000
0000
0000
0000
0000
,
0011
0000
0000
0000
0010
0001
0100
0000
0010
0000
1000
0000
0100
0000
0000
0000
0000
0000
0110
0000
0000
0000
0000
0000
,
1100
0000
0000
0000
1000
0001
1000
0000
0010
0000
0100
0000
0010
1000
0010
1000
0000
0000
0001
0000
0000
0010
0000
0000
,
0100
1000
0100
1000
0100
1000
0100
0000
0010
0000
0100
0000
0110
0000
0000
0000
0000
0000
0010
0000
0001
0000
0010
0000
,
0001
0000
1000
0100
1000
0100
1000
0000
0001
0100
0001
0100
,
0001
0000
0010
0001
0010
0001
0010
0000
0010
1000
0010
1000
,
0010
0000
0100
1000
0100
1000
0100
0000
0100
0001
0100
0001
,
0100
0000
1000
0010
1000
0010
1000
0000
0001
0010
0001
0010
,
0001
0000
0010
0100
1000
0010
0100
0000
0001
0100
0010
1000
,
0100
0000
0010
0100
1000
0001
0100
0000
0001
0010
0100
1000
,
0001
0000
1000
0100
0000
1000
0010
0000
0000
0100
0010
0100
,
0010
0000
0000
0000
1000
0000
0010
0000
1000
0000
0001
0000
0010
0000
0000
0000
0100
0010
0100
0000
1000
0000
0100
0000
,
1000
0000
0001
1000
0001
0010
0200
0000
0310
0100
1000
0001
,
0100
0000
0001
0100
0001
0010
0100
0000
0010
0001
0000
0010
,
0100
1000
0001
0100
0001
1000
0010
1000
0001
0010
0001
1000
,
0010
0000
0000
0000
0100
0010
0100
0000
0001
0000
0010
0000
0100
0000
0000
0000
0010
0100
0010
0000
0001
0000
0100
0000
,
0010
0000
1000
0010
1000
0001
0100
0000
1010
0000
0000
0100
,
0010
0000
0001
0010
0001
1000
0100
0000
0010
0001
0000
0001
,
1000
0000
1000
0010
1000
0001
0010
0000
0001
0010
0001
1000
,
0020
0000
0000
0000
1030
0010
2000
0000
0000
0000
3100
1000
0200
0000
0000
0000
0310
0100
0020
0000
0000
0000
0031
0010
,
0001
0000
0010
0100
1000
0001
1001
0000
0000
0110
0000
0010
,
1000
0000
0000
1100
0000
0100
0010
0000
0000
0010
0001
0100
,
0010
0000
0000
1000
0010
0100
0001
0000
0000
0001
0010
0100
,
1000
0000
0000
1001
0000
1000
0001
0010
0100
0010
0001
0100
,
0010
0000
1000
0010
0000
0010
0100
0000
0000
0110
0000
0000
,
1001
0000
0000
1000
0000
0100
1000
0000
0000
0100
0010
0100
,
0010
1001
0100
1001
,
0001
0000
0010
0001
0100
0000
0010
0100
0010
0000
1000
0010
0100
0000
0001
1000
,
0001
0000
0010
0100
1000
0000
0010
0100
0010
0000
1000
0010
0100
0001
0010
0100
,
1000
0000
0000
0001
1000
0010
0100
0000
0000
1001
0000
0000
;

//---------------dance-single - ----------------
#NOTEDATA:;
#CHARTNAME:;
#STEPSTYPE:dance-single;
#DESCRIPTION:;
#CHARTSTYLE:;
#DIFFICULTY:Medium;
#METER:7;
#RADARVALUES:0.397640,0.375707,0.377279,0.134144,0.192832,271.000000,45.000000,16.000000,0.000000,0.000000,0.000000,0.000000,0.000000,0.397640,0.375707,0.377279,0.134144,0.192832,271.000000,45.000000,16.000000,0.000000,0.000000,0.000000,0.000000,0.000000;
#CREDIT:;
#NOTES:
1010
0000
0101
0000
,
0011
1100
0011
0000
,
1001
0000
0110
0000
,
1001
0110
1001
0000
,
0001
0010
0100
1000
0001
0010
0100
1000
,
0001
1000
1001
0000
,
1000
0010
0100
0010
,
1000
0001
0010
0001
,
0010
0000
0100
0000
0010
0001
0100
0001
,
1000
1000
1001
0010
,
1000
0010
0202
0303
,
0001
0010
2200
3300
,
0000
0000
1000
0001
0000
1000
0001
0000
0000
0010
0000
0000
,
0110
0000
0010
0010
,
0001
0010
0100
1000
,
0010
0110
0101
0011
,
0110
1100
1010
0110
,
0100
0001
0010
0001
,
0020
0000
0000
0000
0000
0000
0230
0000
0000
0000
0310
0100
,
2000
0000
0000
0000
0000
0000
3002
0000
0103
0001
0000
0000
,
0001
0000
0001
1000
0000
1000
0100
0000
0100
0010
0000
0010
,
0001
0000
1000
0001
0000
0000
1000
0000
0001
1000
0000
0000
,
0010
0000
0000
1000
0000
0000
0001
0000
0000
0010
0000
0010
,
0100
0000
0000
1000
0000
0000
0110
0000
0010
0001
0000
0000
,
1000
0001
0010
0100
,
0010
0000
0010
0001
0000
0001
0100
0000
0100
0010
0000
0000
,
1000
0000
0010
1000
0000
0000
0001
0000
0000
0010
0000
0000
,
0110
0000
0000
0100
0000
1000
0100
0000
0000
0000
0000
0000
,
1001
0000
0110
0000
,
1001
0011
1100
1010
,
0101
0001
1000
0010
,
1000
0100
0001
0100
,
0010
0001
0100
0010
,
1000
0001
1001
0001
,
1000
0010
0202
0303
,
0001
0010
2200
3300
,
0000
0000
1000
0001
0000
1000
0001
0000
0000
0010
0000
0100
,
0010
0000
0000
0001
0000
0000
1001
0000
1000
0010
0000
0000
,
0100
0000
0000
0010
0000
0000
1000
0000
0001
1000
0000
0000
,
0100
0010
0001
0100
,
0010
0000
0100
0010
0000
0100
0010
0000
0000
1000
0000
0000
,
0001
0000
0000
0010
0000
0000
0110
0000
0100
1000
0000
0000
,
0002
0000
0000
0000
0000
0000
2003
0000
0000
0000
3010
1000
,
0200
0000
0000
0000
0000
0000
0320
0000
0031
0010
0000
0000
,
0100
0000
0100
1000
0000
1000
0001
0000
0001
0100
0000
0100
,
0010
0000
1000
0010
0000
0000
1000
0000
0001
1000
0000
0000
,
0001
0000
0000
0010
0000
0000
0100
0000
0000
1000
0000
0001
,
1000
0000
0000
0010
0000
0000
0100
0000
0010
0100
0000
0000
,
0001
0010
0100
1000
,
0001
0000
1000
0001
0000
0001
0010
0000
0010
0100
0000
0000
,
1000
0000
0100
1000
0000
0000
0010
0000
0000
0100
0000
0000
,
0001
0000
0000
0010
0000
0100
0010
0000
0000
0000
0000
0000
,
0110
0000
1001
0000
,
1010
0101
0011
1100
,
1000
0000
0001
1000
0000
0000
0010
0000
0000
0100
0000
0000
,
0010
0000
0000
1000
0000
0001
1000
0000
0000
0000
0000
0000
,
0000
1001
0000
0110
,
0001
0010
0100
1000
0001
0010
0100
1000
,
0001
0100
0010
1000
0001
0100
0010
1000
,
0001
0000
0000
1000
0001
1000
0001
0000
0000
1001
0000
0000
;

//---------------dance-single - ----------------
#NOTEDATA:;
#CHARTNAME:;
#STEPSTYPE:dance-single;
#DESCRIPTION:;
#CHARTSTYLE:;
#DIFFICULTY:Beginner;
#METER:3;
#RADARVALUES:0.168877,0.150283,0.142528,0.075456,0.000000,115.000000,17.000000,9.000000,0.000000,0.000000,0.000000,0.000000,0.000000,0.168877,0.150283,0.142528,0.075456,0.000000,115.000000,17.000000,9.000000,0.000000,0.000000,0.000000,0.000000,0.000000;
#CREDIT:;
#NOTES:
1000
0000
1000
0000
,
1000
1000
1000
0000
,
0001
0000
0001
0000
,
0001
0001
0001
0000
,
0020
0000
0000
0000
,
0030
0100
0100
0000
,
0110
0000
0000
0000
,
0010
0000
0000
0000
,
1001
0000
0000
0000
,
0001
0000
0000
0000
,
0010
0010
0010
0000
,
0010
0010
0010
0000
,
0000
0100
0100
0100
,
0100
0000
0000
0000
,
1000
1000
1000
0000
,
0001
0000
0000
0000
,
0001
0001
0001
0000
,
1000
0000
0000
0000
,
0020
0000
0000
0000
,
0230
0000
0000
0000
,
0320
0000
0000
0000
,
0230
0000
0000
0000
,
0301
0001
0001
0000
,
1000
1000
1000
0000
,
0001
0001
0001
0001
,
0001
0000
0000
0000
,
0010
0010
0010
0010
,
0010
0000
0000
0000
,
0110
0000
0110
0000
,
0110
0000
0000
0000
,
1001
0000
0000
0000
,
1000
0000
0000
0000
,
0110
0000
0000
0000
,
0100
0000
0000
0000
,
1000
1000
1000
0000
,
0001
0001
0001
0000
,
0000
0010
0010
0010
,
0010
0000
0000
0000
,
0001
0001
0001
0000
,
1000
0000
0000
0000
,
0100
0100
0100
0000
,
0010
0000
0000
0000
,
0002
0000
0000
0000
,
2003
0000
0000
0000
,
3002
0000
0000
0000
,
2003
0000
0000
0000
,
3010
0010
0010
0000
,
0100
0100
0100
0000
,
0010
0010
0010
0000
,
0110
0000
0000
0000
,
0001
0001
0001
0000
,
1000
1000
1000
0000
,
1001
0000
1001
0000
,
1001
0000
0000
0000
,
0010
0010
0010
0000
,
0100
0100
0100
0000
,
0110
0000
0110
0000
,
0110
0000
0000
0000
,
1001
0000
0000
0000
,
0110
0000
0000
0110
;
