#TITLE:Naraku no Hana;
#SUBTITLE:;
#ARTIST:Eiko Shimamiya;
#TITLETRANSLIT:;
#SUBTITLETRANSLIT:;
#ARTISTTRANSLIT:;
#GENRE:Pop-Rock;
#CREDIT:;
#BANNER:Naraku no Hana.png;
#BACKGROUND:Naraku no Hana-bg.png;
#LYRICSPATH:;
#CDTITLE:;
#MUSIC:Naraku no Hana.mp3;
#OFFSET:-5.421;
#SAMPLESTART:39.790;
#SAMPLELENGTH:15.000;
#SELECTABLE:YES;
#BPMS:0.000=109.000
;
#STOPS:
;
#BGCHANGES:-9.000=Naraku no Hana.avi=1.000=0=0=0=StretchNoLoop====,
99999=-nosongbg-=1.000=0=0=0 // don't automatically add -songbackground-
;
#KEYSOUNDS:;
#ATTACKS:;

//---------------dance-single - ----------------
#NOTES:
     dance-single:
     :
     Medium:
     6:
     0.282,0.251,0.133,0.082,0.087,172.000,13.000,8.000,0.000,0.000,0.000,0.282,0.251,0.133,0.082,0.087,172.000,13.000,8.000,0.000,0.000,0.000:
0000
0000
1001
0000
0000
0000
0000
1000
,
0001
0010
0100
0010
0000
0000
0000
0001
,
0100
0000
0100
0010
0000
0010
1000
0000
,
0000
0000
0000
1001
,
0000
0000
0110
0000
0000
0000
0000
0020
,
0000
1030
0010
1000
0001
0000
0000
0000
,
0010
0000
0010
0100
0000
0100
1000
0000
,
0000
0000
0000
1001
,
0000
0000
0011
0000
0000
0000
0000
0010
,
0100
0010
0001
0100
0010
0000
0000
1000
,
0010
0000
0010
0100
0000
0000
0101
0000
,
0001
0000
1000
0100
0000
0000
0110
0000
,
0000
0000
0000
0010
0001
1000
0001
0100
,
0000
0000
0000
0000
0000
0010
1000
0010
,
0000
1000
0001
1000
0001
0010
0001
0010
,
0200
0000
0000
0000
0000
1300
0001
1000
,
0000
0010
0000
0110
0000
1000
0001
1000
,
0000
0100
0000
0110
0000
1000
0010
1000
,
0000
0010
0100
0001
0000
0100
0001
1000
,
0000
0001
0000
1001
0000
0000
0000
2000
,
0000
3001
1000
0010
0000
0000
0000
0010
,
1000
1000
0001
0010
0000
0100
0010
0200
,
0000
0000
0000
0000
0000
1300
0100
0010
,
0000
0010
0001
0100
0000
0010
0100
0010
,
0000
1000
0000
1001
0000
0010
0100
0010
,
0000
0001
0000
1001
0000
0010
1000
0010
,
0000
1000
0001
0010
0000
0100
0010
0001
,
0100
0010
0000
0220
0000
0000
0000
0000
,
0330
0000
0000
0010
1000
0001
0010
0100
,
0010
0000
0010
0001
0000
0001
0000
0100
,
0001
0000
0001
1000
0000
1000
0200
0000
,
0000
0000
0000
0000
,
0310
0000
0000
0100
0000
0000
0010
0000
0100
0000
0000
1000
0000
1000
0000
0000
,
0000
0000
0000
0000
0001
1000
0001
1000
,
0010
0000
0000
0100
0000
0010
0000
0000
0100
0000
0000
0001
0000
0001
0000
0000
,
0000
0000
2000
0000
,
3010
0000
0000
1000
0000
0000
0010
0000
1000
0000
0000
0001
0000
0001
0000
0000
,
0000
0000
0000
0000
0010
0100
0010
0100
,
0010
0000
0000
0001
0000
0010
0000
0000
0001
0000
0000
1000
0000
1000
0000
0000
,
0000
0000
0000
0000
,
0010
0000
0000
0100
0000
0000
0010
0000
1000
0000
0000
0001
0000
0001
0000
0000
;

//---------------dance-single - ----------------
#NOTES:
     dance-single:
     :
     Hard:
     11:
     0.494,0.501,0.409,0.143,0.220,284.000,40.000,14.000,0.000,0.000,0.000,0.494,0.501,0.409,0.143,0.220,284.000,40.000,14.000,0.000,0.000,0.000:
0110
0000
0010
1000
0000
0000
0000
1000
,
0001
0010
0100
0001
0000
0000
0000
0100
,
1000
0000
1000
0010
0000
0010
0100
0000
,
0001
0100
0001
0100
0001
0100
1010
0000
,
1001
0000
1000
0100
0000
0000
0000
2000
,
0000
3001
1000
0010
0110
0000
0000
0000
,
0002
0000
0013
0002
0000
0103
0110
0000
,
0010
1000
0010
1000
0010
1000
0101
0000
,
1001
0000
1000
0100
0000
0000
0000
0100
,
0010
0100
1000
0010
0110
0000
0100
0001
,
0200
0000
0301
0020
0000
0000
0130
0000
,
1001
0000
0001
0010
0001
0010
1100
0000
,
1001
0000
0000
0001
0000
0000
0010
0000
0100
0000
0001
0000
1000
0000
0010
0000
,
0200
0000
0000
0000
0000
1300
0100
0010
,
0011
0001
0100
0110
0010
1000
0001
0010
,
0200
0000
0000
0000
0000
1300
0100
0010
,
0100
1100
0000
1001
0000
0001
0100
0010
,
0100
0101
0000
1001
0000
1000
0010
0001
,
0010
0110
0100
0101
0000
0001
1000
0100
,
0010
0110
0100
1100
0000
1000
0010
0100
,
0101
0000
0001
0000
0010
0000
0110
0000
0000
0000
0100
0000
0100
0000
1000
0100
,
0010
0100
1000
1001
0000
0001
0100
0010
,
1000
0010
0000
1010
0000
1000
0001
1000
,
1001
0001
0011
0010
0110
0100
1000
0001
,
0100
0110
0000
1010
0000
0010
1000
0001
,
0010
0110
0000
0011
0000
0001
0100
0010
,
0000
1000
0010
0001
0000
0010
0100
0001
,
0010
0000
0100
0000
0000
0000
2000
0000
0000
3100
1000
0001
0100
0000
0010
0100
,
0010
1000
0010
1000
0001
0010
0001
0010
,
0110
0100
1000
1100
0000
1001
0000
0101
,
1100
0000
0001
0010
1010
1000
0001
0000
,
1000
0000
1010
0000
0000
0000
0101
0000
0001
0010
0001
0010
0100
0000
0000
0000
,
1000
0000
0100
1000
0000
0100
1000
0000
0100
0010
0000
0100
1000
0010
0100
0000
,
0001
0000
0100
0001
0000
0100
0001
0000
0020
0000
0130
0000
0020
0000
0130
0000
,
0010
0000
0001
0010
0000
0001
0010
0000
0001
0100
0000
0001
0100
0010
0001
0000
,
0010
0000
1000
0010
0000
1000
0010
0000
2000
0000
0000
0001
0000
0000
3001
0000
,
1000
0000
0010
1000
0000
0010
1000
0000
0010
0100
0000
0100
0010
1000
0100
0000
,
0010
0000
0100
1000
0000
0100
1000
0000
0020
0000
0130
0000
0020
0000
0130
0000
,
0010
0000
1000
0010
0000
1000
0010
0000
1000
0100
0000
0010
0100
1000
0010
0000
,
0001
0000
0010
1000
0000
1000
0001
0000
0010
0100
0010
0100
1000
0001
1000
0001
,
0200
0000
0000
0010
0000
0000
0001
0000
1000
0000
0000
0010
0000
0310
0000
0000
;

//---------------dance-single - ----------------
#NOTES:
     dance-single:
     :
     Easy:
     4:
     0.178,0.143,0.194,0.123,0.000,91.000,19.000,12.000,0.000,0.000,0.000,0.178,0.143,0.194,0.123,0.000,91.000,19.000,12.000,0.000,0.000,0.000:
0000
1001
0000
0000
,
0001
0010
0100
0000
,
0020
0000
0032
0000
,
0203
0000
0000
0310
,
0000
0110
0000
0000
,
0010
1000
1001
0000
,
0002
0000
0023
0000
,
0230
0000
0000
0310
,
0000
0110
0000
0000
,
0100
1000
1001
0000
,
2000
0000
3020
0000
,
0230
0000
0000
0310
,
0110
0000
0100
0001
,
1000
0000
0001
0001
,
0001
0000
1000
0000
,
0020
0000
0000
0130
,
0010
0000
1010
0000
,
1000
0000
1001
0000
,
0001
0000
0011
0000
,
0010
0100
0010
0000
,
0100
0000
1100
0000
,
1000
1000
1000
0001
,
0001
0000
0000
0000
,
0100
0010
0100
0010
,
1000
0000
1010
0000
,
0010
0000
0110
0000
,
0100
0000
0101
0000
,
0001
0010
0001
0000
,
0010
0000
0010
0000
,
0100
0000
0100
0000
,
1000
0000
0001
0000
,
2002
0000
0000
3003
,
1001
0000
1000
0000
,
0010
0010
0010
0000
,
0110
0000
0100
0000
,
0001
0001
0001
0000
,
0011
0000
0010
0000
,
0100
0100
0100
0000
,
1100
0000
1000
0000
,
0010
0010
0010
0000
,
0110
0000
0000
0000
;

//---------------dance-single - ----------------
#NOTES:
     dance-single:
     :
     Beginner:
     2:
     0.118,0.205,0.082,0.082,0.000,65.000,8.000,8.000,0.000,0.000,0.000,0.118,0.205,0.082,0.082,0.000,65.000,8.000,8.000,0.000,0.000,0.000: // measure 0
0000
1000
0000
0000
,  // measure 1
0001
0000
0001
0000
,  // measure 2
0200
0000
0000
0000
,  // measure 3
0000
0000
0000
0310
,  // measure 4
0000
0010
0000
0000
,  // measure 5
1000
0000
1000
0000
,  // measure 6
0002
0000
0000
0000
,  // measure 7
0000
0000
0000
0103
,  // measure 8
0000
0100
0000
0000
,  // measure 9
0010
0000
0010
0000
,  // measure 10
2000
0000
0000
0000
,  // measure 11
3002
0000
0000
1003
,  // measure 12
0000
0000
0001
0000
,  // measure 13
0001
0000
0000
0000
0000
0010
0000
0000
,  // measure 14
0010
0000
0020
0000
,  // measure 15
0000
0000
0000
0000
,  // measure 16
0130
0000
0100
0000
,  // measure 17
0100
0000
0000
0000
,  // measure 18
1000
0000
1000
0000
,  // measure 19
1000
0000
0000
0000
,  // measure 20
1001
0000
0001
0000
,  // measure 21
1001
0000
1000
0000
,  // measure 22
0020
0000
0000
0000
,  // measure 23
0130
0000
0110
0000
,  // measure 24
0100
0000
0100
0000
,  // measure 25
0100
0000
0000
0000
,  // measure 26
0001
0000
0001
0000
,  // measure 27
0001
0000
0000
0000
,  // measure 28
1000
0000
1000
0000
,  // measure 29
1000
0000
0000
0000
,  // measure 30
1001
0000
1001
0000
,  // measure 31
0000
1001
0000
1001
0000
1001
0000
0000
,  // measure 32
1000
0000
1000
0000
,  // measure 33
0010
0000
0010
0000
,  // measure 34
0100
0000
0100
0000
,  // measure 35
0001
0000
0002
0000
,  // measure 36
1003
0000
1000
0000
,  // measure 37
0001
0000
0001
0000
,  // measure 38
0010
0000
0010
0000
,  // measure 39
0100
0000
0200
0000
,  // measure 40
0310
0000
0000
0000
;
