#VERSION:0.81;
#TITLE:Lover's High;
#SUBTITLE:;
#ARTIST:APHs;
#TITLETRANSLIT:;
#SUBTITLETRANSLIT:;
#ARTISTTRANSLIT:;
#GENRE:;
#ORIGIN:;
#CREDIT:;
#BANNER:;
#BACKGROUND:;
#PREVIEWVID:;
#JACKET:;
#CDIMAGE:;
#DISCIMAGE:banner.png;
#LYRICSPATH:;
#CDTITLE:cdtitle.png;
#MUSIC:Lover's High.mp3;
#OFFSET:-2.283;
#SAMPLESTART:16.000;
#SAMPLELENGTH:15.000;
#SELECTABLE:YES;
#BPMS:0.000=130.000;
#STOPS:;
#DELAYS:;
#WARPS:;
#TIMESIGNATURES:0.000=4=4;
#TICKCOUNTS:0.000=4;
#COMBOS:0.000=1;
#SPEEDS:0.000=1.000=0.000=0;
#SCROLLS:0.000=1.000;
#FAKES:;
#LABELS:0.000=Song Start;
#BGCHANGES:;
#KEYSOUNDS:;
#ATTACKS:
;

//---------------dance-single - ----------------
#NOTEDATA:;
#CHARTNAME:;
#STEPSTYPE:dance-single;
#DESCRIPTION:;
#CHARTSTYLE:;
#DIFFICULTY:Hard;
#METER:12;
#RADARVALUES:0.597,0.546,0.120,0.305,0.430,345.000,11.000,28.000,0.000,0.000,0.000,0.000,0.000,0.597,0.546,0.120,0.305,0.430,345.000,11.000,28.000,0.000,0.000,0.000,0.000,0.000;
#CREDIT:;
#NOTES:
0000
0000
0000
0000
,
0000
0000
0000
0000
,
0000
0000
0000
0000
,
0000
0000
0000
0000
,
0001
0000
0010
0000
0001
0000
0010
0100
0000
0100
0000
1000
0010
0000
1000
0000
,
0001
0000
0100
0000
0010
0000
1000
0001
0000
0001
0000
0010
0100
0000
0010
0000
,
0100
0000
1000
0000
0100
0000
1000
0100
0000
0100
0000
0010
0001
0000
0100
0000
,
0001
0000
0100
0000
0010
0000
1000
0000
0100
0010
0100
0010
0001
0010
0001
0010
,
0001
0000
0100
0000
0010
0100
0000
0001
0000
0000
0010
0000
0100
0000
1000
0000
,
0020
0000
0230
0000
0310
0100
0010
1000
,
0100
0000
0010
0000
0100
0010
0000
1000
0000
0000
0001
0000
0100
0000
0010
0000
,
0200
2300
3020
0032
,
0013
0000
0001
0000
0100
0001
0000
1000
0000
0000
0010
0000
0100
0000
0001
0000
,
0010
0001
0010
0010
0100
1000
0010
1000
,
0001
0000
0010
0000
0100
0010
0000
0100
0000
0000
0010
0000
0100
0000
1000
0000
,
0200
0000
0000
0000
0320
0000
0000
0000
0032
0000
0000
0000
1003
0000
0100
1000
,
0100
0010
0100
0010
0100
0010
0100
0010
,
0100
0010
0000
0010
0001
0000
0010
0100
0000
0010
1000
0000
0001
0000
0100
0000
,
0010
1000
0010
1000
0010
1000
0010
1000
,
0010
0100
0000
0010
0000
0100
0000
0002
0000
0000
0103
0000
1000
0100
0010
0001
,
1000
0100
1000
0100
1000
0100
1000
0100
,
1000
0001
0000
0001
1000
0000
0001
0010
0000
0001
0100
0000
1000
0000
0010
0000
,
0001
0010
0001
0010
0001
0010
0001
0010
,
0001
0100
0001
0100
0000
0000
1000
0100
1000
0100
0000
0100
1000
0010
0100
0001
,
0010
0001
0010
0000
0010
0100
1000
0000
,
0010
1000
0010
0100
0001
1000
0001
0010
,
0200
0000
0000
0310
1000
0010
1000
0000
,
0020
0000
0000
0230
0000
0000
0310
0000
,
0010
1000
0100
0000
0100
0010
0002
0000
,
0000
0013
0100
0010
0001
0100
0010
0100
,
0001
0000
0100
0010
0000
1000
0000
0010
0000
0000
0100
0000
0001
0000
0100
0000
,
2000
0000
0000
0000
0000
0000
3020
0000
0000
0000
0000
0000
0031
0010
0001
0000
,
2020
0000
3030
2002
0000
0000
3003
0202
,
0000
0000
0303
0000
0100
0001
0010
0001
,
2200
0000
3300
2020
0000
0000
3030
0202
,
0000
0000
0000
0000
0303
0000
1000
0000
0100
1000
0100
1000
0100
0010
0100
0010
,
0100
0010
0100
1000
0010
1000
0011
0010
,
0100
0010
0001
1000
0100
1000
0001
0100
,
0101
0011
0010
0100
0001
0100
0011
0000
,
1000
0000
0010
0000
0100
0000
0010
0000
0100
0010
1000
0000
0010
0000
0100
0000
,
0101
0000
0100
0000
0001
0000
0010
0100
0000
0100
0000
1000
0010
0000
1000
0000
,
0001
0000
0100
0000
0010
0000
1000
0001
0000
0001
0000
0100
0010
0000
0001
0000
,
1000
0000
0100
0000
1000
0000
0100
0010
0000
0010
0000
0001
0100
0000
0001
0000
,
1000
0000
0010
0000
0100
0000
0001
0000
0010
0001
0010
0001
0100
0010
0100
0010
,
0100
0000
0001
0000
0100
0000
0010
0100
0000
0010
0000
1000
0010
0000
1000
0000
,
0100
0000
0010
0000
0100
0000
1000
0010
0000
0100
0000
0010
0100
0000
0001
0000
,
0100
0000
0010
0000
1000
0000
0010
0100
0000
0100
0000
0010
1000
0000
0100
0000
,
1000
0010
1000
0010
0000
0000
0001
0010
0001
0010
0000
0000
0001
1000
0000
0000
;

//---------------dance-single - ----------------
#NOTEDATA:;
#CHARTNAME:;
#STEPSTYPE:dance-single;
#DESCRIPTION:;
#CHARTSTYLE:;
#DIFFICULTY:Beginner;
#METER:2;
#RADARVALUES:0.101,0.130,0.000,0.000,0.000,65.000,0.000,0.000,0.000,0.000,0.000,0.000,0.000,0.101,0.130,0.000,0.000,0.000,65.000,0.000,0.000,0.000,0.000,0.000,0.000,0.000;
#CREDIT:;
#NOTES:
0000
0000
0000
0000
,
0000
0000
0000
0000
,
0000
0000
0000
0000
,
0000
0000
0000
0000
,
1000
0000
0000
0000
,
0010
0000
0100
0000
,
1000
0000
0000
0000
,
0001
0000
0001
0000
,
1000
0000
0000
0000
,
1000
0000
0010
0000
,
0100
0000
0000
0000
,
0100
0000
0010
0000
,
0001
0000
0000
0000
,
0001
0000
1000
0000
,
0010
0000
0000
0000
,
0010
0000
0100
0000
,
1000
0000
1000
0000
,
1000
0000
0000
0000
,
0001
0000
0001
0000
,
0001
0000
0000
0000
,
0010
0000
0010
0000
,
0010
0000
0000
0000
,
0100
0000
0100
0000
,
0100
0000
0000
0100
0000
0000
0100
0000
,
0100
0000
0000
0000
,
0010
0000
0010
0000
,
1000
0000
0000
0000
,
0001
0000
0001
0000
,
0010
0000
0000
0000
,
0100
0000
0100
0000
,
0001
0000
0000
0000
,
1000
0000
0010
0000
,
0001
0000
0000
0010
0000
0000
0000
0100
,
0000
0000
0000
0000
,
1000
0000
0000
0010
0000
0000
0000
0001
,
0000
0000
0000
0000
,
0010
0000
0000
0010
,
0000
0000
0000
0000
,
0100
0000
0000
0100
,
0000
0000
0000
0000
,
1000
0000
0000
0000
,
0001
0000
0000
0000
,
1000
0000
0000
0000
,
0001
0000
0100
0000
,
0010
0000
0000
0000
,
0100
0000
0000
0000
,
0010
0000
0000
0000
,
0100
0000
0000
0010
0000
0000
0100
0000
;

//---------------dance-single - ----------------
#NOTEDATA:;
#CHARTNAME:;
#STEPSTYPE:dance-single;
#DESCRIPTION:;
#CHARTSTYLE:;
#DIFFICULTY:Medium;
#METER:9;
#RADARVALUES:0.480,0.468,0.163,0.348,0.158,262.000,15.000,32.000,0.000,0.000,0.000,0.000,0.000,0.480,0.468,0.163,0.348,0.158,262.000,15.000,32.000,0.000,0.000,0.000,0.000,0.000;
#CREDIT:;
#NOTES:
0000
0000
0000
0000
,
0000
0000
0000
0000
,
0000
0000
0000
0000
,
0000
0000
0000
0000
,
0010
0000
0001
0000
0010
0000
0000
0001
0000
0000
0100
0000
0010
0000
1000
0000
,
0010
0000
0100
0000
0001
0000
0000
0010
0000
0000
0100
0000
1000
0000
0010
0000
,
0100
0000
0001
0000
0010
0000
0000
0100
0000
0000
1000
0000
0010
0000
0001
0000
,
0010
1000
0010
0100
0002
0000
0203
0000
,
0310
0000
1000
0000
0010
0000
0000
0010
0000
0000
0010
0000
1000
0000
0100
0000
,
0020
0000
0032
0000
1003
0000
1000
0001
,
0100
0000
0001
0000
0100
0000
0000
0100
0000
0000
0100
0000
0001
0000
0010
0000
,
0200
0000
2300
0000
3001
0000
0001
1000
,
0010
0000
1000
0000
0010
0000
0000
0010
0000
0000
0010
0000
1000
0000
0100
0000
,
0020
0000
0032
0000
1003
0000
1000
0001
,
0100
0000
0001
0000
0100
0000
0000
0100
0000
0000
0100
0000
0001
0000
0010
0000
,
0002
0203
0320
2030
,
3001
0100
0001
0100
0001
0100
0001
0100
,
0010
1000
0010
1000
,
0100
0001
0100
0001
0100
0001
0100
0001
,
1000
0010
1000
0010
,
0100
0010
0100
0010
0100
0010
0100
0010
,
0100
0000
0001
0000
0010
0100
1000
0000
,
1000
0001
1000
0001
1000
0001
1000
0001
,
1000
0000
0000
0100
0000
0000
1000
0000
0000
0001
0000
0000
0010
0100
0000
0010
,
0100
1000
0100
0000
0100
0010
0001
0000
,
0100
0001
0100
0010
1000
0001
1000
0100
,
0020
0000
0000
0031
0000
0000
0011
0000
,
0200
0000
0000
0320
0000
0000
0130
0000
,
0100
0001
0010
0000
0010
0100
2000
0000
,
0000
3100
0010
0100
0001
0000
0100
0000
,
1000
0000
0010
0100
0000
0001
0000
0100
0000
0000
0000
0000
0010
0000
0100
0000
,
0002
0000
0000
0203
0000
0000
0300
0000
,
0202
0000
0303
2002
0000
0000
3003
2020
,
0000
3030
0010
0100
,
0022
0000
0033
0202
0000
0000
0303
2020
,
0000
0000
0000
0000
3030
0000
0001
0000
0010
0100
0000
0010
0000
0100
0010
0000
,
0011
0000
0010
0100
1000
0010
1010
0000
,
0100
0001
0010
0001
0100
0001
1000
0010
,
1010
0110
0000
0001
0010
0001
1010
0000
,
0010
0000
0000
0000
0010
0000
1000
0000
0010
1000
0000
0100
0000
1000
0010
0000
,
0101
0000
1000
0000
0100
0000
0000
1000
0000
0000
0010
0000
0100
0000
0001
0000
,
0100
0000
0010
0000
1000
0000
0000
0100
0000
0000
0010
0000
0001
0000
0100
0000
,
0010
0000
1000
0000
0100
0000
0000
0010
0000
0000
0001
0000
0100
0000
1000
0000
,
0100
0001
0100
0010
2000
0000
3020
0000
,
0130
0000
0001
0000
0010
0000
0000
0001
0000
0000
0100
0000
0010
0000
1000
0000
,
0010
0000
0100
0000
0001
0000
0000
0010
0000
0000
0100
0000
1000
0000
0010
0000
,
0100
0000
0001
0000
0010
0000
0000
0100
0000
0000
1000
0000
0010
0000
0001
0000
,
0010
0000
0000
0110
0000
0000
0100
0000
0000
0110
0000
0000
0010
0100
0000
0000
;

//---------------dance-single - ----------------
#NOTEDATA:;
#CHARTNAME:;
#STEPSTYPE:dance-single;
#DESCRIPTION:;
#CHARTSTYLE:;
#DIFFICULTY:Easy;
#METER:6;
#RADARVALUES:0.291,0.338,0.076,0.174,0.022,164.000,7.000,16.000,0.000,0.000,0.000,0.000,0.000,0.291,0.338,0.076,0.174,0.022,164.000,7.000,16.000,0.000,0.000,0.000,0.000,0.000;
#CREDIT:;
#NOTES:
// measure 0
0000
0000
0000
0000
,  // measure 1
0000
0000
0000
0000
,  // measure 2
0000
0000
0000
0000
,  // measure 3
0000
0000
0000
0000
,  // measure 4
0100
0000
0001
0000
0100
0010
0100
0000
,  // measure 5
0010
1000
0001
0100
,  // measure 6
0010
0000
1000
0000
0010
0100
0010
0000
,  // measure 7
0100
0001
1000
0010
,  // measure 8
0110
0000
0010
0000
,  // measure 9
0100
0001
0010
0100
,  // measure 10
1000
1100
0000
0010
,  // measure 11
1000
0100
0010
0100
,  // measure 12
0010
0001
0011
0000
,  // measure 13
1000
0010
0100
0010
,  // measure 14
1000
0001
0100
0011
,  // measure 15
0020
0032
0203
0302
,  // measure 16
2003
0010
0000
0010
,  // measure 17
3000
0010
0100
0010
,  // measure 18
0002
0100
0000
0100
,  // measure 19
0003
0100
0010
0100
,  // measure 20
2000
0010
0000
0010
,  // measure 21
3000
0010
0100
0010
,  // measure 22
0002
0100
0000
0100
,  // measure 23
0013
0000
0000
1000
0000
0000
1000
0000
0000
0100
0000
0000
0001
0000
0000
0000
,  // measure 24
1000
0001
1000
0001
,  // measure 25
0100
0010
0100
0010
,  // measure 26
1000
0010
1000
0010
,  // measure 27
0200
0000
0300
0002
0000
0003
0100
0000
,  // measure 28
0010
1000
0010
1000
,  // measure 29
0001
0100
0001
0100
,  // measure 30
0010
0000
0000
0100
0010
0000
0000
0100
,  // measure 31
0010
0001
1000
0010
,  // measure 32
0200
0000
0000
0320
0000
0000
0000
0032
,  // measure 33
0000
0000
0000
0000
0000
0003
1000
0000
,  // measure 34
0020
0000
0000
2030
0000
0000
0000
3200
,  // measure 35
0000
0000
0000
0300
0010
0000
0001
0000
,  // measure 36
0011
0000
0001
1100
,  // measure 37
1000
1000
0010
0100
,  // measure 38
0001
0010
0000
0000
0100
0000
0101
0000
,  // measure 39
0001
0000
0000
0000
0001
0000
0001
0100
,  // measure 40
0001
0000
0010
0000
0001
1000
0001
0000
,  // measure 41
1000
0100
0010
0001
,  // measure 42
1000
0000
0100
0000
1000
0001
1000
0000
,  // measure 43
0001
0010
0100
1000
,  // measure 44
0100
0000
1000
0000
0100
0010
0100
0000
,  // measure 45
0010
1000
0001
0100
,  // measure 46
1000
0000
0001
0000
0100
0010
0100
0000
,  // measure 47
0010
0000
0000
0001
0000
0000
0100
0000
0000
0010
0000
0000
0001
0000
0000
0000
;
