#TITLE:Lost One no Goukoku;
#SUBTITLE:;
#ARTIST:Neru;
#TITLETRANSLIT:;
#SUBTITLETRANSLIT:;
#ARTISTTRANSLIT:;
#GENRE:Vocaloid;
#CREDIT:;
#BANNER:Lost One no Goukoku.png;
#BACKGROUND:;
#LYRICSPATH:;
#CDTITLE:;
#MUSIC:Lost One no Goukoku.mp3;
#OFFSET:-0.100000;
#SAMPLESTART:73.959991;
#SAMPLELENGTH:15.000000;
#SELECTABLE:YES;
#DISPLAYBPM:0.000000;
#BPMS:0.000000=162.000000
,38.000000=324.000000
,40.000000=162.000000
;
#STOPS:38.000000=0.093000,
38.500000=0.093000,
39.000000=0.093000,
39.500000=0.093000
;
#BGCHANGES:-0.500=Lost One no Goukoku.avi=1.000=0=0=0=StretchNoLoop====,
99999=-nosongbg-=1.000=0=0=0 // don't automatically add -songbackground-
;
#KEYSOUNDS:;
#ATTACKS:;

//---------------dance-single - ----------------
#NOTES:
     dance-single:
     :
     Easy:
     6:
     0.315755,0.299611,0.208347,0.009059,0.000000,220.000000,23.000000,1.000000,0.000000,0.000000,0.000000,0.315755,0.299611,0.208347,0.009059,0.000000,220.000000,23.000000,1.000000,0.000000,0.000000,0.000000:
0000
0000
0000
0000
,
0000
0000
0000
0020
,
0031
0010
0100
0010
,
0100
0010
0100
0010
,
0001
0100
0010
0100
,
0010
0100
0010
0100
,
1000
0100
0010
0100
,
0010
0100
0010
0100
,
0010
1000
0100
1000
,
0100
1000
0100
0100
,
0100
1000
0010
0100
,
0010
0100
0010
0100
,
0010
1000
0100
0010
,
0100
0010
0100
0010
,
0001
1000
0010
1000
,
0010
1000
0010
1000
,
0001
1000
0100
1000
,
0100
1000
0100
1000
,
0010
0000
0000
0010
0000
0000
0000
0000
,
0100
0000
0000
0100
0000
0000
0000
0000
,
0001
0000
0000
0001
0000
0000
0000
0000
,
1000
0000
0000
1000
0000
0000
0000
0000
,
0100
0000
0000
0100
0000
0000
0100
0000
,
0010
0000
0000
0010
0000
0000
0000
0000
,
0001
0000
0000
0001
0000
0000
0001
0000
,
1000
0000
0000
1000
0000
0000
1000
0000
,
0010
0100
0001
0100
,
0001
0100
0001
0100
,
0010
1000
0100
0010
,
0100
0010
0100
0010
,
0001
1000
0010
0100
,
0010
0100
0010
0100
,
0001
1000
0100
1000
,
0100
1000
0100
1000
,
0010
0000
0000
0010
0000
0000
0000
0000
,
0100
0000
0000
0100
0000
0000
0000
0000
,
0001
0000
0000
0001
0000
0000
0000
0000
,
1000
0000
0000
1000
0000
0000
0000
0000
,
0100
0000
0000
0100
0000
0000
0100
0000
,
1000
0000
0000
1000
0000
0000
0000
0000
,
0001
0000
0000
0001
0000
0000
0001
0000
,
0010
0000
0010
0000
,
0110
0000
1100
0000
,
0110
0000
0011
0000
,
1001
0000
1010
0000
,
1001
0000
0101
0000
,
0011
0000
0100
0000
,
1010
0000
0100
0000
,
0001
0000
0000
0001
0000
0001
0000
0000
,
1000
0000
0000
1000
0000
1000
0000
0000
,
0010
0000
0000
0010
0000
0000
0010
0000
,
0100
0000
0110
0000
,
0100
0000
0000
0100
0000
0000
0100
0000
,
0001
0000
0101
0000
,
0001
0000
0000
0001
0000
0000
0001
0000
,
1000
0000
1001
0000
,
1000
0000
1100
0000
,
0010
0000
1001
0000
,
0001
0000
0000
0001
0000
0000
0001
0000
,
0100
0000
0110
0000
,
0010
0000
0000
0010
0000
0000
0010
0000
,
1000
0000
1001
0000
,
0001
0000
0000
0001
0000
0000
0001
0000
,
0010
0000
0110
0000
,
0100
0000
1100
0000
,
0010
0000
1001
0000
,
0000
0110
0010
0001
,
0010
0001
0010
0001
,
0100
0010
1000
0001
,
1000
0001
1000
0001
,
0010
0010
0100
0100
,
0010
0010
0100
1001
,
0010
0010
0100
0100
,
0010
0010
1001
0000
;

//---------------dance-single - ----------------
#NOTES:
     dance-single:
     :
     Beginner:
     3:
     0.107408,0.166451,0.018117,0.000000,0.000000,81.000000,2.000000,0.000000,0.000000,0.000000,0.000000,0.107408,0.166451,0.018117,0.000000,0.000000,81.000000,2.000000,0.000000,0.000000,0.000000,0.000000:
0000
0000
0000
0000
,
0000
0000
0000
0000
,
0001
0000
0000
0000
,
1000
0000
0000
0000
,
0001
0000
0000
0000
,
1000
0000
0000
0000
,
0100
0000
0000
0000
,
0010
0000
0000
0000
,
0100
0000
0000
0000
,
0010
0000
0000
0000
,
0001
0000
0000
0000
,
0100
0000
0000
0000
,
0010
0000
0000
0000
,
1000
0000
0000
0000
,
0100
0000
0000
0000
,
0010
0000
0000
0000
,
0001
0000
0000
0000
,
1000
0000
0000
0000
,
0010
0000
0000
0000
,
0010
0000
0000
0000
,
1000
0000
0000
0000
,
0001
0000
0000
0000
,
0100
0000
0000
0000
,
0100
0000
0000
0000
,
0001
0000
0000
0000
,
1000
0000
0000
0000
,
0100
0000
0000
0000
,
1000
0000
0000
0000
,
0010
0000
0000
0000
,
0001
0000
0000
0000
,
0010
0000
0000
0000
,
1000
0000
0000
0000
,
0100
0000
0000
0000
,
0001
0000
0000
0000
,
0100
0000
0000
0000
,
0100
0000
0000
0000
,
0010
0000
0000
0000
,
0001
0000
0000
0000
,
0100
0000
0000
0000
,
0100
0000
0000
0000
,
0010
0000
0000
0000
,
1000
0000
0000
0000
,
0100
0000
0100
0000
,
0100
0000
0000
0000
,
0010
0000
0010
0000
,
0010
0000
0000
0000
,
0001
0000
0001
0000
,
0001
0000
0000
0000
,
1000
0000
1000
0000
,
1000
0000
1000
0000
,
0010
0000
0000
0000
,
0100
0000
0000
0000
,
0001
0000
0000
0000
,
1000
0000
0000
0000
,
0100
0000
0000
0000
,
0010
0000
0000
0000
,
0001
0000
0000
0000
,
1000
0000
0000
0000
,
0010
0000
0000
0000
,
1000
0000
0000
0000
,
0001
0000
0000
0000
,
0100
0000
0000
0000
,
0001
0000
0000
0000
,
0010
0000
0000
0000
,
0100
0000
0000
0000
,
1000
0000
0000
0000
,
0000
1001
0000
0000
,
0001
0000
0000
0000
,
0100
0000
0000
0000
,
0010
0000
0000
0000
,
1000
0000
1000
0000
,
1000
0000
1000
0000
,
0001
0000
0001
0000
,
0001
0000
1001
0000
;

//---------------dance-single - ----------------
#NOTES:
     dance-single:
     :
     Hard:
     15:
     0.886443,0.798964,0.407635,0.153995,0.742801,623.000000,45.000000,17.000000,0.000000,0.000000,0.000000,0.886443,0.798964,0.407635,0.153995,0.742801,623.000000,45.000000,17.000000,0.000000,0.000000,0.000000:
// measure 0
0000
0000
0000
0000
,  // measure 1
0000
0000
0000
0002
,  // measure 2
0013
0000
0001
0000
0100
0001
0100
0000
0010
0000
1000
0000
0100
1000
0100
0000
,  // measure 3
1000
0000
0010
0000
0100
1000
0100
0000
0010
0000
1000
0000
0100
1000
0100
0000
,  // measure 4
0010
0000
0001
0000
0100
0001
0100
0000
0010
0000
1000
0000
0100
1000
0100
0000
,  // measure 5
1000
0000
0010
0000
0100
1000
0100
0000
0010
0000
1000
0000
0100
1000
0100
0000
,  // measure 6
1000
0000
0010
0000
0100
1000
0100
0000
0001
0000
0010
0000
0100
0001
0100
0000
,  // measure 7
0010
0000
0001
0000
0100
0001
0100
0000
0001
0000
0010
0000
0100
0001
0100
0000
,  // measure 8
1000
0000
0010
0000
0100
1000
0100
0000
0001
0000
0010
0000
0100
0001
0100
0000
,  // measure 9
0010
0000
0001
0000
0100
0001
0100
0000
0010
0000
0010
0000
0010
0000
0010
0000
,  // measure 10
1000
0000
0100
0000
0010
1000
0010
0000
0001
0000
0100
0000
0010
0001
0010
0000
,  // measure 11
0100
0000
0001
0000
0010
0001
0010
0000
0001
0000
0100
0000
0010
0001
0010
0000
,  // measure 12
1000
0000
0100
0000
0010
1000
0010
0000
0001
0000
0100
0000
0010
0001
0010
0000
,  // measure 13
0100
0000
0001
0000
0010
0001
0010
0000
0001
0000
0100
0000
0010
0001
0010
0000
,  // measure 14
1000
0000
0001
0000
0100
1000
0100
0000
0001
0000
1000
0000
0100
0001
0100
0000
,  // measure 15
1000
0000
0001
0000
0100
1000
0100
0000
0001
0000
1000
0000
0100
0001
0100
0000
,  // measure 16
1000
0000
0001
0000
0010
1000
0010
0000
0001
0000
1000
0000
0010
0001
0010
0000
,  // measure 17
1000
0001
1000
0001
1000
0000
0100
0010
0100
0010
0100
0000
0010
0001
0010
0001
,  // measure 18
0100
0000
0000
0010
0000
0000
1010
0000
0000
0000
1000
0000
0001
0000
0010
0000
,  // measure 19
0100
0000
0000
0010
0000
0000
0012
0000
2003
0000
0000
0000
0000
0000
3010
1000
,  // measure 20
0010
0000
0100
0010
0000
0100
0001
0000
0000
0000
1000
0000
0001
0000
1000
0000
,  // measure 21
1100
0000
0000
0100
0000
0000
0210
0000
2300
0000
0000
0000
0000
0000
3001
1000
,  // measure 22
0001
0000
0000
0100
0000
0000
0010
2000
0000
0000
3001
0000
1000
0000
0001
0000
,  // measure 23
0100
0000
0000
0010
0000
0000
2010
0000
3002
0000
0000
0000
0000
0000
0103
0001
,  // measure 24
0100
0000
0010
0100
0000
0100
0001
0000
0000
0000
1000
0000
0100
0000
1000
0000
,  // measure 25
1010
0000
0000
0010
0000
0000
0110
0000
0000
0000
0100
0000
0001
0000
1000
0000
,  // measure 26
0100
0000
1000
0000
0010
1000
0010
0000
1000
0000
0100
0000
0010
1000
0010
0000
,  // measure 27
0100
0000
1000
0000
0010
1000
0010
0000
1000
0000
0100
0000
0010
1000
0010
0000
,  // measure 28
0001
0000
0100
0000
0010
0001
0010
0000
0100
0000
0001
0000
0010
0001
0010
0000
,  // measure 29
0001
0000
0100
0000
0010
0001
0010
0000
0110
0000
0000
0101
0000
0000
2001
0000
,  // measure 30
3100
0000
1000
0000
0001
1000
0100
0000
0001
0000
0100
0000
1000
0001
0100
0000
,  // measure 31
1000
0000
0100
0000
0001
1000
0100
0000
0001
0000
0100
0000
1000
0001
0100
0000
,  // measure 32
0010
0000
1000
0000
0001
1000
0010
0000
0001
0000
0010
0000
1000
0001
0010
0000
,  // measure 33
1000
0000
0010
0000
0001
1000
0010
0000
0100
0000
0001
0000
1000
0000
0100
0010
,  // measure 34
0100
0000
0000
1000
0000
0000
1001
0000
0000
0000
0001
0000
0100
0000
0010
0000
,  // measure 35
0100
0000
0000
0010
0000
0000
2010
0000
3002
0000
0000
0000
0000
0000
0013
0001
,  // measure 36
0100
0000
0010
0100
0000
0010
1000
0000
0000
0000
0001
0000
1000
0000
0001
0000
,  // measure 37
0011
0000
0000
0010
0000
0000
0210
0000
2300
0000
0000
0000
0000
0000
3001
1000
,  // measure 38
0010
0000
0100
0010
0000
0100
0001
0000
0000
0000
1000
0000
0001
0000
1000
0000
,  // measure 39
0100
0000
0000
0010
0000
0000
0210
0000
2300
0000
0000
0000
0000
0000
3010
1000
,  // measure 40
0001
0000
0010
0001
0000
0001
0100
0000
0000
0000
0010
0000
0100
0000
0010
0000
,  // measure 41
1010
0000
0000
0010
0000
0000
0100
0000
0101
0000
0000
0000
1001
0000
1000
0000
,  // measure 42
0100
0000
0000
0011
0000
0000
0001
1000
0100
0000
0000
0011
0000
0000
0001
1000
,  // measure 43
0100
0000
0000
0011
0000
0000
0001
1000
0001
0000
0000
0100
0000
0000
0001
0000
,  // measure 44
0100
0000
0000
1010
0000
0000
1000
0001
0100
0000
0000
1010
0000
0000
1000
0001
,  // measure 45
0100
0000
0000
1010
0000
0000
1000
0001
1000
0000
0000
0100
0000
0000
1000
0001
,  // measure 46
0010
0000
0000
1100
0000
0000
1000
0001
0010
0000
0000
1100
0000
0000
1000
0001
,  // measure 47
0010
0000
0000
1100
0000
0000
1000
0001
1000
0000
0000
0010
0000
0000
0100
0010
,  // measure 48
0100
0001
0001
1000
0100
0001
0001
0100
,  // measure 49
0010
0100
0010
0100
1000
0100
1000
0100
0010
0001
0010
0001
0100
0001
0100
0001
,  // measure 50
1000
0000
0100
1000
0000
1000
0010
0000
0100
0000
0010
0000
0010
0000
1000
0000
,  // measure 51
1001
0000
0000
0001
0000
0000
0010
0000
0110
0000
0000
0000
0100
0000
1000
0100
,  // measure 52
1000
0000
0001
1000
0000
1000
0010
0000
0100
0000
0100
0000
0001
0000
1000
0000
,  // measure 53
1010
0000
0000
0010
0000
0000
0001
0000
0011
0000
0000
0000
0010
0000
0100
0001
,  // measure 54
0100
0000
0001
1000
0000
1000
0100
0000
0010
0000
0010
0000
0100
0000
1000
0000
,  // measure 55
1010
0000
0000
1000
0000
0000
0001
0000
0011
0000
0000
0000
0010
0000
0100
0000
,  // measure 56
0010
0000
0000
0010
0000
0000
0001
0000
0101
0000
0000
0000
0100
0000
0100
0000
,  // measure 57
0010
0000
0000
1000
0000
0000
0100
0000
0101
0000
0000
0000
0100
1000
0100
1000
,  // measure 58
0010
0000
0100
0010
0000
0010
1000
0000
0000
0000
0001
0000
1000
0000
0100
0000
,  // measure 59
0110
0000
0000
0100
0000
0000
1000
0000
1001
0000
0000
0000
0001
0000
0100
0001
,  // measure 60
0100
0000
0010
0100
0000
0100
0001
0000
0100
0000
0100
0000
0010
0000
1000
0000
,  // measure 61
1100
0000
0000
0100
0000
0000
0001
0000
0101
0000
0000
0000
0100
0000
1000
0100
,  // measure 62
1000
0000
0010
1000
0000
1000
0001
0000
0010
0000
0010
0000
0100
0000
0001
0000
,  // measure 63
0101
0000
0000
0100
0000
0000
1000
0000
1100
0000
0000
0000
1000
0000
0010
0000
,  // measure 64
0100
0000
0000
0100
0000
0000
0001
0000
0011
0000
0000
0000
0010
0000
0010
0000
,  // measure 65
0100
1000
0000
0100
1000
0000
0100
0010
0200
0000
0000
0000
2300
0000
0000
0000
,  // measure 66
3001
1000
0100
0000
0110
0000
0000
0000
0100
0000
1000
0000
0010
0100
0010
0000
,  // measure 67
1000
0000
0100
0000
0010
0100
0010
0000
0100
0000
1000
0000
0010
0100
0010
0000
,  // measure 68
0001
0000
0010
0000
0100
0001
0100
0000
1000
0000
0100
0000
0010
1000
0010
0000
,  // measure 69
1000
0001
1000
0001
0010
0100
0010
0100
1000
0000
1000
0000
0010
1000
0010
1000
,  // measure 70
0001
0000
0001
0000
0010
0001
0010
0001
1000
0000
1000
0000
0010
1000
0010
1000
,  // measure 71
0100
0000
0100
0000
0010
0100
0010
0100
1000
0000
0000
0000
1001
0000
0000
0000
,  // measure 72
0001
0000
0001
0000
0100
0001
0100
0001
0010
0000
0010
0000
0100
1000
0100
1000
,  // measure 73
0010
0000
0010
0000
0100
0001
1000
0010
0110
0000
0000
0000
0000
0000
0000
0000
;

//---------------dance-single - ----------------
#NOTES:
     dance-single:
     :
     Medium:
     11:
     0.606923,0.532642,0.027176,0.072468,0.212876,458.000000,3.000000,8.000000,0.000000,0.000000,0.000000,0.606923,0.532642,0.027176,0.072468,0.212876,458.000000,3.000000,8.000000,0.000000,0.000000,0.000000:
0000
0000
0000
0000
,
0000
0000
0000
1000
,
0001
0010
0001
0010
0100
0010
0100
0010
,
0001
1000
0001
1000
0010
0100
0010
0100
,
0001
0100
1000
0100
0001
0010
1000
0010
,
0001
1000
0010
1000
0001
0100
0010
0100
,
0001
0010
0001
0010
0100
0010
0100
0010
,
1000
0010
0001
0010
0001
0100
1000
0100
,
0010
0100
0010
0100
0001
1000
0001
1000
,
0100
1000
0100
1000
0010
0010
0010
0010
,
0100
0001
0100
0001
0010
0001
0010
0001
,
1000
0001
0100
1000
0100
0001
1000
0100
,
0001
0100
0001
0100
0010
0100
0010
0100
,
0010
0001
0010
0100
1000
0100
1000
0010
,
0100
0010
0100
0010
1000
0001
1000
0001
,
0010
0001
0010
1000
0001
0100
1000
0100
,
0010
0100
0010
0100
1000
0100
1000
0100
,
0010
0001
0100
0010
1000
0010
0100
0000
,
0001
0000
0000
0001
0000
0000
0001
0000
0000
0000
1000
0000
0001
0000
0000
0000
,
1000
0000
0000
0100
0000
0000
0020
0000
0000
0000
0000
0000
0000
0000
0031
0000
,
0010
0000
0000
0010
0000
0000
0010
0000
0000
0000
0100
0000
0010
0000
0100
0000
,
1000
0000
0000
1000
0000
0000
1000
0000
0002
0000
0000
0000
0000
0000
0103
0000
,
0001
0000
0000
0001
0000
0000
0001
0000
0000
0000
0100
0000
0001
0000
0100
0000
,
0010
0000
0000
0010
0000
0000
0020
0000
0000
0000
0000
0000
0000
0000
1030
0000
,
0010
0000
0000
0010
0000
0000
0010
0000
0000
0000
1000
0000
0001
0000
1000
0000
,
0100
0000
0000
0100
0000
0000
0100
0000
0000
0000
0010
0000
0100
0000
0010
0000
,
0001
0100
0001
0100
0010
1000
0010
1000
,
0001
0010
0001
0010
0100
1000
0100
1000
,
0010
1000
0010
0001
1000
0100
0001
0100
,
0010
0000
1000
0000
0100
0000
0010
0000
0001
0000
0000
0001
0000
0000
0001
0000
,
2000
0000
0000
0000
,
3100
1000
0100
1000
0010
0100
0010
0100
,
0001
0010
0001
0010
0100
1000
0100
1000
,
0010
1000
0010
0001
0010
0100
0001
1000
,
0100
0000
0000
0100
0000
0000
0100
0000
0000
0000
0010
0000
0100
0000
0010
0000
,
0001
0000
0000
0001
0000
0000
0002
0000
0000
0000
0000
0000
0000
0000
1003
0000
,
0001
0000
0000
0001
0000
0000
0001
0000
0000
0000
0100
0000
0001
0000
0100
0000
,
1000
0000
0000
1000
0000
0000
1000
0000
0200
0000
0000
0000
0000
0000
0310
0000
,
0100
0000
0000
0100
0000
0000
0100
0000
0000
0000
0001
0000
0100
0000
0001
0000
,
0010
0000
0000
0010
0000
0000
0020
0000
0000
0000
0000
0000
0000
0000
0130
0000
,
0010
0000
0000
0010
0000
0000
0010
0000
0000
0000
0001
0000
0010
0000
0001
0000
,
1000
0000
0000
0010
0000
0000
0100
0000
0002
0000
0000
0000
0000
0000
1003
0000
,
0001
0000
0000
0001
0000
0000
1000
0000
0001
0000
0000
0001
0000
0000
1000
0000
,
0001
0000
0000
0001
0000
0000
1000
0000
0001
0000
0000
0100
0000
0000
0100
0000
,
0010
0000
0000
0010
0000
0000
0100
0000
0010
0000
0000
0010
0000
0000
0100
0000
,
0010
0000
0000
0010
0000
0000
0100
0000
0001
0000
0000
0010
0000
0000
0100
0000
,
1000
0000
0000
1000
0000
0000
0100
0000
1000
0000
0000
1000
0000
0000
0100
0000
,
1000
0000
0000
1000
0000
0000
0100
0000
1000
0000
0000
0001
0000
0000
0100
0000
,
0010
0000
0000
0010
0000
0000
1000
0000
0000
0000
0001
0000
0000
0000
0010
0000
,
0001
0000
0000
0001
0000
0000
1000
0000
0000
0000
0010
0000
0000
0000
0100
0000
,
0010
0000
0000
0010
0000
0000
0010
0000
0000
0000
1000
0000
0010
0000
1000
0000
,
0100
0000
0000
0001
0000
0000
0100
0000
1000
0000
0000
0000
0000
0000
0010
0000
,
0100
0000
0000
0100
0000
0000
0100
0000
0000
0000
0001
0000
0010
0000
0001
0000
,
0100
0000
0000
1000
0000
0000
0100
0000
0001
0000
0000
0000
0000
0000
0010
0000
,
0100
0000
0000
0100
0000
0000
0100
0000
0000
0000
1000
0000
0100
0000
1000
0000
,
0010
0000
0000
0001
0000
0000
0010
0000
1000
0000
0000
0000
0000
0000
0001
0000
,
1000
0000
0000
0100
0000
0000
1000
0000
0001
0000
0000
0000
0000
0000
0100
0000
,
0001
0000
0000
1000
0000
0000
0001
0000
0010
0000
0000
0000
0000
0000
0100
0000
,
0010
0000
0000
0010
0000
0000
0010
0000
0000
0000
0001
0000
0100
0000
0001
0000
,
1000
0000
0000
0100
0000
0000
0001
0000
0100
0000
0000
0000
0000
0000
0010
0000
,
0100
0000
0000
0100
0000
0000
0100
0000
0000
0000
1000
0000
0010
0000
1000
0000
,
0001
0000
0000
0100
0000
0000
1000
0000
0100
0000
0000
0000
0000
0000
0100
0000
,
0010
0000
0000
0010
0000
0000
0010
0000
0000
0000
1000
0000
0010
0000
1000
0000
,
0001
0000
0000
0010
0000
0000
1000
0000
0010
0000
0000
0000
0000
0000
0100
0000
,
0010
0000
0000
0001
0000
0000
0100
0000
0010
0000
0000
0000
0000
0000
1000
0000
,
0010
0000
0000
0100
0000
0000
0001
0000
1000
0000
0000
0000
0100
0000
0000
0000
,
0010
0010
1001
0000
0001
0100
0001
0100
,
0010
1000
0010
0001
1000
0100
0001
0100
,
0010
0010
1000
0010
1000
1000
0001
1000
,
0001
0001
0010
0010
0100
0100
1000
1000
,
0001
0100
0001
0100
0010
1000
0010
1000
,
0001
0010
0001
0010
0100
0000
1001
0000
,
1000
0010
1000
0010
0100
0001
0100
0001
,
0010
0001
0010
0001
1001
0000
0000
0000
;
