#TITLE:Lights;
#SUBTITLE:;
#ARTIST:Ellie Goulding;
#TITLETRANSLIT:;
#SUBTITLETRANSLIT:;
#ARTISTTRANSLIT:;
#GENRE:Electro-Pop;
#CREDIT:N. Muriel;
#BANNER:Lights.png;
#BACKGROUND:Lights-bg.png;
#LYRICSPATH:;
#CDTITLE:;
#MUSIC:Lights.mp3;
#OFFSET:-0.192;
#SAMPLESTART:39.420;
#SAMPLELENGTH:15.000;
#SELECTABLE:YES;
#DISPLAYBPM:120.000;
#BPMS:0.000=120.000
,76.000=121.410
,77.000=119.307
,78.000=121.410
,79.000=120.000
;
#STOPS:
;
#BGCHANGES:-0.500=Lights.avi=1.000=1=0=0=StretchNoLoop==CrossFade==,
99999=-nosongbg-=1.000=0=0=0 // don't automatically add -songbackground-
;
#KEYSOUNDS:;
#ATTACKS:;

//---------------dance-single - Blank----------------
#NOTES:
     dance-single:
     :
     Hard:
     8:
     0.436,0.381,0.318,0.179,0.065,257.000,32.000,18.000,0.000,0.000,0.000,0.436,0.381,0.318,0.179,0.065,257.000,32.000,18.000,0.000,0.000,0.000:
1000
0000
0000
1000
0000
0000
0001
0000
1000
0000
0001
0000
1000
0000
0000
0000
,
0100
0000
0000
0010
0000
0000
0010
0000
0100
0000
0100
0000
0010
0000
0000
0000
,
0100
0000
0000
0100
0000
0000
0100
0000
1000
0000
0001
0000
1000
0000
0000
0000
,
0100
0000
0000
0100
0000
0000
0100
0000
1000
0000
0010
0000
0100
0000
0001
0000
,
0100
0000
0100
0100
0010
0000
0100
0000
,
0001
0000
1000
0100
0000
0100
1000
0010
,
0001
0000
0001
0010
0000
0010
1000
0000
,
0100
0000
0010
0000
0100
1000
0001
0010
,
0001
0000
0000
0000
1000
0000
0010
0000
0000
0100
0001
0000
1000
0000
0000
0000
,
0100
0010
0100
0010
0000
0010
0001
0100
,
1000
0100
0001
0200
0000
0000
0000
0310
,
0100
0000
0100
0000
0001
0000
1000
0001
,
0000
0101
0000
0001
0000
0110
0000
1000
,
0010
0000
1010
0000
0000
1001
1000
0100
,
0000
0110
0000
0001
0000
0010
0010
0100
,
0000
1000
0001
0000
0100
0001
0100
0010
,
0000
1010
0000
0100
0000
0101
0000
0010
,
0100
0000
1000
0000
0010
0100
0001
0100
,
0000
0001
0000
1000
0000
0100
1000
0100
,
0000
0010
0000
0110
0000
0100
1000
0010
,
0001
0000
0011
0000
0010
0100
0000
0110
,
0000
0100
0001
0020
1000
0100
1030
0010
,
0100
0000
1000
0000
0001
0001
0001
0200
,
0000
0310
0000
0000
0010
1000
0100
0001
,
0101
0000
0100
0000
0010
0100
0000
1100
,
0000
1001
0000
2000
0010
0001
3010
1000
,
0100
0000
0110
0000
0010
0001
0010
0002
,
0000
1003
0000
0100
0000
0100
0000
0102
,
0000
0013
0000
2100
0000
3010
0000
0012
,
0000
0103
0000
1010
0000
1001
0000
0012
,
0000
0103
0000
2010
0000
3100
0000
0102
,
0000
0013
0000
1100
0000
0100
0010
0100
,
0110
0000
1100
0000
1000
0001
0000
0101
,
0000
0100
0000
0010
2000
0100
3001
1000
,
0001
0000
1001
0000
1000
0010
1000
0002
,
0000
0103
0000
0101
0000
0100
0010
0200
,
0000
0310
0000
0000
0110
0000
0010
2000
,
0000
3100
0000
0000
1000
0100
1000
0100
,
0010
0000
0001
0000
0101
0000
0100
0010
,
0100
0000
0010
0000
1000
0100
0010
0002
,
0000
0013
0000
0000
0011
0000
0010
0200
,
0000
0310
0000
0210
0000
1300
0100
0000
,
1000
0001
1000
0000
0001
0000
0100
0001
,
0000
0001
0010
0000
0100
1000
0010
0100
,
0001
0000
0000
0001
0000
0000
0001
0000
1000
0000
0000
1000
0000
0000
0001
0000
,
0000
0001
0000
0000
0001
0000
1000
0000
0000
1000
0000
0000
1000
0000
0100
0000
,
0100
0000
0000
0100
0000
0000
0100
0000
0010
0000
0000
0010
0000
0000
0010
0000
,
0000
0100
0000
0000
0100
0000
0100
0000
0000
1000
0000
0000
1000
0000
1000
0000
;

//---------------dance-single - Blank----------------
#NOTES:
     dance-single:
     :
     Easy:
     5:
     0.210,0.197,0.209,0.159,0.000,111.000,21.000,16.000,0.000,0.000,0.000,0.210,0.197,0.209,0.159,0.000,111.000,21.000,16.000,0.000,0.000,0.000:
0000
0000
0000
0000
,
0000
0000
0000
0000
,
0000
0000
0000
0000
,
0000
0000
0000
1000
,
1000
0000
0001
0000
,
1000
0000
0100
0100
,
1000
0000
0001
0000
,
0001
0000
0010
0010
,
0100
0000
1000
0000
,
0001
0000
0100
0100
,
0010
0000
1000
0000
,
0001
0000
0010
0010
,
0110
0000
1001
0000
,
0110
0000
1001
0000
,
0110
0000
0010
0000
,
1000
0000
0010
0000
,
0110
0000
1001
0000
,
0110
0000
1001
0000
,
0110
0000
0010
0000
,
0001
0000
0010
0100
,
0110
0000
0100
0000
1000
0000
0000
0001
,
0000
1000
0100
0010
,
0001
0001
0001
0000
,
2000
0010
3010
0010
,
0100
0100
0001
1000
,
0100
0010
0001
1000
,
0010
0010
1000
0100
,
0001
0100
0010
0001
,
2000
3000
2000
3000
,
0020
0030
0110
0100
,
0002
0003
0002
0003
,
0020
0030
0110
0100
,
1000
0001
1000
0001
,
0100
0010
0200
0301
,
0001
0010
0001
0010
,
0100
1000
0100
1000
,
1002
0000
0103
0000
,
0102
0000
0013
0000
,
0021
0000
1030
0000
,
1020
0000
0130
0000
,
0210
0000
1300
0000
,
2100
0000
3001
0000
,
1002
0000
0103
0000
,
0201
0000
0310
0000
,
0010
0000
0000
0000
;

//---------------dance-single - Blank----------------
#NOTES:
     dance-single:
     :
     Beginner:
     1:
     0.089,0.087,0.119,0.080,0.000,43.000,12.000,8.000,0.000,0.000,0.000,0.089,0.087,0.119,0.080,0.000,43.000,12.000,8.000,0.000,0.000,0.000:
0000
0000
0000
0000
,
0000
0000
0000
0000
,
0000
0000
0000
0000
,
0000
0000
0000
0000
,
1000
0000
0000
0000
,
0100
0000
0000
0000
,
1000
0000
0000
0000
,
0100
0000
0000
0000
,
1000
0000
0000
0000
,
0001
0000
0000
0000
,
1000
0000
0000
0000
,
0001
0000
0000
0000
,
0010
0000
0000
0000
,
0100
0000
0000
0000
,
0010
0000
0000
0000
,
0100
0000
0000
0000
,
1000
0000
0000
0000
,
0001
0000
0000
0000
,
0100
0000
0000
0000
,
0010
0000
0000
0000
,
0110
0000
0000
0000
0000
0000
0000
1001
,
0000
0000
0000
0000
,
0110
0000
0000
0000
0000
0000
0000
1001
,
0000
0000
0000
0000
,
1001
0000
0000
0000
0000
0000
0000
0110
,
0000
0000
0000
0000
,
1001
0000
0000
0000
0000
0000
0000
0110
,
0000
0000
0000
0000
,
0010
0000
0010
0000
,
0010
0000
0000
0000
,
1000
0000
1000
0000
,
1000
0000
0000
0000
,
1001
0000
0000
0000
0000
0000
0000
1001
,
0000
0000
0000
0000
,
0110
0000
0000
0000
0000
0000
0000
0110
,
0000
0000
0000
0000
,
0020
0000
0000
0000
,
0032
0000
0000
0000
,
0203
0000
0000
0000
,
2300
0000
0000
0000
,
3020
0000
0000
0000
,
2030
0000
0000
0000
,
3200
0000
0000
0000
,
0302
0000
0000
0000
,
1003
0000
0000
0000
;

//---------------dance-single - ----------------
#NOTES:
     dance-single:
     :
     Medium:
     6:
     0.256,0.241,0.099,0.139,0.005,156.000,10.000,14.000,0.000,0.000,0.000,0.256,0.241,0.099,0.139,0.005,156.000,10.000,14.000,0.000,0.000,0.000: // measure 0
1000
0000
0000
1000
0001
0000
0000
0000
,  // measure 1
0010
0000
0000
0010
0100
0000
0000
0000
,  // measure 2
1000
0000
0000
1000
0100
0000
0000
0000
,  // measure 3
0010
0000
0000
0010
0001
0000
0100
0000
,  // measure 4
0001
0000
1000
0002
0000
0000
0000
0013
,  // measure 5
0000
0000
0000
0100
0000
0100
0000
0000
,  // measure 6
1000
0000
0000
0001
0000
0000
2000
0000
0000
0000
0000
0000
0000
0000
0000
0000
,  // measure 7
0010
0010
3010
1000
,  // measure 8
0001
0000
0000
0010
0000
0100
0000
0000
,  // measure 9
0000
1000
0100
0010
0000
0000
0100
0000
,  // measure 10
1000
0001
0100
0020
0000
0000
0000
1030
,  // measure 11
0000
0000
0000
0000
0000
0000
0010
0100
,  // measure 12
0000
0001
0000
0100
0000
0010
0000
2000
,  // measure 13
0000
0000
0000
0000
0000
0000
3001
1000
,  // measure 14
0000
0100
0000
1000
0000
0010
0000
0001
,  // measure 15
0000
0010
0000
0000
0000
0000
0100
0010
,  // measure 16
0000
1000
0000
0001
0000
0010
0000
0200
,  // measure 17
0000
0000
0000
0000
0000
0000
1300
0100
,  // measure 18
0000
0010
0000
0001
0000
1000
0000
0010
,  // measure 19
0000
0100
0000
0000
0000
0001
0100
0000
,  // measure 20
0010
0000
0010
0000
0010
0000
0000
1010
,  // measure 21
0000
1000
0000
0000
0001
1000
0001
0000
,  // measure 22
1001
0000
1000
0000
0100
0000
0000
0020
,  // measure 23
0000
0130
0000
0000
0000
0010
0001
0000
,  // measure 24
0101
0000
0100
0000
0010
0000
0000
1010
,  // measure 25
0000
1000
0000
0000
0001
1000
0001
0000
,  // measure 26
0011
0000
0100
0000
1000
0000
0000
2020
,  // measure 27
0000
0000
3030
0100
0000
0001
0000
1000
,  // measure 28
0000
1000
0000
0001
0000
0001
0000
0010
,  // measure 29
0000
0010
0000
0100
0000
0100
0000
1000
,  // measure 30
0000
1000
0000
0001
0000
0001
0000
0010
,  // measure 31
0000
0010
0000
0200
0000
0000
1300
0000
,  // measure 32
0110
0000
0010
0000
0001
0000
0000
0101
,  // measure 33
0000
0100
0000
0000
0010
1000
0010
0000
,  // measure 34
0110
0000
0100
0000
0001
0000
0000
2000
,  // measure 35
0000
0000
0000
0000
0001
0000
3001
2000
,  // measure 36
0000
0100
0000
0000
3010
0000
0000
0020
,  // measure 37
0000
0100
0000
0000
0031
0000
0010
0000
,  // measure 38
1000
0100
0010
0001
,  // measure 39
0100
0000
0010
0000
0100
0000
0010
2000
,  // measure 40
0000
0001
0000
0000
3100
0000
0000
2000
,  // measure 41
0000
0001
0000
0010
0000
0000
3100
0000
,  // measure 42
1000
0100
0001
1000
,  // measure 43
0010
0001
0100
0010
,  // measure 44
0110
0000
0000
0000
;
