#TITLE:Just Give Me a Reason (feat. Nate Ruess);
#SUBTITLE:;
#ARTIST:P!NK;
#TITLETRANSLIT:;
#SUBTITLETRANSLIT:;
#ARTISTTRANSLIT:;
#GENRE:Vocal;
#CREDIT:;
#BANNER:Just Give Me a Reason (feat. Nate Ruess).png;
#BACKGROUND:;
#LYRICSPATH:;
#CDTITLE:;
#MUSIC:Just Give Me a Reason (feat. Nate Ruess).mp3;
#OFFSET:0.291391;
#SAMPLESTART:47.700001;
#SAMPLELENGTH:15.000000;
#SELECTABLE:YES;
#BPMS:0.000000=95.000000
,142.000000=99.574799
,143.000000=96.330299
,144.000000=94.133598
,145.000000=97.692497
,146.000000=93.287300
,147.000000=94.564201
,148.000000=90.033699
,149.000000=95.002197
,150.000000=94.998703
,152.000000=95.002197
,153.000000=100.056999
,154.000000=96.781303
,155.000000=84.859398
,156.000000=100.056999
;
#STOPS:
;
#BGCHANGES:-0.500=Just Give Me a Reason (feat. Nate Ruess).avi=1.000=0=0=0=StretchNoLoop====,
99999=-nosongbg-=1.000=0=0=0 // don't automatically add -songbackground-
;
#KEYSOUNDS:;
#ATTACKS:;

//---------------dance-single - ----------------
#NOTES:
     dance-single:
     :
     Easy:
     4:
     0.181519,0.149037,0.009554,0.047768,0.000000,127.000000,1.000000,5.000000,0.000000,0.000000,0.000000,0.181519,0.149037,0.009554,0.047768,0.000000,127.000000,1.000000,5.000000,0.000000,0.000000,0.000000:
0000
0000
0000
0000
,
1000
1000
1000
0000
,
0001
0001
0100
0000
,
0010
0000
0010
1000
,
0001
0010
0100
1000
,
0010
0010
0010
0000
,
0100
0100
0001
0000
,
1000
0100
1000
0001
,
0100
0010
1000
0001
,
0010
0010
0100
0100
,
1000
0000
0010
1000
,
0001
0001
0010
0010
,
0100
0000
0010
0001
,
0100
0100
0010
0010
,
1000
0000
0010
1000
,
0001
0000
2000
0000
,
3100
0000
2000
0000
,
3010
0000
0020
0000
,
0130
0000
0200
0000
,
0301
0001
0100
0001
,
1000
1000
0100
1000
,
0010
0010
0100
0010
,
1000
1000
0001
1000
,
0100
0100
0001
0100
,
1000
1000
0010
1000
,
0010
0010
0100
0010
,
0100
0100
0001
0010
,
0100
0000
1000
0100
,
1000
0000
0010
0100
,
0020
0000
1030
1000
,
1000
0000
0001
0010
,
0001
0000
0100
0000
,
0010
0000
1000
0001
,
1000
0100
0001
0100
,
1000
0010
0001
0010
,
0100
0100
0001
0001
,
1000
1000
0100
0100
,
0010
0000
0001
0000
,
1000
0000
0001
1000
,
1001
0000
0000
0000
;

//---------------dance-single - ----------------
#NOTES:
     dance-single:
     :
     Hard:
     11:
     0.432644,0.335333,0.410807,0.162412,0.119421,257.000000,43.000000,17.000000,0.000000,0.000000,0.000000,0.432644,0.335333,0.410807,0.162412,0.119421,257.000000,43.000000,17.000000,0.000000,0.000000,0.000000:
// measure 0
0000
0000
0000
0000
0000
0000
0000
0100
,  // measure 1
1000
0000
0000
0000
0000
0000
0100
0000
0000
0000
0000
0000
0010
0000
0000
0000
0001
0000
0000
0000
0000
0000
0000
0000
1000
0000
0000
0010
0000
0000
1000
0000
0000
0000
0000
0000
0000
0000
0000
0000
0000
0000
0001
0000
0000
0000
0000
0000
,  // measure 2
0010
0100
0010
0000
0001
0000
1000
0010
0000
1000
0000
0000
0001
0000
0010
0000
,  // measure 3
0100
0000
0010
0001
1000
0010
0110
0010
,  // measure 4
1000
0000
0000
0000
1001
0000
0000
0000
0001
0000
0010
0000
0100
0010
0100
0000
,  // measure 5
1000
0100
0010
0100
1000
0001
0000
0000
0100
0010
0000
0000
1000
0000
0010
0000
,  // measure 6
1000
0000
0001
0000
0010
0000
0100
0000
0001
0100
1000
0000
1001
0000
0001
0000
,  // measure 7
0100
0000
0000
0000
0010
2000
0000
0000
3001
0000
0000
0000
1000
0000
0100
0000
,  // measure 8
0010
0000
0000
0000
0110
0000
0000
0100
1000
0000
0001
0000
0100
0010
1000
0000
,  // measure 9
0001
0001
0010
0100
0001
0000
1020
0001
,  // measure 10
0031
0101
0110
2010
,  // measure 11
3001
0001
1000
0100
0010
0000
1020
0001
,  // measure 12
0031
0101
0110
2010
,  // measure 13
3100
0100
1000
0100
0010
0000
0210
1000
,  // measure 14
1300
0000
1001
0001
0101
0000
0120
0000
,  // measure 15
1030
0000
0000
0000
0010
0000
0010
0000
0200
0000
0000
0302
0000
2000
0003
0000
,  // measure 16
3100
0000
0000
0000
1000
0000
0100
0000
0010
0000
0000
0010
0000
0000
0001
0000
,  // measure 17
1000
0000
0010
0100
0110
0000
0100
0001
,  // measure 18
1001
0000
1000
0100
0201
0000
1300
0000
,  // measure 19
1010
0010
0100
1000
0001
0010
0100
0001
,  // measure 20
1000
0100
0001
1000
0010
0000
0110
0100
,  // measure 21
1000
1000
0001
0100
0001
0010
0100
1100
,  // measure 22
0000
0000
1000
0000
0001
0000
0100
0000
0100
0000
0010
0000
0100
0010
2000
0000
,  // measure 23
0000
3001
1000
0001
0101
0000
0110
0010
,  // measure 24
1000
1000
0001
1000
0100
0100
0001
0100
,  // measure 25
0000
0010
0100
1000
0010
0100
0001
0101
,  // measure 26
0000
0000
1001
0000
1000
0000
0100
0000
0100
0000
0010
0000
0100
1000
0001
0000
,  // measure 27
0100
0000
0110
0010
0000
2000
3001
0002
,  // measure 28
0013
0000
0000
0000
0110
0000
0100
0000
0100
0000
1000
0000
0010
0100
0020
0000
,  // measure 29
0000
0000
0030
0000
1001
0000
0100
0000
0000
0000
0002
0000
0013
0000
0010
0100
,  // measure 30
1000
0000
0000
0000
1001
0000
0001
0000
0001
0000
0100
0000
0010
0100
0001
0000
,  // measure 31
1000
0000
1100
0100
0000
0010
0110
0100
,  // measure 32
1000
0000
1001
0001
0000
0100
0201
0310
,  // measure 33
0000
1000
1000
0001
0100
0001
0010
0100
,  // measure 34
0000
0000
0000
0010
0000
0000
0010
0000
0000
0001
0000
0000
0001
0000
0000
1000
0000
0000
0010
0000
1000
0000
0100
0000
,  // measure 35
0010
0010
0010
0001
1000
0000
1010
0000
,  // measure 36
0110
0000
0101
0001
1001
0000
1100
0000
,  // measure 37
0110
0000
0110
0000
,  // measure 38
1001
0000
0000
0000
0000
0000
0000
0000
1000
0000
0010
0000
0100
0001
0100
0000
,  // measure 39
0110
0000
0000
0000
;

//---------------dance-single - ----------------
#NOTES:
     dance-single:
     :
     Beginner:
     1:
     0.054592,0.055889,0.000000,0.028661,0.000000,37.000000,0.000000,3.000000,0.000000,0.000000,0.000000,0.054592,0.055889,0.000000,0.028661,0.000000,37.000000,0.000000,3.000000,0.000000,0.000000,0.000000:
0000
0000
0000
0000
,
0000
0000
0000
0000
,
0000
0000
0000
0000
,
0000
0000
0000
0000
,
0000
0000
0000
0000
,
1000
0000
0000
0000
,
1000
0000
0000
0000
,
0001
0000
0000
0000
,
0001
0000
0000
0000
,
0100
0000
0100
0000
,
0100
0000
0000
0000
,
0100
0000
0100
0000
,
0100
0000
0000
0000
,
0010
0000
0010
0000
,
0010
0000
0000
0000
,
0010
0000
0010
0000
,
0010
0000
0000
0000
,
0010
0000
0010
0000
,
0020
0000
0000
0000
,
1030
0000
0000
0000
,
1000
0000
0000
0000
,
0001
0000
0000
0000
,
0001
0000
0000
0000
,
0010
0000
0000
0000
,
0010
0000
0000
0000
,
0100
0000
0000
0000
,
0100
0000
0000
0000
,
1000
0000
0000
0000
,
0100
0000
0000
0000
,
0001
0000
0000
0000
,
0100
0000
0000
0000
,
1000
0000
0000
0000
,
0010
0000
0000
0000
,
0001
0000
0000
0000
,
0010
0000
0000
0000
,
0200
0000
0000
0000
,
0300
0000
0000
0000
,
0020
0000
0000
0000
,
0000
0000
0000
0000
,
0030
0000
0000
0000
;

//---------------dance-single - ----------------
#NOTES:
     dance-single:
     :
     Medium:
     7:
     0.304352,0.279444,0.124197,0.028661,0.028661,207.000000,13.000000,3.000000,0.000000,0.000000,0.000000,0.304352,0.279444,0.124197,0.028661,0.028661,207.000000,13.000000,3.000000,0.000000,0.000000,0.000000:
0000
0000
0000
0000
,
1000
0000
0000
0010
0000
0000
1000
0000
0001
0000
0000
0000
0010
0000
0000
0010
0000
0000
0000
0000
0000
0100
0000
0000
,
0010
0000
0100
0000
1000
0000
0010
0000
0000
0100
0000
0000
0000
0000
0001
0000
,
1000
0000
0000
0100
1000
0010
0000
0200
,
0310
0000
0100
0000
0001
0010
0100
1000
,
0010
0000
0010
0000
0010
0000
1000
0000
0000
0001
0000
0000
0000
0000
0010
0000
,
0001
0100
0010
1000
0010
0100
0000
0001
,
1000
0000
0100
0000
0010
0000
0100
1000
,
0000
0000
0010
0000
0100
0001
0010
0100
,
1000
1000
1000
0001
0100
0000
0010
0000
,
1010
1000
1001
1001
,
0001
0001
0001
0010
0100
0000
0010
0000
,
0011
0001
1001
1001
,
1000
0010
0001
0010
0100
0000
0001
0000
,
1001
0000
1000
0100
1000
0000
0100
0000
,
0110
0000
0000
0000
0010
0000
0000
0000
0001
0000
0000
0001
0000
0001
0000
0000
,
1000
0000
0000
0000
0010
0000
0000
0000
0100
0000
0000
0001
0000
0000
0100
0000
,
0010
0000
1000
0001
1000
0000
0100
0010
,
0100
0000
1000
0100
0020
0000
0000
0000
,
0031
0001
0010
0100
0010
0000
0001
0001
,
0010
0100
0010
0001
1000
0000
0010
0010
,
1000
0100
1000
0010
0100
0001
1000
0010
,
0000
1000
0001
1000
0100
0000
0020
0000
,
0000
0031
0001
0010
0001
0000
1000
1000
,
0010
1000
0100
0010
0100
1000
0001
1000
,
0000
0000
0001
0000
0100
0010
1000
0100
,
0000
0010
0100
0010
0001
1000
0001
1000
,
0000
0000
0010
0010
0000
0100
0100
0000
,
0000
0000
0001
0001
0000
1000
1000
0000
,
0000
0000
0010
0010
0000
0100
0100
0000
,
0000
0000
0001
0001
0000
1000
1000
0000
,
0100
0000
1000
0000
0010
0100
0010
0000
,
0100
0000
0001
0000
0010
0100
0010
0001
,
0000
1000
0001
1000
0010
0100
0010
1000
,
0000
0100
1000
0100
0010
0001
1000
0010
,
0100
0100
0001
1000
,
1001
0000
0010
0010
,
0110
0000
1001
0000
,
0011
0000
0000
0000
0001
0010
0100
1000
,
1001
0000
0000
0000
;
