#VERSION:0.81;
#TITLE:Candii;
#SUBTITLE:;
#ARTIST:HachioujiP;
#TITLETRANSLIT:;
#SUBTITLETRANSLIT:;
#ARTISTTRANSLIT:;
#GENRE:Vocaloid;
#ORIGIN:;
#CREDIT:;
#BANNER:Candii.png;
#BACKGROUND:Candii-bg.png;
#PREVIEWVID:;
#JACKET:Candii-jacket.png;
#CDIMAGE:;
#DISCIMAGE:;
#LYRICSPATH:;
#CDTITLE:;
#MUSIC:Candii.mp3;
#OFFSET:-0.362;
#SAMPLESTART:73.080;
#SAMPLELENGTH:15.000;
#SELECTABLE:YES;
#BPMS:0.000=132.000;
#STOPS:;
#DELAYS:;
#WARPS:;
#TIMESIGNATURES:0.000=4=4;
#TICKCOUNTS:0.000=4;
#COMBOS:0.000=1;
#SPEEDS:0.000=1.000=0.000=0;
#SCROLLS:0.000=1.000;
#FAKES:;
#LABELS:0.000=Song Start;
#BGCHANGES:;
#KEYSOUNDS:;
#ATTACKS:
;

//---------------dance-single - ----------------
#NOTEDATA:;
#CHARTNAME:;
#STEPSTYPE:dance-single;
#DESCRIPTION:;
#CHARTSTYLE:;
#DIFFICULTY:Easy;
#METER:6;
#RADARVALUES:0.289,0.322,0.125,0.212,0.000,175.000,13.000,22.000,0.000,0.000,0.000,0.000,0.000,0.289,0.322,0.125,0.212,0.000,175.000,13.000,22.000,0.000,0.000,0.000,0.000,0.000;
#CREDIT:;
#NOTES:
0000
0000
0000
0000
,
0000
0000
0000
0000
,
0000
0000
0000
0000
,
0000
0000
0000
0000
,
1000
1000
0001
0001
,
1000
0010
0001
0010
,
1000
1000
0001
0001
,
1000
0100
0001
0100
,
2000
0000
0000
0000
,
3020
0000
0100
0130
,
0020
0000
0000
0000
,
0230
0000
0001
0301
,
0200
0000
0000
0000
,
0302
0000
1000
1003
,
0002
0000
0000
0000
,
1003
0000
0110
0110
,
0010
0001
0100
0001
,
0010
1000
0001
0100
,
1000
0010
0100
0010
,
1000
0001
0010
0001
,
0010
0100
1000
0100
,
1000
0010
0001
0010
,
0100
1000
0001
0010
,
1000
1000
0110
0110
,
0010
0000
0000
0010
0000
0000
0010
0000
,
0000
0100
0000
0000
0100
0000
0100
0000
,
0000
1000
0000
0000
0000
1000
0000
0000
,
0000
0001
0000
0000
0001
0000
0002
0000
,
0103
0000
0000
0100
0000
0000
0100
0000
,
0000
0010
0000
0000
0010
0000
0010
0000
,
0000
1000
0000
0000
0000
1000
0000
0000
,
0001
0000
0010
0020
,
0130
0000
0000
0100
0000
0000
0100
0000
,
0000
1000
0000
0000
1000
0000
1000
0000
,
0001
0000
0000
0001
0000
0000
0001
0000
,
0000
0100
0000
0000
0010
0000
0020
0000
,
1030
0000
0000
1000
0000
0000
1000
0000
,
0000
0001
0000
0000
0001
0000
0001
0000
,
0100
0000
0000
0100
0000
0000
0100
0000
,
0010
0010
1000
1000
,
0002
1003
0001
0010
,
0200
0310
0100
1000
,
0020
1030
0010
0100
,
0002
1003
0001
0010
,
0200
1000
0310
0110
,
0020
0001
0130
0110
,
0010
0010
0001
0001
,
0100
0010
1000
0001
,
2000
0100
3010
1100
,
0200
0010
0301
0110
,
0020
0001
0130
0011
,
0002
0100
0013
0101
,
0200
0010
1300
0110
,
0020
1000
0130
1010
,
1000
1000
0001
0001
,
0010
0010
0100
0110
;

//---------------dance-single - ----------------
#NOTEDATA:;
#CHARTNAME:;
#STEPSTYPE:dance-single;
#DESCRIPTION:;
#CHARTSTYLE:;
#DIFFICULTY:Medium;
#METER:9;
#RADARVALUES:0.415,0.429,0.067,0.058,0.116,289.000,7.000,6.000,0.000,0.000,0.000,0.000,0.000,0.415,0.429,0.067,0.058,0.116,289.000,7.000,6.000,0.000,0.000,0.000,0.000,0.000;
#CREDIT:;
#NOTES:
0000
0000
0000
0000
,
0000
0000
0000
0000
,
0000
0000
0000
0000
,
0000
0000
0000
0000
,
0000
0000
0010
0000
0000
0010
0000
0000
0000
0000
1000
0000
0001
0000
1000
0000
,
0000
0000
0100
0000
0000
0100
0000
0000
0000
0000
1000
0000
0001
0000
1000
0000
,
0000
0000
0010
0000
0000
0010
0000
0000
0000
0000
0100
0000
0010
0000
0100
0000
,
0001
0000
0010
0000
0000
0010
0000
0000
0100
0000
0010
0000
0100
0000
0000
0000
,
2000
0000
0000
0001
0000
0010
0001
0000
,
0010
0000
0000
3100
1000
0100
0010
0002
,
0100
0000
0000
1000
0000
0100
1000
0000
,
0100
0000
0000
0010
0000
0100
0013
0000
,
0200
0000
0000
1000
0000
0010
1000
0000
,
0010
0000
0000
0301
0100
1000
0010
0200
,
0010
0000
0000
0001
0000
0010
0301
0000
,
0101
0000
0001
0000
1000
0001
1000
0000
,
0100
0010
0001
0010
0100
0010
1000
0010
,
0001
0010
0100
0010
0001
0010
0100
1000
,
0010
1000
0100
1000
0001
1000
0010
1000
,
0100
1000
0001
1000
0010
1000
0001
0000
,
0010
0001
0100
0001
1000
0001
0010
0001
,
0100
0001
0010
0001
1000
0001
0100
0001
,
0010
0100
1000
0100
0010
0100
0001
0100
,
1000
0000
0000
1000
0000
0000
1000
0000
0000
0000
0001
0000
1000
0000
0100
0000
,
0010
0000
0000
0100
0000
0000
0110
0000
,
0000
0010
0000
0000
0001
0000
0100
0000
,
0000
0000
0010
0000
0000
0010
0000
0000
0000
0000
0010
0000
1000
0000
0001
0000
,
0000
0000
0100
0000
0000
0100
0000
0000
0001
0000
1000
0000
0002
0000
0000
0000
,
0013
0000
0000
0100
0000
0000
0110
0000
,
0000
0100
0000
0000
1000
0000
0001
0000
,
0000
0000
0100
0000
0000
0100
0000
0000
0000
0000
0010
0000
1000
0000
0001
0000
,
0010
0000
0000
0001
0000
0000
0100
0000
0000
0001
0000
0000
2000
0000
0000
0000
,
3100
0000
0000
1000
0000
0000
1001
0000
,
0000
0000
0001
0000
0000
0001
0000
0000
0100
0000
0000
0000
0010
0000
1000
0000
,
0001
0000
0000
0001
0000
0000
0011
0000
,
0000
0000
0010
0000
0000
0100
0000
0000
1000
0000
0000
0010
0000
0000
0100
0000
,
0001
0000
0000
1000
0000
0000
1001
0000
,
0000
0000
1000
0000
0000
0100
0000
0000
0001
0000
0000
0100
0000
0000
1000
0000
,
0010
0000
0000
0100
0000
0000
0010
0000
0000
1000
0000
0000
0001
0000
0000
0000
,
0010
0000
0000
0100
0000
0000
0010
0000
0000
0001
0000
0000
0100
0000
0000
0000
,
0010
0000
0010
0000
1000
0001
1000
0000
,
0100
0000
0100
0010
0001
0010
0100
0000
,
1000
0000
1000
0000
0010
0100
0010
0000
,
0100
0000
0100
0001
0010
0001
0100
0000
,
0001
0000
0001
0000
1000
0100
1000
0000
,
0010
0000
0010
1000
0100
1000
0010
0000
,
0100
0000
0000
0100
0000
0000
0010
0000
0000
0000
0010
0000
0100
0000
0010
0000
,
1000
0000
0000
1000
0000
0000
0001
0000
0000
1000
0000
0000
0001
0000
0010
0000
,
0100
1000
0100
1000
0001
1000
0001
1000
,
0001
0100
0001
0100
0010
0100
0010
0000
,
0100
0010
0100
0010
1000
0010
1000
0010
,
1000
0001
1000
0001
0010
0001
0010
0000
,
0100
0010
0001
0010
1000
0010
0001
0000
,
0100
0010
1000
0010
0001
0010
1000
0000
,
0001
1000
0010
1000
0001
0010
0001
0100
,
0010
0000
0000
0000
1000
0000
0100
0000
0000
0000
0010
0000
0001
0000
0000
1000
0000
0000
1001
0000
0000
0000
0000
0000
;

//---------------dance-single - ----------------
#NOTEDATA:;
#CHARTNAME:;
#STEPSTYPE:dance-single;
#DESCRIPTION:;
#CHARTSTYLE:;
#DIFFICULTY:Challenge;
#METER:16;
#RADARVALUES:0.707,0.644,0.289,0.183,0.698,465.000,30.000,19.000,0.000,0.000,0.000,0.000,0.000,0.707,0.644,0.289,0.183,0.698,465.000,30.000,19.000,0.000,0.000,0.000,0.000,0.000;
#CREDIT:;
#NOTES:
0000
0000
0000
0000
,
0000
0000
0000
0000
,
0000
0000
0000
0000
,
0000
0000
0000
0000
0000
0000
0000
0000
0000
0000
0010
1000
0100
0000
0010
0100
,
0010
0000
0100
0000
0010
0001
0000
0000
0010
0000
0100
0000
0010
0001
0010
0001
,
0100
0000
0010
0000
1000
0010
0000
0000
1000
0000
0001
0000
0010
0100
0010
0100
,
1000
0000
0010
0000
1000
0001
0000
0000
0010
0000
0100
0000
0010
0100
0010
0100
,
1000
0000
1001
0000
0000
1001
0000
0000
1000
0000
0010
0100
0001
0010
0001
0100
,
0020
0000
0000
1000
0000
1000
0100
0000
0000
0000
0001
0000
0100
0000
1000
0000
,
0100
0000
0000
1000
0000
1000
0130
0000
0020
0000
2030
0000
3002
0000
0023
0000
,
0100
0000
0000
0100
0000
0100
0001
0000
0000
0000
0001
0000
0100
0000
1000
0100
,
1000
0000
0000
0100
0000
0100
0001
0000
0000
0001
1000
0000
0100
0000
1000
0100
,
0032
0000
0000
0010
0000
0010
1000
0000
0000
1000
0100
0000
0010
0000
1000
0000
,
1000
0000
0000
0010
0000
0010
1003
0000
0002
0000
0203
0000
0302
0000
2003
0000
,
0001
0000
0000
0010
0000
0010
0001
0000
0000
0001
0100
0000
0010
0000
3001
0100
,
0001
0000
0000
0000
0000
0000
0000
0000
0000
0000
0000
0000
1001
0000
0000
0000
0000
0000
1000
0000
0000
0000
0010
0000
1000
0000
0000
0000
0000
0000
0001
0000
0000
0000
0000
0000
0010
0000
0000
0000
0000
0000
0100
0000
0000
0010
0000
0000
,
0001
0010
0001
0010
0001
0000
0100
0000
0001
0010
0001
0010
0100
0000
1000
0000
,
0010
1000
0010
1000
0010
0000
0100
0000
0010
1000
0010
1000
0001
0000
0010
0000
,
0100
0010
0100
0010
0100
0000
1000
0000
0100
0010
0100
0010
0001
0000
0100
0000
,
0001
0100
0001
0100
0001
0000
0010
0000
0001
0100
0001
0100
0010
0000
1000
0000
,
0001
1000
0001
1000
0001
0000
0010
0000
0001
1000
0001
1000
0100
0000
0010
0000
,
0100
0010
0100
0010
0100
0000
1000
0000
0100
0010
0100
0010
0001
0000
0100
0000
,
0010
0100
0010
0100
0010
0000
1000
0000
0100
0010
0100
0010
0100
1000
0001
0100
,
0010
0000
0000
0000
0000
0000
0000
0000
0000
0100
0000
0000
0000
0000
0000
0100
0000
0000
0010
0000
0000
0000
1000
0000
0010
0000
0000
0000
0000
0000
1000
0000
0000
0000
0000
0000
0001
0000
0000
0000
0000
0000
0010
0000
0000
0001
0000
0000
,
0100
0000
0010
1010
0000
1000
1001
0000
,
0001
0021
0000
0130
0110
0000
0110
0000
,
0010
0000
0001
0000
0000
0101
0000
0000
0001
0000
1000
0000
0100
1000
0100
1000
,
0010
0000
0000
0000
0000
0000
0100
0000
0000
0000
0000
0000
0000
0000
0000
0001
0000
0000
0100
0000
0000
0010
0000
0000
1000
0000
0000
0000
0000
0000
0001
0000
0000
0000
0000
0000
1000
0000
0001
0000
1000
0000
0001
0000
1000
0000
0001
0000
,
0010
0000
0100
0110
0000
0100
1100
0000
,
1000
1002
0000
0103
0101
0000
0110
0000
,
0010
0000
1000
0000
0000
1100
0000
0000
0100
0000
0010
0000
0100
0010
0001
0100
,
0010
0000
0000
1000
0000
0000
0010
0000
0000
1000
0000
0000
0001
0000
0000
0010
0000
0000
0100
0010
0100
0010
0100
0010
,
0001
0000
0100
0000
0000
0110
0000
0000
0010
0000
1000
0000
0001
1000
0001
1000
,
0001
0000
0010
0000
0000
0110
0000
0000
0100
0000
0001
0000
0100
0000
0001
0000
,
0100
0000
1000
0000
0000
1010
0000
0000
0010
0000
0100
0000
0001
0100
0001
0100
,
0001
0000
0000
0000
0000
0000
0010
0000
0000
0000
0000
0000
0000
0000
0000
0110
0000
0000
0000
0000
0000
0000
0000
0000
0100
0000
0000
0000
0000
0000
1000
0000
0000
0000
0000
0000
0001
0000
1000
0000
0001
0000
1000
0000
0001
0000
1000
0000
,
0010
0000
0100
0000
0000
0101
0000
0000
0001
0000
0010
0000
0100
0010
0100
0010
,
0100
0000
1000
0000
0000
1001
0000
0000
0001
0000
0100
0000
0001
0000
0100
0000
,
0001
0000
0000
0010
0000
0000
0100
0000
0000
1000
0000
0000
0001
1000
0001
1000
,
0010
0000
0100
0010
0000
0100
0010
0000
0100
0001
0100
0001
0010
0000
0100
0010
,
0200
0000
0000
1000
0000
0000
1000
0000
0000
0000
0010
0000
1000
0000
0010
0000
,
0001
0000
0000
0301
0000
0000
0100
0000
1000
0000
0010
0000
0100
0000
0002
0000
,
0010
0000
0000
0010
0000
0000
1000
0000
0000
0000
0010
0000
1000
0000
0100
1000
,
0100
0000
0000
1003
0000
0000
0001
0000
0010
0000
0100
0010
0100
0000
0020
0100
,
1000
0000
0000
0001
0000
0000
1000
0000
0000
0000
0001
0000
0100
0000
1000
0000
,
0100
0000
0000
0100
0030
0000
0010
0000
0001
0000
0100
0000
0010
0000
1000
0010
,
0100
0000
0000
0100
0000
0000
0101
0000
0000
0000
0001
0000
0010
0100
0010
0100
,
0010
0000
0000
0000
0000
0000
0001
0000
0000
0010
0000
0000
0000
0000
0000
0010
0000
0000
0100
0000
0000
0000
0010
0000
0100
0000
0000
0000
0000
0000
0010
0000
0000
0000
0000
0000
0100
0000
0000
0000
0000
0000
1000
0000
0000
0100
0000
0000
,
1000
0001
1000
0001
2000
0000
0000
0000
3020
0000
0000
0000
0130
0000
0010
0100
,
0000
0100
0001
0010
0100
0110
0000
0010
,
0001
0010
0001
0010
0002
0000
0000
0000
0203
0000
0000
0000
0310
0000
1000
0000
,
1000
0000
0001
0000
0001
0000
0010
0000
0001
0000
0100
0000
0010
0000
0100
0010
,
1000
0000
0000
0011
0000
0000
1000
0000
0000
0101
0000
0000
1001
0000
0000
0000
,
0001
0000
0000
1010
0000
0000
0001
0000
0000
1100
0000
0000
1001
0000
0000
0000
,
1000
0000
0010
0000
1000
0000
0010
0000
0100
0000
0001
0000
0100
0001
0100
0001
,
0010
0000
0100
0000
1000
0000
0100
0000
1000
0000
0001
0000
0010
0000
0000
0100
0000
0000
0110
0000
0000
0000
0000
0000
;

//---------------dance-single - ----------------
#NOTEDATA:;
#CHARTNAME:;
#STEPSTYPE:dance-single;
#DESCRIPTION:;
#CHARTSTYLE:;
#DIFFICULTY:Beginner;
#METER:4;
#RADARVALUES:0.111,0.134,0.039,0.116,0.000,65.000,4.000,12.000,0.000,0.000,0.000,0.000,0.000,0.111,0.134,0.039,0.116,0.000,65.000,4.000,12.000,0.000,0.000,0.000,0.000,0.000;
#CREDIT:;
#NOTES:
0000
0000
0000
0000
,
0000
0000
0000
0000
,
0000
0000
0000
0000
,
0000
0000
0000
0000
,
1000
0000
1000
0000
,
1000
0000
0000
0000
,
0001
0000
0001
0000
,
0001
0000
0000
0000
,
2000
0000
0000
0000
,
0000
0000
3010
0000
,
0002
0000
0000
0000
,
0000
0000
0003
0000
,
0200
0000
0000
0000
,
0000
0000
0301
0000
,
0020
0000
0000
0000
,
0130
0000
0100
0000
,
0100
0000
0000
0000
,
1000
0000
1000
0000
,
1000
0000
0000
0000
,
0001
0000
0001
0000
,
0001
0000
0000
0000
,
0100
0000
0100
0000
,
0100
0000
0000
0000
,
0110
0000
0000
0000
,
0010
0000
0000
0010
,
0000
0000
0010
0000
,
1000
0000
1000
0000
,
1000
0000
0000
0000
,
0001
0000
0000
0001
,
0000
0000
0001
0000
,
0100
0000
0100
0000
,
0100
0000
0000
0000
,
0020
0000
0000
0000
,
0030
0000
0000
0000
,
0200
0000
0000
0000
,
0300
0000
0000
0000
,
0002
0000
0000
0000
,
0003
0000
0000
0000
,
1000
0000
1000
0000
,
1000
0000
0000
0000
,
2002
0000
0000
0000
,
3003
0000
0010
0000
,
0020
0000
0000
0000
,
0030
0000
0100
0000
,
2002
0000
0000
0000
,
3003
0000
0100
0000
,
0010
0000
0010
0000
,
0010
0000
0000
0000
,
0001
0000
0001
0000
,
0001
0000
0000
0000
,
0010
0000
0010
0000
,
0010
0000
0000
0000
,
0100
0000
0100
0000
,
0100
0000
0000
0000
,
1000
0000
1000
0000
,
1000
0000
1001
0000
;

//---------------dance-single - ----------------
#NOTEDATA:;
#CHARTNAME:;
#STEPSTYPE:dance-single;
#DESCRIPTION:;
#CHARTSTYLE:;
#DIFFICULTY:Hard;
#METER:13;
#RADARVALUES:0.614637,0.617095,0.394633,0.221379,0.447572,383.000000,41.000000,23.000000,0.000000,0.000000,0.000000,0.000000,0.000000,0.614637,0.617095,0.394633,0.221379,0.447572,383.000000,41.000000,23.000000,0.000000,0.000000,0.000000,0.000000,0.000000;
#CREDIT:;
#NOTES:
// measure 0
0000
0000
0000
0000
,  // measure 1
0000
0000
0000
0000
,  // measure 2
0000
0000
0000
0000
,  // measure 3
0000
0000
0000
0000
0000
1000
0101
0001
,  // measure 4
1100
0000
0001
0000
0000
0001
0000
0000
0010
0000
0100
0000
1000
0100
0000
0100
,  // measure 5
0000
0000
0010
0000
0000
0010
0000
0000
0001
0000
0100
0000
0001
0100
0001
0100
,  // measure 6
0000
0000
0010
0000
0000
0010
0000
0000
1000
0000
0100
0000
0100
0010
0000
0010
,  // measure 7
0000
0000
0011
0000
0000
0011
0000
0000
1001
0000
1100
0000
0010
0000
0001
0000
,  // measure 8
2000
0000
0000
0010
0000
0000
3010
0000
0000
0000
0100
0000
0010
0000
1000
0000
,  // measure 9
0100
0000
0000
0100
0000
0010
1000
0000
0002
0000
0203
0000
2300
0000
3001
0000
,  // measure 10
0100
0000
0000
1000
0000
0001
0010
0000
0000
0010
1000
0000
1000
0000
0100
0000
,  // measure 11
0020
0000
0000
1030
0000
0001
0100
0000
0000
0100
0010
0000
0001
0000
0100
0010
,  // measure 12
2000
0000
0000
3100
0000
0100
0001
0000
0000
0100
0010
0000
0001
0000
0100
0000
,  // measure 13
0020
0000
0000
0100
0000
0130
1000
0000
0000
0001
0010
0000
1000
0000
1000
0000
,  // measure 14
0200
0000
0000
0010
0000
0310
0001
0000
0000
0001
0100
0000
0010
0000
1000
0100
,  // measure 15
0010
0000
0000
0000
0011
0000
1000
0010
0100
0000
0100
0000
0101
0000
1000
0000
,  // measure 16
0100
1000
0100
0000
0010
0000
0001
0000
1000
0010
1000
0000
0001
0000
0010
0001
,  // measure 17
1000
0010
0100
0000
0010
0000
0001
0000
0010
1000
0001
0000
0010
0000
0100
0000
,  // measure 18
0001
0100
0010
0000
0001
0000
1000
0000
0010
0100
0001
0000
1000
0000
0100
0010
,  // measure 19
0001
0010
1000
0000
0001
0100
1000
0000
0001
0100
0010
0000
1000
0000
0101
0000
,  // measure 20
0001
0100
0010
0000
1000
0000
0001
0000
0010
0100
1000
0000
0001
0000
0100
0010
,  // measure 21
1000
0001
1000
0000
0100
0000
0010
0000
0001
0100
0010
0000
1000
0000
0001
0000
,  // measure 22
0010
0100
1000
0000
0010
0000
0100
0000
0001
1000
0100
0000
0010
0001
1000
0010
,  // measure 23
0100
0000
0000
0001
0000
0000
0011
0000
0000
0000
1000
0000
0010
0000
0001
0000
,  // measure 24
0011
0000
1000
1100
0000
0001
0101
0000
,  // measure 25
1000
1010
0000
0000
0110
0000
1001
0000
,  // measure 26
1000
0000
1100
0000
0000
1100
0000
0000
1000
0000
0010
0000
0100
0001
0000
0001
,  // measure 27
0000
0000
1001
0000
0000
1000
0100
0010
0000
0000
0010
0000
0210
0000
0010
0000
,  // measure 28
1300
0000
0001
0101
0000
1000
1100
0000
,  // measure 29
0001
0011
0000
0000
0110
0000
1001
0000
,  // measure 30
0001
0000
0101
0000
0000
0101
0000
0000
0100
0000
0010
0000
1000
0100
0000
0100
,  // measure 31
0000
0010
0001
0100
0010
1000
1200
1000
,  // measure 32
0320
0000
0100
0032
0000
1000
0203
0000
,  // measure 33
1000
0000
0310
0000
0000
1010
0000
0000
0001
0000
0000
0000
0000
0000
1000
0000
,  // measure 34
0200
0000
0010
2300
0000
0001
3020
0000
,  // measure 35
0001
0000
0130
0000
0000
0010
0000
1000
0100
0000
0010
0000
0020
0000
0001
0000
,  // measure 36
0130
0000
0100
1100
0000
1000
1001
0000
,  // measure 37
0001
0000
0101
0000
0000
0010
0000
0000
1000
0000
0001
0000
0010
0000
1000
0000
,  // measure 38
0010
0000
0000
0001
0000
0000
1000
0000
0000
0010
0000
0000
0100
0000
0010
0100
,  // measure 39
0000
0000
0010
0000
0000
0010
0000
0000
1000
0100
1000
0100
1000
0000
0001
0000
,  // measure 40
0200
0000
0000
0010
0000
0000
0301
0000
0000
0000
1000
0000
0100
0000
0001
0000
,  // measure 41
0200
0000
0000
0010
0000
0000
1300
0000
0001
0000
0100
0000
1000
0000
0100
0000
,  // measure 42
0010
0000
0000
1000
0000
0100
0010
0000
0000
0000
0100
0000
0010
0000
0001
0000
,  // measure 43
0010
0000
0000
1000
0000
0001
0100
0000
0010
0000
0100
0000
1000
0000
0010
0000
,  // measure 44
0100
0000
0000
1000
0000
0001
0010
0000
0000
0100
0010
0000
1000
0000
0100
0000
,  // measure 45
0010
0000
0000
0100
0000
0100
0001
0000
0000
1000
0010
0000
0100
0000
1000
0000
,  // measure 46
0001
0000
0000
0110
0000
0000
1010
0000
0000
0000
0001
0000
0010
0000
0100
0000
,  // measure 47
1000
0000
0001
0000
0000
0000
0100
0000
0000
0000
1000
0000
0100
0000
0010
1000
,  // measure 48
0100
0000
0000
0000
0020
0000
0000
0000
0032
0000
0000
0000
1003
0000
0010
0100
,  // measure 49
0000
0001
0000
0010
0100
1000
0001
0100
,  // measure 50
0010
0000
2000
0000
3002
0000
0013
0100
,  // measure 51
1000
0001
0000
0100
0010
1000
0100
0000
,  // measure 52
1000
0000
0000
1100
0000
0000
0001
0000
0000
0101
0000
0000
1001
0000
0000
0000
,  // measure 53
0100
0000
0000
0011
0000
0000
1000
0000
0000
1010
0000
0000
1001
0000
0000
0000
,  // measure 54
0001
0010
1000
0010
0001
0100
1000
0100
,  // measure 55
0010
0000
1000
0000
0010
0000
0100
0000
0001
0000
1000
0000
0100
0000
0000
0010
0000
0000
0011
0000
0000
0000
0000
0000
;
