#VERSION:0.81;
#TITLE:Can't Hold Us (feat. Ray Dalton);
#SUBTITLE:;
#ARTIST:Macklemore & Ryan Lewis;
#TITLETRANSLIT:;
#SUBTITLETRANSLIT:;
#ARTISTTRANSLIT:;
#GENRE:Rap;
#ORIGIN:;
#CREDIT:;
#BANNER:Can't Hold Us (feat. Ray Dalton).png;
#BACKGROUND:;
#PREVIEWVID:;
#JACKET:Can't Hold Us (feat. Ray Dalton)-jacket.png;
#CDIMAGE:;
#DISCIMAGE:;
#LYRICSPATH:;
#CDTITLE:;
#MUSIC:Can't Hold Us (feat. Ray Dalton).mp3;
#OFFSET:-0.048898;
#SAMPLESTART:101.939995;
#SAMPLELENGTH:15.000000;
#SELECTABLE:YES;
#BPMS:0.000=146.000;
#STOPS:;
#DELAYS:;
#WARPS:;
#TIMESIGNATURES:0.000=4=4;
#TICKCOUNTS:0.000=4;
#COMBOS:0.000=1;
#SPEEDS:0.000=1.000=0.000=0;
#SCROLLS:0.000=1.000;
#FAKES:;
#LABELS:0.000=Song Start;
#BGCHANGES:-0.500=Can't Hold Us (feat. Ray Dalton).avi=1.000=0=0=0=StretchNoLoop====,
99999=-nosongbg-=1.000=0=0=0 // don't automatically add -songbackground-
;
#KEYSOUNDS:;
#ATTACKS:
;

//---------------dance-single - ----------------
#NOTEDATA:;
#CHARTNAME:;
#STEPSTYPE:dance-single;
#DESCRIPTION:;
#CHARTSTYLE:;
#DIFFICULTY:Easy;
#METER:6;
#RADARVALUES:0.292045,0.312567,0.347296,0.094717,0.000000,203.000000,44.000000,12.000000,0.000000,0.000000,0.000000,0.000000,0.000000,0.292045,0.312567,0.347296,0.094717,0.000000,203.000000,44.000000,12.000000,0.000000,0.000000,0.000000,0.000000,0.000000;
#CREDIT:;
#NOTES:
0000
0000
0000
0000
,
0000
0000
0000
0000
,
0000
0000
0000
0000
,
0000
0000
0000
0000
,
0000
0000
0000
0000
,
0000
0000
0000
0000
,
0000
0000
0000
0000
,
0000
1000
0001
1000
,
1010
0000
1010
0000
,
0110
0000
0110
0000
,
0101
0000
0101
0000
,
1001
0000
1001
0000
,
1000
0100
0001
0100
,
1000
0010
0001
0010
,
1000
0000
1001
0000
,
0001
1001
1000
0000
,
0000
0100
0010
0100
,
1000
0010
0100
0001
,
0000
1001
0000
1100
,
0000
0110
0000
0011
,
0001
0010
0100
0100
,
1000
1000
0010
0100
,
0001
0001
1000
0100
,
1000
0001
1000
0001
,
0010
0110
0000
0110
,
0100
1100
0000
1100
,
1000
1001
0000
1001
,
0001
0100
0001
0100
,
0010
1010
0000
1000
,
0001
1001
0000
0001
,
0010
0110
0000
0100
,
1000
1001
0002
0000
,
0103
0100
0001
0000
,
0010
0010
0100
0000
,
1000
0100
0010
0001
,
1000
0010
1000
0000
,
1001
0001
0100
0010
,
0100
0001
1000
0100
,
0010
0010
0100
0100
,
1000
0001
1000
0000
,
1100
0100
0001
1000
,
0010
0010
0100
1000
,
1010
0000
0010
0010
,
0100
0001
1000
0001
,
0010
0100
0110
0000
,
0100
1000
0001
1000
,
0010
0010
0100
0100
,
0002
1003
0001
0100
,
0110
0020
1030
0020
,
0031
0010
0000
0020
,
1030
0010
0000
0020
,
0000
0031
0010
0100
,
0001
0200
0301
0200
,
1300
0100
0000
0200
,
0301
0100
0000
0200
,
0000
1300
0100
0010
,
0110
0000
0110
0000
,
1010
0000
1010
0000
,
1001
0000
1001
0000
,
0011
0000
0011
0000
,
0110
0000
0110
0000
,
1001
0000
1001
0000
,
1010
0000
1010
0000
,
0110
0000
0000
0000
,
0100
0001
1000
0001
,
0010
0001
1000
0001
,
0010
0100
1000
0100
,
0001
0100
0010
0100
,
0010
0001
0100
1000
,
0100
0020
0000
0000
,
1030
0010
0100
0001
,
1000
0002
0000
0000
,
0003
0000
0000
0000
;

//---------------dance-single - ----------------
#NOTEDATA:;
#CHARTNAME:;
#STEPSTYPE:dance-single;
#DESCRIPTION:;
#CHARTSTYLE:;
#DIFFICULTY:Hard;
#METER:13;
#RADARVALUES:0.620172,0.909285,0.449906,0.292045,0.244686,456.000000,57.000000,37.000000,0.000000,0.000000,0.000000,0.000000,0.000000,0.620172,0.909285,0.449906,0.292045,0.244686,456.000000,57.000000,37.000000,0.000000,0.000000,0.000000,0.000000,0.000000;
#CREDIT:;
#NOTES:
// measure 0
0000
0000
0000
0000
,  // measure 1
0000
0000
0000
0000
,  // measure 2
0000
0000
0000
0000
,  // measure 3
0000
0000
0000
0000
,  // measure 4
1010
0000
2000
3001
1000
0000
0200
1300
,  // measure 5
0100
0000
0110
0000
0010
0000
0002
1003
,  // measure 6
0001
0000
1001
0000
0001
0000
0200
0310
,  // measure 7
0100
0001
0001
0010
0120
0001
0031
0000
,  // measure 8
0011
0001
1000
0000
0001
1000
0000
0001
,  // measure 9
1000
0010
0100
0000
0010
0100
0000
0010
,  // measure 10
0100
0001
1000
0000
0001
1000
0000
0001
,  // measure 11
1000
0100
0010
0000
0100
0010
0000
0100
,  // measure 12
0110
0100
1100
0000
1100
0001
1100
0001
,  // measure 13
1100
1000
1010
0000
0110
0001
0110
0010
,  // measure 14
1000
0000
1010
1000
0001
0000
0011
0010
,  // measure 15
0000
0010
0110
0100
1100
0000
1000
0000
,  // measure 16
1001
0000
0000
0001
0100
0000
0010
0100
0010
0000
0000
0000
1000
0000
1000
0000
,  // measure 17
0001
0000
0010
0001
0010
0000
0100
0010
0100
0000
1000
0100
1000
0001
0000
0000
,  // measure 18
0100
0010
1001
0000
0100
0010
1001
0000
,  // measure 19
0010
1000
0010
1000
0001
0100
0001
0100
0010
1000
0001
1000
0100
0010
0100
0000
,  // measure 20
0110
0000
0010
0010
0100
1000
0001
0100
,  // measure 21
0010
0010
1000
0001
0010
0010
0001
1000
,  // measure 22
0100
0010
0100
1000
0010
0100
0010
0001
,  // measure 23
0010
1000
0010
0000
1000
0000
1000
0000
0001
0000
0010
0000
0001
0000
0100
0000
,  // measure 24
0110
0000
0000
0000
1010
0000
0000
0000
1000
0000
0001
0000
0000
1000
0000
0000
,  // measure 25
0100
0000
0010
0100
0000
1000
0000
0000
0010
0000
0100
0010
0000
0100
0000
0000
,  // measure 26
0101
0001
1000
0000
0100
0010
0000
0010
,  // measure 27
0100
1000
1010
0000
0010
0100
0000
0100
,  // measure 28
0001
0000
0000
0000
0000
0000
1001
0000
0000
1000
0000
0000
0000
0000
0000
0000
0100
0000
0010
0000
0000
0100
0000
0000
,  // measure 29
1000
1000
0001
0000
0001
0010
0000
0010
,  // measure 30
0011
0001
0100
0000
0100
0010
0000
0010
,  // measure 31
1000
0001
0010
0100
0020
0000
0000
0000
,  // measure 32
0031
0000
0010
0000
0001
0000
0000
0000
0101
0000
0000
0000
0100
0000
0010
0100
,  // measure 33
0000
0000
0000
0000
0001
0000
0000
0000
0000
1000
0000
0000
0000
0000
0000
0000
0000
0000
0000
0000
0000
1100
0000
0000
0000
0000
0000
0000
0000
0000
0100
0000
0000
0000
0000
0000
0000
0000
0000
0000
0010
0000
0000
0000
0100
0000
0000
0000
,  // measure 34
1000
0000
0010
0010
1000
0010
0001
0010
,  // measure 35
1000
0000
0000
0001
0000
0000
0010
0000
0000
0000
0100
0000
0000
0000
0000
0000
0000
0000
0000
0000
1000
0000
0100
0000
,  // measure 36
1000
0000
0000
0000
0000
0000
0000
0000
0000
0000
0000
0000
0001
0000
0000
0000
0100
0000
0000
0000
0001
0000
0000
0000
0010
0000
0000
0000
0000
0000
0100
0000
0000
0000
0000
0000
0010
0000
0000
0000
0000
0000
0100
0000
0000
1000
0000
0000
,  // measure 37
0001
0000
0000
0000
0100
0001
0000
0010
0000
0000
0000
0000
0100
1000
0000
1000
,  // measure 38
0010
0000
0000
0100
0010
0000
0000
0010
1000
0000
1000
0000
0001
0000
0000
0000
,  // measure 39
0011
0000
0000
0000
0010
0000
0100
0000
0010
0000
0000
0000
0000
0000
0000
0100
,  // measure 40
0000
1000
0001
0001
0100
0100
0010
0010
,  // measure 41
1000
1000
0001
0001
0010
0010
0100
0200
,  // measure 42
0310
0000
0000
0000
1001
0000
0000
0000
1000
0000
1000
0000
0010
0000
0000
0100
,  // measure 43
0000
0010
0000
0000
1000
0000
0000
0000
0001
0000
0000
0000
0000
0000
0000
0000
1001
0000
0000
0000
0000
0000
0000
0000
1000
0000
0000
0000
0100
0000
0000
0000
,  // measure 44
1000
0000
0000
0000
0010
0000
0000
0000
0000
0110
0000
0000
0101
0000
0000
0000
,  // measure 45
0001
0001
1000
0100
1000
0010
0100
0010
,  // measure 46
1000
1000
0001
0001
1000
1000
0001
0001
,  // measure 47
0010
0000
0110
0000
0100
1000
0001
0000
,  // measure 48
0100
0000
0102
0010
0103
0000
0102
0010
,  // measure 49
0103
0000
2002
0000
3003
0000
2100
0010
,  // measure 50
3100
0000
2002
0000
3003
0000
0102
0013
,  // measure 51
0001
0000
0011
0000
0210
1000
1300
0000
,  // measure 52
0100
0000
0012
0100
0013
0000
0012
0100
,  // measure 53
0013
0000
2002
0000
3003
0000
2010
3100
,  // measure 54
2000
0000
0000
0000
0000
0000
0000
0000
0000
0000
0000
0000
0000
0000
0000
0000
0000
0000
3001
0000
0000
0000
0000
0000
1000
0000
0000
0000
0010
0000
0000
0000
0100
0000
0000
0000
0001
0000
0000
0000
0000
0000
0000
0000
0000
1000
0000
0000
,  // measure 55
0000
0002
0000
0000
0000
0000
0000
0000
0000
0000
0000
0000
0000
0000
0000
0000
2003
0000
0000
0000
0001
0000
0000
0000
0010
0000
0000
0000
3200
0000
0000
0000
,  // measure 56
0010
0310
0000
0000
2000
0001
0010
3200
,  // measure 57
0010
0310
0000
0010
0020
1000
0100
0031
,  // measure 58
0000
0000
0010
0000
0002
1000
0013
0200
,  // measure 59
0010
0310
0100
0100
1000
0100
0001
0000
,  // measure 60
0101
0000
0100
0100
1000
0010
0100
0000
,  // measure 61
0101
0000
0011
0000
0001
1000
0001
0000
,  // measure 62
1000
1000
0010
0100
0001
0100
0010
0000
,  // measure 63
1010
0000
1100
0000
0200
0010
1300
0010
,  // measure 64
0101
0010
0001
0000
0020
0100
0031
0010
,  // measure 65
1100
0010
1000
0001
0002
1000
0013
0100
,  // measure 66
1001
0000
0001
0000
0020
0100
0031
0200
,  // measure 67
1000
1300
0100
1000
0010
0001
0010
0000
,  // measure 68
0100
0010
0100
0010
0100
0010
0100
0010
1000
0001
1000
0001
1000
0001
1000
0001
,  // measure 69
0100
0001
0100
0001
0100
0001
0100
0001
1000
0010
1000
0010
1000
0010
1000
0010
,  // measure 70
0100
0000
0001
0001
1000
0010
1000
0000
,  // measure 71
1100
0220
0000
0000
,  // measure 72
0330
0000
0000
0000
;

//---------------dance-single - ----------------
#NOTEDATA:;
#CHARTNAME:;
#STEPSTYPE:dance-single;
#DESCRIPTION:;
#CHARTSTYLE:;
#DIFFICULTY:Beginner;
#METER:1;
#RADARVALUES:0.091334,0.112082,0.031572,0.007893,0.000000,76.000000,4.000000,1.000000,0.000000,0.000000,0.000000,0.000000,0.000000,0.091334,0.112082,0.031572,0.007893,0.000000,76.000000,4.000000,1.000000,0.000000,0.000000,0.000000,0.000000,0.000000;
#CREDIT:;
#NOTES:
0000
0000
0000
0000
,
0000
0000
0000
0000
,
0000
0000
0000
0000
,
0000
0000
0000
0000
,
1000
0000
0000
0000
,
1000
0000
0000
0000
,
0001
0000
0000
0000
,
0002
0000
0000
0000
,
0103
0000
0000
0000
,
0100
0000
0000
0000
,
0100
0000
0000
0000
,
0100
0000
0000
0000
,
0010
0000
0010
0000
,
0010
0000
0010
0000
,
0010
0000
0010
0000
,
0010
0000
0010
0000
,
1000
0000
0000
0000
,
0100
0000
0000
0000
,
0000
0001
0000
0000
,
0000
0100
0000
0000
,
0010
0000
0000
0000
,
0001
0000
0000
0000
,
1000
0000
0000
0000
,
0100
0000
0000
0000
,
1001
0000
0000
0000
,
0000
0000
0000
0000
,
1001
0000
0000
0000
,
0000
0000
0000
0000
,
0110
0000
0000
0000
,
0000
0000
0000
0000
,
0110
0000
0000
0000
,
0000
0000
0000
0000
,
0010
0000
0000
0000
,
0010
0000
0000
0000
,
0001
0000
0000
0000
,
0100
0000
0000
0000
,
0010
0000
0000
0000
,
0010
0000
0000
0000
,
1000
0000
0000
0000
,
0100
0000
0000
0000
,
1000
0000
0000
0000
,
1000
0000
0000
0000
,
0001
0000
0000
0000
,
0001
0000
0000
0000
,
0010
0000
0000
0000
,
0010
0000
0000
0000
,
0100
0000
0000
0000
,
0100
0000
0000
0000
,
1000
0000
0000
0000
,
0100
0000
0000
0000
,
0010
0000
0000
0000
,
0001
0000
0000
0000
,
1000
0000
0000
0000
,
0010
0000
0000
0000
,
0100
0000
0000
0000
,
0001
0000
0000
0000
,
1000
0000
1000
0000
,
1000
0000
0000
0000
,
1000
0000
1000
0000
,
1000
0000
0000
0000
,
0001
0000
0001
0000
,
0001
0000
0000
0000
,
0001
0000
0001
0000
,
0001
0000
0000
0000
,
0010
0000
0010
0000
,
0010
0000
0000
0000
,
0010
0000
0010
0000
,
0010
0000
0000
0000
,
0100
0000
0100
0000
,
0100
0000
0000
0000
,
0100
0000
0100
0000
,
0100
0000
0000
0000
;

//---------------dance-single - ----------------
#NOTEDATA:;
#CHARTNAME:;
#STEPSTYPE:dance-single;
#DESCRIPTION:;
#CHARTSTYLE:;
#DIFFICULTY:Medium;
#METER:8;
#RADARVALUES:0.446524,0.483057,0.386762,0.031572,0.003947,343.000000,49.000000,4.000000,0.000000,0.000000,0.000000,0.000000,0.000000,0.446524,0.483057,0.386762,0.031572,0.003947,343.000000,49.000000,4.000000,0.000000,0.000000,0.000000,0.000000,0.000000;
#CREDIT:;
#NOTES:
// measure 0
0000
0000
0000
0000
,  // measure 1
0000
0000
0000
0000
,  // measure 2
0000
0000
0000
0000
,  // measure 3
0000
0000
0000
0000
,  // measure 4
0000
0000
1000
0100
0010
0000
0010
0100
,  // measure 5
1000
0000
0001
0000
0000
0000
0100
0001
,  // measure 6
0010
0000
0001
0000
0000
0000
0100
0001
,  // measure 7
0000
0100
0010
0100
0010
1000
0001
0000
,  // measure 8
0010
0000
0110
0000
,  // measure 9
0100
0000
1100
0000
,  // measure 10
1000
0000
1001
0000
,  // measure 11
0001
0000
0101
0000
,  // measure 12
0100
0110
0010
1010
,  // measure 13
1000
0000
1001
0000
0001
0000
0011
0010
,  // measure 14
0100
0000
0010
0100
0010
0000
0100
1000
,  // measure 15
0000
1000
0001
1000
0100
0000
0010
0000
,  // measure 16
0100
0000
1000
0100
1000
0000
0001
0000
,  // measure 17
0100
0001
0100
0000
0010
0100
0010
0000
,  // measure 18
1000
0011
1000
0101
,  // measure 19
0010
0000
1100
0000
0010
0000
0101
0001
,  // measure 20
1000
0000
0100
0000
0010
0010
0100
1000
,  // measure 21
0010
0100
0001
1000
,  // measure 22
0100
1000
0100
0000
0001
0100
0001
0000
,  // measure 23
1000
0010
0001
0100
1000
0100
0001
0100
,  // measure 24
0010
0000
1010
0000
1000
0001
1000
0000
,  // measure 25
0001
0010
0001
0000
0010
0001
0100
0000
,  // measure 26
0010
0100
0010
0000
0100
0010
1000
0000
,  // measure 27
0100
1000
0010
0100
0001
0010
0100
1000
,  // measure 28
0001
0000
0101
0000
0100
0010
0100
0000
,  // measure 29
0010
0000
1000
0000
0001
0001
0100
0100
,  // measure 30
0010
1000
0001
0000
0010
0001
1000
0000
,  // measure 31
0100
1000
0001
0000
0200
0300
1001
0000
,  // measure 32
1000
0010
1000
0000
0001
0000
0010
0100
,  // measure 33
0010
0000
0110
0000
1001
0000
1000
0100
,  // measure 34
1000
0000
0010
0010
0100
0001
0100
0000
,  // measure 35
0001
0001
1000
0100
0000
0000
0000
0000
,  // measure 36
0110
0000
0010
0001
0101
0000
0100
0010
,  // measure 37
1010
0000
1001
0000
0011
0000
0110
0100
,  // measure 38
1000
0010
1000
0001
0010
0000
0100
0000
,  // measure 39
1000
0000
0001
1000
0010
0000
0000
0000
,  // measure 40
0110
0000
0100
0001
0100
0001
0100
0001
,  // measure 41
0100
0001
0100
0001
1000
0001
1000
0001
,  // measure 42
1000
0000
1100
0000
0100
0010
0100
0000
,  // measure 43
1000
0000
0100
0000
0101
0000
1000
0010
,  // measure 44
0001
0000
0000
0000
0100
0000
0000
0000
0000
0110
0000
0000
1010
0000
0000
0000
,  // measure 45
1000
0001
1000
0000
0001
0010
0100
1000
,  // measure 46
0010
0110
0110
0110
,  // measure 47
0100
0000
1001
0000
1000
0100
0001
0000
,  // measure 48
0100
0000
0010
0100
1000
0000
1000
0100
,  // measure 49
0010
0000
0100
0000
0000
0000
1000
0010
,  // measure 50
0100
0000
0010
0000
0000
0000
1000
0010
,  // measure 51
0000
0110
0101
1001
,  // measure 52
0001
0000
0010
0001
0100
0000
0100
0001
,  // measure 53
0010
0000
0001
0000
0000
0000
0100
0001
,  // measure 54
1000
0000
0001
0000
0000
0000
0100
0001
,  // measure 55
0000
0000
0011
0000
0010
0100
1000
0100
,  // measure 56
0000
0100
0000
0000
0010
0001
0100
0001
,  // measure 57
0000
0001
0000
0100
0001
1000
0001
0100
,  // measure 58
0000
0000
0010
0000
0100
0010
1000
0010
,  // measure 59
0000
0010
0100
0100
0001
1000
0001
0000
,  // measure 60
0010
0000
0100
0100
0010
0100
1000
0000
,  // measure 61
1001
1001
0000
0000
,  // measure 62
0001
0000
0100
0100
0001
0100
0010
0000
,  // measure 63
0110
0000
0110
0000
0020
0000
1030
1010
,  // measure 64
0000
1010
0000
0000
1000
0001
1000
1001
,  // measure 65
0000
1001
0000
0001
0010
0100
0010
0001
,  // measure 66
0000
0000
0100
0000
0010
0100
0001
1000
,  // measure 67
0000
0001
1000
1000
0100
1000
0010
0000
,  // measure 68
0110
0000
0100
0100
0001
0100
0010
0000
,  // measure 69
1010
0000
1010
0000
1000
0001
0000
0001
,  // measure 70
0010
0000
0100
0100
0010
0100
1000
0000
,  // measure 71
1001
2002
0000
0000
,  // measure 72
3003
0000
0000
0000
;
