#TITLE:v o l d e n u i t;
#SUBTITLE:;
#ARTIST:cuve;
#TITLETRANSLIT:;
#SUBTITLETRANSLIT:;
#ARTISTTRANSLIT:;
#GENRE:;
#CREDIT:;
#BANNER:voldenuit.png;
#BACKGROUND:voldenuit-bg.png;
#LYRICSPATH:;
#CDTITLE:;
#MUSIC:voldenuit.ogg;
#OFFSET:-3.333002;
#SAMPLESTART:7.904431;
#SAMPLELENGTH:13.714287;
#SELECTABLE:YES;
#BPMS:0.000000=105.000000
;
#STOPS:
;
#BGCHANGES:-5.833=voldenuit.avi=1.000=0=0=0=StretchNoLoop====,
99999=-nosongbg-=1.000=0=0=0 // don't automatically add -songbackground-
;
#KEYSOUNDS:;
#ATTACKS:;

//---------------dance-single - ----------------
#NOTES:
     dance-single:
     :
     Hard:
     12:
     0.501303,0.611818,0.218751,0.173178,0.555991,385.000000,361.000000,24.000000,19.000000,0.000000,0.000000,0.501303,0.611818,0.218751,0.173178,0.555991,385.000000,361.000000,24.000000,19.000000,0.000000,0.000000:
0000
0000
0000
0000
,
0000
0000
0000
0000
,
0001
0000
0100
0000
0000
0010
0000
1000
0010
1000
0010
0000
0100
0000
0001
0000
,
1000
0000
0010
0000
1000
0000
0010
0000
0100
0001
0100
0000
0001
1000
0000
0000
,
0010
0000
0100
0000
0001
1000
0000
0001
0100
0001
0100
0000
0010
0000
1000
0000
,
0010
0000
1000
0000
0100
0000
0010
0000
0001
0100
0000
0001
0100
0000
1000
0000
,
0020
0030
0020
0030
0200
0300
0200
0300
,
2000
3000
0002
0003
2000
3000
0002
0003
,
2000
3000
0200
0300
0020
0030
0002
0003
,
2000
3000
0002
0003
0200
0000
0300
0000
,
0010
0010
0010
0010
0010
0010
0010
0010
,
0100
0100
0100
0100
0100
0100
0100
0100
,
0100
0000
1000
0100
0010
0000
1000
0100
1000
0000
0010
0100
1000
0000
0010
0100
,
0010
0000
0001
0010
0100
0000
0001
0010
0001
0000
0100
0010
0001
0000
0100
0010
,
0100
0100
0100
0100
0100
0100
0100
0100
,
0010
0010
0010
0010
0010
0010
0010
0010
,
0001
0000
0001
0010
0001
0000
0001
0100
0001
0000
0001
1000
0001
0000
0001
0100
,
0001
0000
1000
0100
1000
0000
1000
0010
1000
0000
1000
0001
1000
0000
1000
0100
,
2000
0000
0000
0000
,
3000
0000
0000
0100
0010
0000
0000
0000
0110
0000
0000
0100
0010
0000
0000
0001
,
1000
0000
0000
0001
1000
0000
0000
0000
1001
0000
0000
0001
1000
0000
0000
0001
,
0100
0000
1000
0100
1000
0000
0001
0100
0001
0000
1000
0100
0000
0000
0001
0100
,
0000
0000
0010
1000
0000
0000
0001
0010
0000
0000
1000
0100
0000
0000
0010
0001
,
0100
0000
0000
0000
0001
0000
1000
0000
0000
0000
1000
0000
0000
0000
1000
0000
0000
0000
0001
1000
0001
0000
0100
0000
0000
0000
0010
0000
0000
0000
0010
0000
,
0000
0000
1000
0100
0000
0010
0000
1000
0000
0001
0000
0100
0010
1000
0001
0100
,
0010
0000
0000
0000
0000
0000
0001
0000
0000
0000
0001
0000
0000
0000
0001
0000
0000
0000
0001
1000
0001
0000
0100
0000
0000
0000
0010
0000
0000
0000
0010
0000
,
1000
0000
0000
0001
0000
0100
0000
0001
0000
1000
0000
0100
1000
0100
1000
0100
,
1000
0000
0000
0000
0001
0000
0010
0000
0000
0000
0100
0000
0000
0000
1000
0000
0000
0000
0100
0010
0100
0000
0010
0000
0000
0000
0001
0000
0000
0000
0100
0000
,
0000
0000
0010
1000
0000
0001
0000
0100
0000
0001
1000
0001
0100
0001
1000
0001
,
0100
0000
0000
0010
0000
1000
0000
0100
0000
0001
0000
0010
0000
1000
0000
0100
,
0000
0001
1000
0001
0000
0100
0010
0100
0000
1000
0001
1000
0000
0010
0100
0010
,
0100
0000
0001
0000
0001
0000
1000
0000
1000
0000
0000
0001
0000
0000
1000
0000
,
0000
1000
0000
0100
0000
0100
0000
0100
1000
0000
0000
0010
0000
0000
0100
0000
,
0000
0001
0000
0010
0001
0000
0001
0000
0001
0000
0100
0001
0000
1000
0001
0000
,
1000
0000
0100
1000
0000
0100
1000
0000
0001
0000
0100
0001
0000
0100
0001
0000
,
1000
0020
0100
0130
0001
1000
0001
1000
,
0001
0200
0010
0310
1000
0001
1000
0001
,
1000
0100
1000
0100
0000
0000
0010
0000
0000
0001
0000
0000
0100
0001
0100
0001
0000
0000
0010
0000
0000
1000
0000
0000
,
0100
0010
0100
0010
0000
0000
1000
0000
0000
0001
0000
0000
0100
0010
0100
0010
0000
0000
1000
0000
0000
0001
0000
0000
,
0011
0100
0011
0100
1001
0100
1001
0100
,
1010
0100
1010
0100
1001
0100
1001
0110
,
1001
0100
1010
0100
1001
0010
0101
0010
,
1001
1001
0110
0110
1100
0110
0011
0110
,
1002
1000
1000
1000
,
1000
1000
1000
1003
;

//---------------dance-double - ----------------
#NOTES:
     dance-double:
     :
     Hard:
     12:
     0.496095,0.530242,0.227865,0.027344,0.519533,381.000000,356.000000,25.000000,3.000000,0.000000,0.000000,0.496095,0.530242,0.227865,0.027344,0.519533,381.000000,356.000000,25.000000,3.000000,0.000000,0.000000:
// measure 0
00000000
00000000
00000000
00000000
,  // measure 1
00000000
00000000
00000000
00000000
,  // measure 2
01000000
00000000
00100000
00000000
00000000
10000000
00000000
00010000
10000000
00010000
10000000
00000000
01000000
00000000
00100000
00000000
,  // measure 3
00010000
00000000
00001000
00000000
00000000
00000000
00000100
00000000
00000010
00000100
00000010
00000000
00000100
00000000
00001000
00000000
,  // measure 4
00010000
00000000
00100000
00000000
00000000
01000000
00000000
00100000
01000000
00100000
01000000
00000000
10000000
00000000
01000000
00000000
,  // measure 5
00000000
00000000
00100000
00000000
00010000
00000000
00001000
00000000
00000100
00001000
00000000
00001000
00000010
00000000
00000100
00000000
,  // measure 6
00010000
00100000
01000000
10000000
10000000
01000000
00100000
00010000
,  // measure 7
00001000
00000100
00000010
00000001
00000001
00000010
00000100
00001000
,  // measure 8
00010000
00100000
00000000
00100000
01000000
00000000
10000000
00000000
10000000
01000000
00000000
01000000
00100000
00000000
00010000
00000000
,  // measure 9
00001000
00000100
00000000
00000100
00000010
00000000
00000001
00000000
00000020
00000000
00000000
00000000
00000030
00000000
00000000
00000000
,  // measure 10
00000100
00000100
00000100
00000100
00010000
00010000
00010000
00010000
,  // measure 11
00001000
00001000
00001000
00001000
01000000
01000000
01000000
01000000
,  // measure 12
00100000
00000000
10000000
01000000
00100000
00000000
10000000
01000000
10000000
00000000
00010000
00100000
01000000
00000000
00010000
00100000
,  // measure 13
00010000
00000000
00100000
00001000
00010000
00000000
00010000
00001000
00010000
00000000
00000100
00010000
00001000
00000000
00000100
00001000
,  // measure 14
00000100
00000100
00000100
00000100
00010000
00010000
00010000
00010000
,  // measure 15
00001000
00001000
00001000
00001000
01000000
01000000
01000000
01000000
,  // measure 16
00100000
00000000
01000000
00001000
01000000
00000000
00001000
00010000
00001000
00000000
00010000
00000100
00010000
00000000
00000100
00001000
,  // measure 17
00000100
00000000
00010000
00000100
00010000
00000000
00001000
00010000
00001000
00000000
00100000
00001000
00100000
00000000
00010000
01000000
,  // measure 18
00200000
00000000
00000000
00000000
,  // measure 19
00300000
10000000
01100000
00010000
,  // measure 20
00001000
00000001
00000110
00001000
,  // measure 21
00010000
00000000
00100000
01000000
00000000
00000000
10000000
01000000
00000000
00000000
00100000
00010000
00000000
00000000
00001000
00000100
,  // measure 22
00000000
00000000
00000010
00000001
00000000
00000000
00000010
00000100
00000000
00000000
00000100
00001000
00000000
00000000
00010000
00100000
,  // measure 23
01000000
00000000
10000000
00010000
00000000
00010000
00000000
00010000
00000000
00010000
00100000
00010000
00000000
00001000
00000000
00000100
,  // measure 24
00000000
00000000
00000010
00000100
00000000
00000001
00000000
00000010
00000000
00000100
00001000
00000100
00000000
00001000
00000000
00010000
,  // measure 25
00100000
00000000
00000000
01000000
00000000
10000000
00000000
01000000
00000000
10000000
00100000
10000000
00000000
01000000
00000000
00100000
,  // measure 26
00010000
00000000
00001000
00000100
00000000
00000010
00000000
00000100
00000000
00000010
00001000
00000010
00000000
00000100
00000000
00010000
,  // measure 27
00001000
00000000
00000000
00010000
00000000
00110000
00000000
01010000
00000000
00010000
10000000
01000000
00000000
10100000
00000000
10010000
,  // measure 28
00000000
00000000
00100000
00010000
00000000
00001000
00000000
00000100
00000000
00001000
00000010
00001000
00000000
00001001
00000000
00000000
,  // measure 29
00001100
00000000
00000000
00000100
00000000
00010000
00000000
00001000
00000000
01000000
00100000
00010000
00000000
01000000
00000000
00100000
,  // measure 30
10000000
00000000
00010000
01000000
00000000
00010000
00100000
00010000
00000000
00100000
00001000
00100000
00000000
00001000
00010000
00001000
,  // measure 31
00010000
00000000
00000100
00000000
00000100
00000000
00000100
00000000
00000100
00000000
00000000
00010000
00000000
00000000
00010000
00000000
,  // measure 32
00000000
00001000
00000000
00001000
00000000
00001000
00000000
00000000
00100000
00000000
00000000
00100000
00000000
00000000
00100000
00000000
,  // measure 33
00000000
01000000
00000000
01000000
00100000
00000000
00100000
00000000
10000000
00000000
00000000
00010000
00000000
00000000
10000000
00000000
,  // measure 34
00010000
00000000
00100000
00010000
00000000
00100000
00010000
00000000
00001000
00000000
00010000
00000100
00000000
00010000
00000100
00000000
,  // measure 35
00000010
00000001
00000100
00001000
00010000
00100000
10000000
01000000
,  // measure 36
00000000
10000000
00100000
00010000
00001000
00000100
00000001
00000010
,  // measure 37
00001000
00000100
00001000
00000100
00000000
00000000
00010000
00000000
00000000
00001000
00000000
00000000
00100000
00010000
00100000
00010000
00000000
00000000
00001000
00000000
00000000
00010000
00000000
00000000
,  // measure 38
00001000
00000010
00001000
00000010
00000000
00000000
00010000
00000000
00000000
00001000
00000000
00000000
01000000
00010000
01000000
00010000
00000000
00000000
00001000
00000000
00000000
00010000
00000000
00000000
,  // measure 39
00001100
00010000
00001100
00010000
00001010
00000100
00001010
00000100
,  // measure 40
00000011
00000100
00000011
00000100
00001010
00000100
00001010
00000100
,  // measure 41
00011000
00001000
00011000
00010000
00110000
00100000
01100000
01000000
,  // measure 42
11000000
00100000
01010000
00100000
00011000
00000100
00001010
00010000
,  // measure 43
00021000
00001000
00001000
00001000
,  // measure 44
00001000
00001000
00001000
00031000
;

//---------------dance-single - ----------------
#NOTES:
     dance-single:
     :
     Beginner:
     2:
     0.100261,0.183545,0.009115,0.045573,0.000000,77.000000,76.000000,1.000000,5.000000,0.000000,0.000000,0.100261,0.183545,0.009115,0.045573,0.000000,77.000000,76.000000,1.000000,5.000000,0.000000,0.000000:
0000
0000
0000
0000
,
0000
0000
0000
0000
,
0010
0000
0010
0000
,
0100
0000
0100
0000
,
0010
0000
0010
0000
,
0100
0000
0100
0000
,
0020
0000
0000
0000
,
0030
0000
0000
0000
,
0000
0000
0000
0000
,
0000
0000
0000
0000
,
1000
1000
1000
1000
,
1000
1000
1000
1000
,
2000
0000
0000
0000
,
0000
0000
3000
0000
,
0001
0001
0001
0001
,
0001
0001
0001
0001
,
0002
0000
0000
0000
,
0000
0000
0003
0000
,
0000
0000
0000
0000
,
0000
0000
0010
0000
,
0000
0000
0010
0000
,
0000
0000
0010
0000
,
0000
0000
0010
0000
,
0000
1000
0000
1000
,
0000
0001
0000
0001
,
0000
1000
0000
1000
,
0000
0001
0000
1000
,
0000
0100
0000
0010
,
0000
0100
0000
0010
,
0000
0010
0000
0100
,
0000
0100
0000
0010
,
0010
0000
0000
0000
,
0000
0000
0000
0000
,
1000
0000
1000
0000
,
0001
0000
0001
0000
,
0000
0100
0100
0100
,
0000
0010
0010
0010
,
0000
0100
0100
0100
,
0000
0010
0010
0010
,
0000
1000
1000
1000
,
0000
0001
0001
0001
,
0000
1000
1000
1000
,
0000
0001
0001
0000
,
2002
0000
0000
0000
,
0000
0000
0000
3003
;

//---------------dance-single - ----------------
#NOTES:
     dance-single:
     :
     Easy:
     3:
     0.153646,0.203939,0.036458,0.072917,0.000000,118.000000,114.000000,4.000000,8.000000,0.000000,0.000000,0.153646,0.203939,0.036458,0.072917,0.000000,118.000000,114.000000,4.000000,8.000000,0.000000,0.000000:
0000
0000
0000
0000
,
0000
0000
0000
0000
,
0000
0001
1000
0001
,
0000
1000
0001
1000
,
0000
0001
1000
0001
,
0000
1000
0001
1000
,
2002
0000
0000
0000
,
0000
0000
0000
0000
,
3003
0000
0000
0000
,
0000
0000
0000
0000
,
0100
0100
0100
0100
,
0010
0010
0010
0010
,
0220
0000
0000
0000
,
0330
0000
0000
0000
,
0010
0010
0010
0010
,
0100
0100
0100
0100
,
0220
0000
0000
0000
,
0330
0000
0000
0000
,
0000
0000
0000
0000
,
0000
0001
0100
0001
,
0000
1000
0100
1000
,
0000
0001
0100
0001
,
0000
1000
0100
1000
,
0010
0010
0010
0010
,
0001
0001
1000
1000
,
0010
0010
0010
0010
,
1000
1000
0001
0001
,
0100
0100
0100
0100
,
0001
0010
0100
1000
,
0100
0100
0100
0100
,
1000
0100
0010
0001
,
0100
0000
0000
0000
,
0000
0000
0000
0000
,
0010
0000
0010
0000
,
0010
0010
0010
0000
,
1000
1000
0001
0001
,
1000
1000
0001
0001
,
0100
0100
0010
0010
,
0100
0100
0010
0010
,
1000
0001
1000
0001
,
0100
0010
0100
0010
,
1000
1000
0001
0001
,
0100
0100
0010
0010
,
2002
0000
0000
0000
,
0000
0000
0000
3003
;

//---------------dance-single - ----------------
#NOTES:
     dance-single:
     :
     Medium:
     6:
     0.244792,0.326303,0.045573,0.300782,0.000000,188.000000,183.000000,5.000000,33.000000,0.000000,0.000000,0.244792,0.326303,0.045573,0.300782,0.000000,188.000000,183.000000,5.000000,33.000000,0.000000,0.000000:
0000
0000
0000
0000
,
0000
0000
0000
0000
,
0010
0001
0010
1000
,
0100
0001
0100
1000
,
0010
0000
0001
0000
0100
0001
0100
0000
,
0010
0000
1000
0000
0100
1000
0100
0000
,
2002
3003
0200
0300
,
0020
0030
0200
0300
,
0002
0003
2000
3000
,
0002
0003
2000
3000
,
0010
0100
0010
0100
0010
0100
0010
0100
,
0010
0100
0010
0100
0010
0100
0010
0000
,
0002
0003
2000
3000
0002
0003
2000
3000
,
0020
0030
0200
0300
0020
0030
0200
0300
,
0100
0010
0100
0010
0100
0010
0100
0010
,
0100
0010
0100
0010
0100
0010
0100
0000
,
2000
3000
0002
0003
2000
3000
0002
0003
,
0200
0300
0020
0030
0200
0300
0020
0030
,
0000
0000
0000
0000
,
0000
1000
0110
0001
,
0000
0001
0110
1000
,
0000
0010
0000
1000
0000
0100
0000
0001
,
0000
0010
0000
1000
0000
0100
0000
0001
,
0010
0000
0010
0000
0010
0010
0010
0000
,
0100
0000
0100
0000
0100
0100
0100
0000
,
0010
0000
0100
0000
0010
0010
0010
0000
,
0100
0000
0010
0000
0100
0100
0100
0000
,
0001
0001
0100
0000
1000
1000
0100
0000
,
0001
0001
0010
0000
1000
1000
0010
0000
,
0001
0000
1000
0000
0010
0010
0010
0000
,
1000
0000
0001
0000
0010
0010
0010
0000
,
2000
3000
0002
0003
,
0200
0300
0020
0030
,
1000
0001
0100
0010
,
1000
0100
2002
3003
,
0001
0000
0010
0000
0100
0000
1000
0001
,
1000
0000
0100
0000
0010
0000
0001
1000
,
0001
0000
0010
0000
0100
0000
1000
0001
,
1000
0100
0010
0001
,
0100
0000
0100
0000
0100
0010
0100
0010
,
0100
0000
0100
0000
0100
0010
0100
0010
,
0100
1000
0010
0001
,
0100
1000
0010
0001
0100
1000
0010
0001
,
2002
0000
0000
0000
,
0000
0000
0000
3003
;

//---------------dance-double - ----------------
#NOTES:
     dance-double:
     :
     Medium:
     6:
     0.227865,0.346697,0.045573,0.100261,0.000000,175.000000,170.000000,5.000000,11.000000,0.000000,0.000000,0.227865,0.346697,0.045573,0.100261,0.000000,175.000000,170.000000,5.000000,11.000000,0.000000,0.000000:
// measure 0
00000000
00000000
00000000
00000000
,  // measure 1
00000000
00000000
00000000
00000000
,  // measure 2
00100000
10000000
00100000
10000000
,  // measure 3
00100000
00010000
00100000
00010000
,  // measure 4
00001000
00000100
00001000
00000100
,  // measure 5
00000001
00000100
00000001
00000100
,  // measure 6
00002000
00000000
00000000
00000000
,  // measure 7
00003000
00000000
00000000
00000000
,  // measure 8
00010000
00000000
00001000
00000000
,  // measure 9
00010000
00000000
00001000
00000000
,  // measure 10
00010000
00010000
00010000
00010000
01000000
01000000
01000000
01000000
,  // measure 11
10000000
10000000
10000000
10000000
01000000
01000000
01000000
01000000
,  // measure 12
10000000
01000000
00010000
01000000
,  // measure 13
10000000
01000000
00100000
00010000
,  // measure 14
00001000
00001000
00001000
00001000
00000100
00000100
00000100
00000100
,  // measure 15
00000001
00000001
00000001
00000001
00000100
00000100
00000100
00000100
,  // measure 16
00001000
00000100
00000001
00000100
,  // measure 17
00001000
00010000
00100000
01000000
,  // measure 18
00000000
00000000
00000000
00000000
,  // measure 19
00000000
10000000
01100000
00010000
,  // measure 20
00000000
00001000
00000110
00000001
,  // measure 21
00000000
00000001
00000110
00001000
,  // measure 22
00000000
00010000
01100000
10000000
,  // measure 23
01000000
00000000
01000000
01000000
01000000
00000000
00010000
00000000
,  // measure 24
00001000
00000000
00000100
00000100
00000100
00000000
00001000
00000000
,  // measure 25
00100000
00000000
10000000
10000000
10000000
00000000
00100000
00000000
,  // measure 26
00001000
00000000
00000001
00000001
00000001
00000000
00001000
00000000
,  // measure 27
00100000
00000000
01000000
01000000
01000000
00000000
00100000
00000000
,  // measure 28
00001000
00000000
00000010
00000010
00000010
00000000
00001000
00000000
,  // measure 29
00010000
00000000
00100000
10000000
00100000
00000000
00010000
00000000
,  // measure 30
00001000
00000000
00000100
00000001
00000100
00000000
00001000
00000000
,  // measure 31
00020000
00030000
20000000
30000000
,  // measure 32
00200000
00300000
02000000
03000000
,  // measure 33
00002000
00003000
00000200
00000300
,  // measure 34
00000020
00000030
00000002
00000003
,  // measure 35
00000001
00000010
00000100
00001000
,  // measure 36
00010000
00100000
01000000
10000000
,  // measure 37
00100000
10000000
01000000
00010000
,  // measure 38
00000100
00001000
00000010
00000001
,  // measure 39
00001000
00000000
00000100
00000000
00001000
00000100
00001000
00000100
,  // measure 40
00001000
00000000
00000100
00000000
00001000
00000100
00001000
00000100
,  // measure 41
00001000
00001000
00001000
00000000
00010000
00010000
00010000
00000000
,  // measure 42
01000000
01000000
01000000
00000000
10000000
10000000
10000000
00000000
,  // measure 43
20020000
00000000
00000000
00000000
,  // measure 44
00000000
00000000
00000000
30030000
;

//---------------dance-double - ----------------
#NOTES:
     dance-double:
     :
     Easy:
     3:
     0.140625,0.183545,0.009115,0.045573,0.000000,108.000000,107.000000,1.000000,5.000000,0.000000,0.000000,0.140625,0.183545,0.009115,0.045573,0.000000,108.000000,107.000000,1.000000,5.000000,0.000000,0.000000:
// measure 0
00000000
00000000
00000000
00000000
,  // measure 1
00000000
00000000
00000000
00000000
,  // measure 2
00000000
00100000
00000000
00001000
,  // measure 3
00000000
00100000
00000000
00001000
,  // measure 4
00000000
00010000
00000000
00000100
,  // measure 5
00000000
00010000
00000000
00000100
,  // measure 6
00020000
00000000
00000000
00000000
,  // measure 7
00000000
00000000
00000000
00000000
,  // measure 8
00030000
00000000
00000000
00000000
,  // measure 9
00000000
00000000
00000000
00000000
,  // measure 10
00010000
00100000
01000000
10000000
,  // measure 11
10000000
01000000
00100000
00010000
,  // measure 12
00001000
00000000
00010000
00000000
,  // measure 13
00001000
00000000
00010000
00000000
,  // measure 14
00001000
00000100
00000010
00000001
,  // measure 15
00000001
00000010
00000100
00001000
,  // measure 16
00010000
00000000
00001000
00000000
,  // measure 17
00010000
00000000
00001000
00000000
,  // measure 18
00000000
00000000
00000000
00000000
,  // measure 19
00000000
00100000
00100000
00100000
,  // measure 20
00000000
00001000
00001000
00001000
,  // measure 21
00000000
00000100
00000100
00000100
,  // measure 22
00000000
00010000
00010000
00010000
,  // measure 23
00001000
00001000
00010000
00010000
,  // measure 24
00001000
00010000
01000000
00010000
,  // measure 25
00001000
00001000
00010000
00010000
,  // measure 26
00001000
00000100
00000001
00000100
,  // measure 27
00010000
00010000
00100000
01000000
,  // measure 28
10000000
10000000
01000000
00100000
,  // measure 29
00001000
00001000
00000100
00000010
,  // measure 30
00000001
00000001
00000010
00000100
,  // measure 31
00010000
00000000
00000000
00000000
,  // measure 32
00000000
00000000
00000000
00000000
,  // measure 33
00001000
00000000
00010000
00000000
,  // measure 34
00002000
00003000
00020000
00030000
,  // measure 35
00000000
00100000
10000000
00010000
,  // measure 36
00000000
00100000
00010000
10000000
,  // measure 37
00000000
01000000
00100000
00010000
,  // measure 38
00000000
00001000
00000100
00000010
,  // measure 39
00000000
00000010
00000001
00001000
,  // measure 40
00000000
00000010
00001000
00000001
,  // measure 41
00000000
00000010
00000100
00001000
,  // measure 42
00000000
01000000
00100000
00010000
,  // measure 43
00022000
00000000
00000000
00000000
,  // measure 44
00000000
00000000
00000000
00033000
;
