#TITLE:トウキョウ・ドリーム・ポップ;
#SUBTITLE:;
#ARTIST:Flying Kite;
#TITLETRANSLIT:Tokyo Dream Pop;
#SUBTITLETRANSLIT:;
#ARTISTTRANSLIT:;
#GENRE:;
#CREDIT:;
#MENUCOLOR:;
#METERTYPE:DDR;
#BANNER:tokyo dream pop.png;
#BACKGROUND:tokyo dream pop-bg.png;
#LYRICSPATH:;
#CDTITLE:;
#MUSIC:tokyo dream pop.ogg;
#OFFSET:-8.214;
#SAMPLESTART:59.180;
#SAMPLELENGTH:20.870;
#SELECTABLE:YES;
#LISTSORT:;
#DISPLAYBPM:44.000:176.000;
#BPMS:0.000=88.000,40.000=176.000,72.000=88.000,124.000=176.000,188.000=88.000,204.000=44.000,212.000=88.000;
#STOPS:;
#BGCHANGES:;
#ATTACKS:;

//---------------dance-single - ----------------
#NOTES:
     dance-single:
     :
     Hard:
     9:
     0.335,0.325,0.031,0.235,0.152:
0000
0000
0000
0000
,
0000
0000
0000
0000
,
2000
0000
0000
0000
0000
0000
0001
3002
0000
0000
0000
0000
0103
0000
0100
0000
,
0002
0000
0000
0000
0000
0000
1003
2000
0000
0000
0000
0000
3010
0000
0010
0000
,
1000
0000
0000
1000
0000
0000
1000
0000
0001
0000
0000
0001
0000
0000
0001
0000
,
0200
0000
0000
0000
0000
0000
0010
0020
0000
0000
0000
0000
0330
0000
0001
0000
,
2000
0000
0000
0000
0000
0000
3010
0020
0000
0000
0000
0000
0130
0000
0100
0000
,
0200
0000
0000
0000
0000
0000
0001
0302
0000
0000
1000
0000
1003
0000
1000
0000
,
0001
0000
0000
0010
0000
0000
0100
0000
1000
0000
0000
0100
0000
0000
0010
0000
,
0002
0000
0000
0000
0103
0000
0020
0200
0000
0000
0000
0000
0330
0000
0000
0000
,
2000
0000
3001
1000
0000
1000
0001
0000
,
1000
0100
1000
0000
0001
0000
0100
0000
,
0010
0000
0100
0010
0000
0010
0100
0000
,
0001
0100
0001
0000
1000
0000
0100
1000
,
0100
0000
0010
1000
0000
1000
0010
0000
,
0100
0000
0100
0001
0000
0001
0100
0000
,
0010
0000
1000
0010
0000
0010
1000
0000
,
0001
0100
0000
0001
2000
0000
0000
0000
,
3000
0000
0000
0010
0000
0000
0010
0000
1000
0000
0100
0000
0010
0000
0001
0000
,
0100
0000
0000
0100
0000
0000
0100
0000
0001
0000
0010
0000
0100
0000
1000
0000
,
0010
0000
0000
0100
0000
0000
0010
0000
1000
0000
0000
0100
0000
0000
0010
0000
,
0001
0000
0000
0010
0000
0000
0100
0000
0001
0000
0000
0100
0000
0000
0010
0000
,
1000
0000
0000
0001
0000
0000
1000
0000
0001
0000
0000
0100
0000
0010
0000
0000
,
2000
0000
0000
0000
0000
0000
0010
3020
0000
0000
0000
0000
0130
0000
0001
0000
,
2000
0000
0000
0000
0000
0000
0001
3002
0000
0000
0000
0000
0103
0000
0010
0000
,
1000
0000
0000
0100
0000
0000
0010
0000
0001
0000
0010
0000
0100
0000
0001
0000
,
1000
0100
0000
0000
0010
0000
0000
0000
0100
0000
0000
0010
0000
0000
1000
0000
,
0001
0000
0000
0100
0000
0010
0100
0010
0000
0000
1000
0000
0001
0000
0000
0000
,
0010
0000
0000
0001
0000
0000
0100
0000
0001
0100
0001
0000
0100
0000
0010
0000
,
1000
0000
0000
1000
0000
0000
0001
0000
0100
0000
0000
0100
0000
0000
0010
0000
,
2000
0000
0000
0000
3000
0001
0100
0002
0000
0000
0000
1003
0000
2000
0000
0000
,
3001
0000
0100
0010
0000
0010
0100
0000
,
0001
0000
1000
0001
0000
0001
1000
0000
,
0100
0000
1000
0100
0000
0100
1000
0100
,
1000
0000
0010
0100
0000
0100
0010
0000
,
1000
0000
0001
1000
0000
1000
0001
0000
,
0002
0203
0320
2030
,
3100
0000
0010
1000
0000
1000
0010
0000
,
1000
0010
0100
0000
0001
0100
0010
0000
,
1000
0000
0010
0100
0000
0100
0010
0000
,
0001
0000
0100
0010
0000
0010
0100
0000
,
1000
0000
0010
1000
0000
1000
0010
0000
,
0100
0000
0001
0100
0000
0100
0001
0000
,
1000
0100
1000
0100
0000
0000
1001
0000
,
0001
0100
0001
0100
0000
0000
1001
0000
,
2000
0000
3001
0000
0001
0100
0002
0000
,
1003
0000
0000
0110
0000
0000
1001
0000
,
0001
0000
1000
0000
0001
0000
0000
0010
0000
0000
0100
0000
0000
0000
1000
0000
,
0001
0000
1000
0000
0001
0000
0000
1000
0000
0000
0100
0000
0000
0000
0010
0000
,
0001
0000
0100
0000
0001
0000
0000
0010
0000
0000
0100
0000
0000
0000
1000
0000
,
1000
0000
0010
0000
1000
0000
0000
0100
0000
0000
0010
0000
0000
0000
0002
0000
,
2000
0000
0000
0000
,
3003
0000
0000
0000
;

//---------------dance-single - ----------------
#NOTES:
     dance-single:
     :
     Beginner:
     1:
     0.067,0.100,0.000,0.000,0.000:
0000
0000
0000
0000
,
0000
0000
0000
0000
,
0001
0000
0000
0000
,
0001
0000
0000
0000
,
1000
0000
0000
0000
,
1000
0000
0000
0000
,
0010
0000
0000
0000
,
0010
0000
0000
0000
,
0100
0000
0000
0000
,
0100
0000
0000
0000
,
0001
0000
0000
0000
,
0001
0000
0000
0000
,
1000
0000
0000
0000
,
1000
0000
0000
0000
,
0010
0000
0000
0000
,
0010
0000
0000
0000
,
0100
0000
0000
0000
,
0100
0000
0000
0000
,
0001
0000
0001
0000
,
1000
0000
1000
0000
,
0010
0000
0010
0000
,
0100
0000
0100
0000
,
0100
0000
0000
0000
,
1000
0000
0000
0000
,
0001
0000
0000
0000
,
0100
0000
0000
0000
,
0010
0000
0000
0000
,
1000
0000
1000
0000
,
0001
0000
0001
0000
,
0100
0000
0100
0000
,
0010
0000
0010
0000
,
1000
0000
0000
0000
,
0001
0000
0000
0000
,
0100
0000
0000
0000
,
0010
0000
0000
0000
,
1000
0000
1000
0000
,
1000
0000
0000
0000
,
0001
0000
0001
0000
,
0001
0000
0000
0000
,
0100
0000
0000
0000
,
0010
0000
0000
0000
,
0100
0000
0000
0000
,
0010
0000
0000
0000
,
1000
0000
0000
0000
,
0001
0000
0000
0000
,
1000
0000
0000
0000
,
0001
0000
0000
0000
,
0100
0000
0000
0000
,
0010
0000
0000
0000
,
0001
0000
0000
0000
,
1000
0000
0000
0000
,
0001
0000
0000
0000
;

//---------------dance-double - Copied from----------------
#NOTES:
     dance-double:
     Copied from:
     Hard:
     9:
     0.323,0.325,0.016,0.219,0.149:
00000000
00000000
00000000
00000000
,
00000000
00000000
00000000
00000000
,
00002000
00000000
00000000
00000000
00000000
00000000
00013000
00020000
00000000
00000000
00000000
00000000
00030100
00000000
00000100
00000000
,
00002000
00000000
00000000
00000000
00000000
00000000
00003001
00000002
00000000
00000000
00000000
00000000
00000103
00000000
00000100
00000000
,
00000001
00000000
00000000
00000001
00000000
00000000
00000001
00000000
00001000
00000000
00000000
00001000
00000000
00000000
00001000
00000000
,
00000200
00000000
00000000
00000000
00000000
00000000
00010300
00020000
00000000
00000000
00000000
00000000
00030000
00000000
00001000
00000000
,
00200000
00000000
00000000
00000000
00000000
00000000
00310000
00020000
00000000
00000000
00000000
00000000
01030000
00000000
01000000
00000000
,
02000000
00000000
00000000
00000000
00000000
00000000
00010000
03020000
00000000
00000000
10000000
00000000
10030000
00000000
10000000
00000000
,
00010000
00000000
00000000
01000000
00000000
00000000
00001000
00000000
00010000
00000000
00000000
00000100
00000000
00000000
00001000
00000000
,
00000002
00000000
00000000
00000000
00000103
00000000
00000020
00000200
00000000
00000000
00000000
00000000
00000330
00000000
00000000
00000000
,
00002000
00000000
00003001
00001000
00000000
00001000
00000001
00000000
,
00001000
00000100
00001000
00000000
00000100
00000000
00010000
00000000
,
00001000
00000000
01000000
00010000
00000000
00010000
01000000
00000000
,
00010000
01000000
00010000
00000000
10000000
00000000
01000000
10000000
,
01000000
00000000
10000000
00010000
00000000
00010000
00100000
00000000
,
00001000
00000000
00010000
00001000
00000000
00001000
00010000
00000000
,
00000010
00000000
00000100
00000010
00000000
00000010
00000100
00000000
,
00000010
00010000
00000000
00001000
00200000
00000000
00000000
00000000
,
00300000
00000000
00000000
00100000
00000000
00000000
00100000
00000000
00010000
00000000
01000000
00000000
00100000
00000000
10000000
00000000
,
01000000
00000000
00000000
01000000
00000000
00000000
01000000
00000000
10000000
00000000
00100000
00000000
01000000
00000000
00010000
00000000
,
00100000
00000000
00000000
01000000
00000000
00000000
00100000
00000000
10000000
00000000
00000000
01000000
00000000
00000000
00100000
00000000
,
00010000
00000000
00000000
00100000
00000000
00000000
00001000
00000000
00010000
00000000
00000000
00000100
00000000
00000000
00001000
00000000
,
00000001
00000000
00000000
00000000
00000000
00000000
00000000
00000000
00000100
00000000
00000000
00000010
00000000
00000100
00000000
00000000
,
00000002
00000000
00000000
00000000
00000000
00000000
00000100
00000203
00000000
00000000
00000000
00000000
00000310
00000000
00001000
00000000
,
00000002
00000000
00000000
00000000
00000000
00000000
00001000
00002003
00000000
00000000
00000000
00000000
00003010
00000000
00010000
00000000
,
00001000
00000000
00000000
01000000
00000000
00000000
00010000
00000000
01000000
00000000
00100000
00000000
01000000
00000000
00010000
00000000
,
10000000
01000000
00000000
00000000
00100000
00000000
00000000
00000000
01000000
00000000
00000000
00100000
00000000
00000000
10000000
00000000
,
00010000
00000000
00000000
01000000
00000000
00100000
01000000
00100000
00000000
00000000
10000000
00000000
00010000
00000000
00000000
00000000
,
00100000
00000000
00000000
00001000
00000000
00000000
00010000
00000000
00001000
00010000
00001000
00000000
00010000
00000000
00000100
00000000
,
00001000
00000000
00000000
00001000
00000000
00000000
00000001
00000000
00000100
00000000
00000000
00000100
00000000
00000000
00000010
00000000
,
00010000
00000000
00000000
00000000
00000000
00001000
00010000
00002000
00000000
00000000
00000000
00103000
00000000
00200000
00000000
00000000
,
00300000
00000000
01000000
00100000
00000000
00100000
01000000
00000000
,
00010000
00000000
10000000
00010000
00000000
00010000
10000000
00000000
,
01000000
00000000
00100000
00010000
00000000
00000000
00100000
00001000
,
00100000
00000000
00001000
00010000
00000000
00010000
00001000
00000000
,
00010000
00000000
00000100
00010000
00000000
00010000
00000100
00000000
,
00002000
00003200
00000320
00000032
,
00000103
00000000
00000010
00001000
00000000
00001000
00000010
00000000
,
00001000
00000010
00000100
00000000
00000001
00000100
00000010
00000000
,
00001000
00000000
00000100
00010000
00000000
00010000
00001000
00000000
,
00100000
00000000
00010000
01000000
00000000
01000000
00010000
00000000
,
10000000
00000000
00100000
10000000
00000000
10000000
00100000
00000000
,
01000000
00000000
00010000
01000000
00000000
01000000
00010000
00000000
,
00100000
00001000
00100000
00001000
00000000
00000000
00010000
00000000
,
00000100
00010000
00000100
00010000
00000000
00000000
00000010
00000000
,
00000200
00000000
00000000
00000310
,
00000001
00000000
00000000
00000110
00000000
00000000
00001001
00000000
,
00000001
00000000
00000010
00000000
00000100
00000000
00000000
00010000
00000000
00000000
00001000
00000000
00000000
00000000
01000000
00000000
,
00010000
00000000
00100000
00000000
01000000
00000000
00000000
10000000
00000000
00000000
01000000
00000000
00000000
00000000
00100000
00000000
,
00010000
00000000
01000000
00000000
00010000
00000000
00000000
00100000
00000000
00000000
00001000
00000000
00000000
00000000
00010000
00000000
,
00000100
00000000
00001000
00000000
00000001
00000000
00000000
00000100
00000000
00000000
00000010
00000000
00000000
00000000
00020000
00000000
,
00002000
00000000
00000000
00000000
,
00033000
00000000
00000000
00000000
;

//---------------dance-double - ----------------
#NOTES:
     dance-double:
     :
     Easy:
     4:
     0.188,0.224,0.008,0.438,0.000:
00000000
00000000
00000000
00000000
,
00000000
00000000
00000000
00000000
,
00200000
00000000
02300000
03000000
,
00020000
00000000
02030000
03000000
,
00001000
00010000
00001000
00010000
,
00000020
00000000
00000130
00000010
,
00000200
00000000
00000302
00000003
,
00002000
00000000
00003200
00000300
,
00010000
00001000
00010000
00001000
,
02000000
00000000
03200000
00300000
,
00000000
10000000
00000000
10000000
,
00010000
00010000
00010000
00000000
,
00000000
01000000
00000000
01000000
,
00001000
00001000
00001000
00000000
,
00000000
00010000
00000000
00010000
,
00000100
00000100
00000100
00000000
,
00000010
00000010
00000010
00000000
,
00001000
00000001
00001000
00000000
,
00000020
00000000
00000100
00000130
,
00002000
00000000
00000100
00003100
,
00020000
00000000
00001000
00031000
,
02000000
03010000
20000000
30100000
,
02000000
00000000
03200000
00000000
,
20300000
00000000
30020000
00000000
,
00230000
00000000
00302000
00000000
,
00023000
00000000
00031000
00010000
,
00002000
00000000
00023000
00000000
,
00030010
00000100
00000002
00000003
,
00001000
00000100
00002000
00003000
,
00200000
00300000
00020000
00030000
,
02000000
00000000
00200000
03300000
,
20000000
00000000
00000000
00000000
,
30020000
00000000
00000000
00130000
,
00002000
00000000
00000000
00013000
,
00000020
00000000
00000130
00000001
,
00002000
00000000
00003200
00000000
,
00000310
00000000
00000100
00000000
,
00000020
00000000
00000030
00000000
,
00002000
00000000
00003001
00000000
,
00000020
00000000
00020030
00000000
,
00032000
00000000
00013000
00000000
,
00002000
00000000
02003000
00000000
,
03020000
00000000
10030000
00000000
,
20000000
00000000
30200000
00000000
,
02300000
00000000
03020000
00000000
,
00230000
00000000
00000000
00300000
,
00001000
00000000
00010000
00000000
,
00002000
00000000
00000000
00000000
,
02003000
00000000
00000000
00000000
,
03020000
00000000
00000000
00000000
,
00030020
00000000
00000000
00000030
,
00022000
00000000
00000000
00000000
,
00033000
00000000
00000000
00000000
;

//---------------dance-double - ----------------
#NOTES:
     dance-double:
     :
     Medium:
     6:
     0.261,0.285,0.023,0.555,0.000:
00000000
00000000
00000000
00000000
,
00000000
00000000
00000000
00000000
,
02000000
00000000
03020000
01030000
,
00200000
00000000
00302000
00013000
,
00010000
00001000
00000100
00000010
,
00000002
00000000
00000203
00000310
,
00002000
00000000
00003020
00000130
,
00020000
00000000
00032000
00103000
,
00010000
01000000
00100000
10000000
,
02000000
00000000
03020000
00030000
,
00000000
00100000
00000000
00100000
,
00001000
00010000
00001000
00010000
,
00000200
00001000
00000000
00001300
,
00000010
00000001
00000010
00000001
,
00000200
00000010
00000000
00000310
,
00001000
00000100
00002000
00003000
,
00000100
00010000
00002000
00003000
,
00100000
00010000
02000000
03000000
,
20000000
00000000
00100000
30100000
,
00200000
00000000
00001000
00301000
,
00020000
00030100
00002000
00003001
,
00020000
00031000
00002000
01003000
,
02200000
03300000
20020000
30030000
,
20000000
00000000
30200000
00000000
,
00302000
00000000
00003200
00000000
,
00000310
00000001
00000100
00001000
,
00000200
00000000
00020300
00032000
,
00203000
00310000
02000000
13000000
,
20000000
30100000
00200000
00301000
,
00020000
00030010
00000200
00000301
,
00000020
00001030
00020200
00030300
,
00002000
00100000
00000000
00103000
,
00200000
00010000
00000000
00310000
,
02000000
00100000
00000000
03100000
,
20000000
01000000
00000000
31000000
,
00200000
01000000
00000000
01300000
,
20000000
30200000
02300000
03002000
,
00023000
00000100
00000000
00030100
,
00002000
00003020
00000230
00000302
,
00000023
00000100
00000000
00000130
,
00000001
00000010
00000100
00001000
,
00000200
00010000
00000000
00010300
,
00001000
00100000
00010000
01000000
,
20000000
01000000
00000000
31000000
,
00200000
00010000
00000000
00310000
,
00002000
00010000
00000000
00013000
,
00000200
00000000
00000320
00000000
,
00000032
00000100
00000100
00000103
,
00002000
00000100
00000100
00013000
,
00200000
00010000
00010000
01300000
,
20000000
01000000
30200000
00302000
,
00020000
00000000
00000000
00000000
,
00033000
00000000
00000000
00000000
;

//---------------dance-single - ----------------
#NOTES:
     dance-single:
     :
     Medium:
     5:
     0.256,0.305,0.055,0.555,0.000:
0000
0000
0000
0000
,
0000
0000
0000
0000
,
0020
0031
0200
1300
,
2000
3100
0002
0013
,
2000
3100
0200
0310
,
0020
0031
0002
1003
,
0020
1030
2000
3100
,
0200
0301
0002
0103
,
2000
3010
0020
0130
,
0200
0310
0220
0330
,
0000
1000
0000
1000
,
0001
0010
0100
1000
,
2000
0001
0000
3001
,
1000
0100
0010
0001
,
0002
0100
0000
0103
,
0020
1000
0000
1030
,
0200
0001
0000
0301
,
0020
0100
0000
0100
,
0130
0000
1000
1001
,
0020
0030
0001
1001
,
0200
0300
0020
0030
,
2000
3000
0002
0003
,
2002
0000
3003
0010
,
0200
0000
0020
0330
,
0002
0000
2000
3003
,
1000
0100
0010
0001
,
2002
3003
0220
0330
,
0002
0023
0230
0300
,
2000
3200
0320
0030
,
0002
0003
2000
3000
,
0020
0030
0200
0300
,
0002
0100
0000
0103
,
2000
0100
0000
3100
,
0020
0100
0000
0130
,
0002
0010
0000
0013
,
2000
0100
0000
3100
,
0010
0100
0010
0100
,
0002
0100
0000
0103
,
2000
0100
0000
3100
,
0020
0100
0000
0100
,
0230
0000
0302
0000
,
2003
0010
0000
3010
,
0020
0000
2030
0000
,
3002
0100
0000
0103
,
2000
0100
0000
3100
,
0020
0100
0000
0130
,
0002
0000
2003
0000
,
3020
0100
1000
0130
,
2000
0100
0010
3100
,
0002
0010
0100
0010
,
0203
0010
0001
0310
,
2002
0000
0000
0000
,
3003
0000
0000
0000
;

//---------------dance-single - ----------------
#NOTES:
     dance-single:
     :
     Easy:
     3:
     0.152,0.203,0.031,0.227,0.000: // measure 1
0000
0000
0000
0000
,  // measure 2
0000
0000
0000
0000
,  // measure 3
1000
0000
1000
0000
,  // measure 4
0001
0000
0001
0000
,  // measure 5
0010
0000
0010
0000
,  // measure 6
0100
0000
0100
0000
,  // measure 7
0001
0000
0001
0000
,  // measure 8
1000
0000
1000
0000
,  // measure 9
0010
0000
0100
0000
,  // measure 10
0010
0000
0100
0000
,  // measure 11
0000
0001
0000
0001
,  // measure 12
0000
0100
0010
0100
,  // measure 13
0000
1000
0000
1000
,  // measure 14
0000
0010
0100
0010
,  // measure 15
0000
0001
0000
0001
,  // measure 16
0000
0100
0010
0100
,  // measure 17
0000
1000
0000
1000
,  // measure 18
0000
0010
0100
0000
,  // measure 19
0000
0000
0001
0001
,  // measure 20
0002
0003
1000
1000
,  // measure 21
2000
3000
0020
0030
,  // measure 22
0200
0300
0002
0003
,  // measure 23
2002
0000
3003
0000
,  // measure 24
0020
0030
0200
0300
,  // measure 25
0002
0003
2000
3000
,  // measure 26
0020
0030
0001
0001
,  // measure 27
2000
3000
0100
0100
,  // measure 28
0001
0001
1001
0000
,  // measure 29
1000
1000
1001
0000
,  // measure 30
0020
0030
0200
0300
,  // measure 31
0002
0003
2000
3000
,  // measure 32
0000
0001
0000
1000
,  // measure 33
0000
0001
0000
1000
,  // measure 34
0000
0010
0000
0100
,  // measure 35
0000
0010
0000
0100
,  // measure 36
0001
0001
0000
1000
,  // measure 37
1000
1000
0000
0010
,  // measure 38
0010
0000
0100
0000
,  // measure 39
0001
0000
1000
0000
,  // measure 40
0001
0100
0001
0000
,  // measure 41
0020
0000
0030
0000
,  // measure 42
1000
0010
1000
0000
,  // measure 43
0200
0000
0300
0000
,  // measure 44
0002
0000
1003
0000
,  // measure 45
2000
0000
3001
0000
,  // measure 46
0020
0000
0030
0000
,  // measure 47
0200
0000
0310
0000
,  // measure 48
2002
0000
0000
3003
,  // measure 49
2000
0000
0000
3000
,  // measure 50
0002
0000
0000
0003
,  // measure 51
0200
0000
0000
0300
,  // measure 52
0020
0000
0000
0000
,  // measure 53
0030
0000
0000
0000
;
