#TITLE:liar;
#SUBTITLE:;
#ARTIST:zts;
#TITLETRANSLIT:;
#SUBTITLETRANSLIT:;
#ARTISTTRANSLIT:;
#GENRE:;
#CREDIT:;
#BANNER:liar.png;
#BACKGROUND:liar-bg.png;
#LYRICSPATH:;
#CDTITLE:;
#MUSIC:liar.mp3;
#OFFSET:-0.113000;
#SAMPLESTART:87.189957;
#SAMPLELENGTH:13.702677;
#SELECTABLE:YES;
#DISPLAYBPM:140.000000;
#BPMS:0.000000=139.000000
,12.000000=139.399994
,15.000000=137.600006
,17.000000=139.500000
,20.000000=139.220001
,21.000000=139.100006
,22.000000=139.500000
,23.000000=140.000000
,35.500000=135.000000
,36.000000=139.899994
,36.500000=140.000000
,201.000000=139.000000
,202.000000=877.000000
,204.000000=140.009995
,205.000000=140.000000
;
#STOPS:202.000000=0.357000,
203.000000=0.357000
;
#BGCHANGES:0.000=liar.avi=1.000=0=0=0=StretchNoLoop====,
316.000=liar-bg.png=1.000=0=0=0=StretchNoLoop====,
99999=-nosongbg-=1.000=0=0=0 // don't automatically add -songbackground-
;
#KEYSOUNDS:;
#ATTACKS:;

//---------------dance-single - ----------------
#NOTES:
     dance-single:
     :
     Hard:
     12:
     0.511543,0.616933,0.532087,0.179759,0.467374,498.000000,424.000000,74.000000,25.000000,0.000000,0.000000,0.511543,0.616933,0.532087,0.179759,0.467374,498.000000,424.000000,74.000000,25.000000,0.000000,0.000000:
0000
0000
0000
0000
,
0000
0000
0000
0000
,
0000
0000
0000
0000
,
0000
0000
0000
0000
,
0000
0000
0000
0000
,
1000
0000
1001
0000
1000
0100
0010
0000
,
0001
0000
1001
0000
0001
0010
0100
0000
,
1001
0000
1001
0000
1000
0001
1000
0100
,
0000
1100
0000
1010
0000
1001
0000
0001
,
1001
0000
0000
0000
1100
0000
0000
1000
0100
0000
0000
0000
0101
0000
0000
0001
,
0100
0000
0000
0000
0110
0000
0000
0100
0010
0000
0000
0000
1010
0000
0000
1000
,
0010
0000
0000
0000
0110
0000
0000
0010
0100
0000
0000
0000
0101
0000
0000
0100
,
0001
0000
0000
0000
1001
0000
0000
0001
1000
0000
0000
0000
1010
0000
0000
0010
,
0100
0000
0000
0000
0101
0000
0000
0100
0010
0000
0000
0000
1001
0000
0000
1000
,
0100
0000
0000
0000
1001
0000
0000
0001
0100
0000
0000
0000
0110
0000
0000
1000
,
0010
0000
0000
0000
0110
0000
0000
0100
0001
0000
0000
0000
0001
0000
1001
0000
,
0000
0101
0000
0011
0000
0101
0000
1001
,
1001
1000
0010
0000
1100
1000
0100
0000
,
0101
0001
0100
0000
0110
0010
0100
0000
,
1001
0001
0100
0000
1001
1000
0100
0000
,
0010
0110
0000
1001
0000
0110
0000
1000
,
0001
0100
0110
0000
1000
0010
0110
0000
,
0100
0010
0110
0000
1000
0001
1001
0000
,
1000
1000
0001
0001
0100
0100
0010
0010
,
1000
0100
0010
0001
1000
0010
0100
0001
,
0010
0000
0000
0000
1010
0000
0000
1000
0010
0000
1000
0000
0010
0000
0100
0000
,
0001
0000
0000
0000
0101
0000
0000
0100
0001
0000
0100
0000
0010
0000
1000
0000
,
0010
0000
0000
0000
0110
0000
0000
0100
0010
0000
0100
0000
0001
0000
1000
0000
,
0001
1001
0000
1010
0000
1100
0000
0100
,
0100
0000
0000
0000
0110
0000
0000
0010
1000
0000
0000
0000
1010
0000
0000
1000
,
0100
0000
0000
0000
0101
0000
0000
0100
0001
0000
0000
0000
0011
0000
0000
0001
,
0100
0010
0100
0010
1000
0001
1000
0001
,
0000
1100
0000
0101
0000
1100
0000
0001
,
2002
0000
0000
0000
,
0000
0000
0000
0000
0000
0000
0000
0000
0000
0000
0000
0000
0000
0000
0000
0000
0000
0000
0000
0000
0000
0000
0000
3003
,
0020
0000
0130
0000
0200
0010
0300
0010
,
2000
0000
3000
0002
0000
0000
0003
0000
,
0200
0000
0310
0000
2000
0001
0000
3001
,
0200
0000
0300
0020
0000
0000
0030
0000
,
2000
0000
3100
0000
2000
0010
0000
3010
,
0200
0000
0000
0002
0000
0000
0303
0000
,
0002
0000
0013
0002
0000
0010
0000
0020
,
0033
0200
2300
3020
,
0130
0101
1000
1001
,
0010
0000
0100
0010
0000
0100
0010
0000
,
1000
0000
1001
0000
1000
0001
0000
0001
,
1000
0000
0001
0100
0000
0100
0001
0000
,
1000
0000
1100
0000
0010
0100
0000
0100
,
0010
0000
1000
0001
0000
0001
1000
0000
,
0001
0000
0100
0001
0000
0100
0000
0002
,
2000
0000
0000
0000
0000
0000
0000
0000
0000
0000
0000
3003
0020
0000
0000
0000
0000
0000
0130
0000
0000
0000
0000
0000
,
0100
0000
0001
0000
0100
0000
0000
0000
0001
0000
0000
1000
0000
0001
0000
1000
,
0000
0001
0000
0000
1000
0000
0000
0000
0001
0000
0000
0100
0000
0001
0000
0100
,
0000
0001
0000
0000
1000
0000
0000
0000
0100
0000
0000
0001
0000
1000
0000
0001
,
0000
1000
0000
0000
0010
0000
0000
0000
0100
0000
0000
0001
0000
0100
0000
0001
,
0000
1000
0000
0000
1001
0000
0000
0000
1100
0000
0000
0100
0000
1000
0000
0100
,
1000
0100
0000
0000
1000
0000
0000
0000
0101
0000
0000
0010
0000
0100
0000
0010
,
0100
0010
0000
0000
1001
0000
0000
0000
0110
0000
0000
0001
0000
1000
0000
0001
,
0100
0001
0000
0000
0010
0000
1000
0000
0010
0000
0000
0100
0000
0001
0000
0100
,
0001
0100
0000
0000
0101
0000
0000
0001
0100
0000
0000
0010
0100
0010
0000
0100
,
0000
0010
0000
0000
1001
0000
0000
0001
1000
0000
0000
1000
0001
1000
0000
0001
,
0000
1000
0000
0000
0101
0000
0000
0100
0001
0000
0000
0001
0100
0001
0000
0100
,
0000
0010
0000
0000
0110
0000
0000
0010
0100
0000
0000
0010
1000
0010
0000
1000
,
0000
0010
0000
0000
1001
0000
0000
1000
0001
0000
0000
0001
0100
0001
0000
0010
,
0000
0100
0000
0000
1010
0000
0000
1000
0010
0000
0000
1000
0000
0001
0000
1000
,
0001
1000
0000
0000
0001
0000
0000
0100
0010
0000
0000
0100
0010
0100
0000
0001
,
1000
0001
0000
0000
0100
0000
0000
0010
1000
0000
0000
0100
0010
0100
0000
0010
,
0100
0010
0000
0010
1000
0000
0000
1000
0100
0000
0000
0100
0010
0100
0000
0010
,
0100
0000
0000
0100
0001
0000
0000
0001
1000
0000
0000
1000
0001
1000
0000
0001
,
1000
0000
0000
1000
0010
0000
0000
0010
0100
0000
0000
0100
0001
0100
0000
0100
,
0001
0000
0000
0001
0010
0000
0000
0010
1000
0000
0000
1000
0010
1000
0000
1000
,
0100
0000
0000
0100
0010
0000
0000
0010
1000
0000
0000
1000
0010
1000
0000
0010
,
1000
0000
0000
1000
0001
0000
0000
0001
0100
0000
0000
0100
0010
0100
0000
0010
,
0100
0010
0000
0000
1001
0000
0000
0001
0100
0000
0000
0001
0100
0001
0000
0100
,
0010
0100
0000
0000
1010
0000
0000
0000
0101
0000
0000
1001
0000
1001
0000
0000
,
2002
0000
0000
0000
,
0000
0000
0000
0000
,
0000
0000
0000
0000
,
3003
0000
0000
0000
;

//---------------dance-double - ----------------
#NOTES:
     dance-double:
     :
     Hard:
     12:
     0.460183,0.560848,0.661514,0.230092,0.327162,448.000000,356.000000,92.000000,32.000000,0.000000,0.000000,0.460183,0.560848,0.661514,0.230092,0.327162,448.000000,356.000000,92.000000,32.000000,0.000000,0.000000:
// measure 0
00000000
00000000
00000000
00000000
,  // measure 1
00000000
00000000
00000000
00000000
,  // measure 2
00000000
00000000
00000000
00000000
,  // measure 3
00000000
00000000
00000000
00000000
,  // measure 4
00000000
00000000
00000000
00000000
,  // measure 5
11000000
00000000
01010000
00000000
01000000
00100000
00010000
00000000
,  // measure 6
00110000
00000000
00011000
00000000
00010000
00000100
00001000
00000000
,  // measure 7
00001100
00000000
00000011
00000000
00000001
00000000
00000100
00000001
,  // measure 8
00000000
00000101
00000000
00001001
00000000
00011000
00000000
01000000
,  // measure 9
00010000
00000000
01010000
00000000
00010000
01000000
00100000
00000000
,  // measure 10
10000000
00000000
11000000
00000000
01000000
00010000
00100000
00000000
,  // measure 11
00100000
00000000
00011000
00000000
00001000
00010000
00000010
00000000
,  // measure 12
00001000
00000000
00001010
00000000
00000010
00000100
00000001
00000000
,  // measure 13
00000001
00000000
00001001
00000000
00000001
00001000
00000100
00000000
,  // measure 14
00000100
00000000
00000101
00000000
00000010
00001000
00000100
00000000
,  // measure 15
00010100
00000000
00011000
00000000
01001000
00000000
01000000
00010000
,  // measure 16
00000000
10010000
00000000
01010000
00000000
00011000
00000000
00010000
,  // measure 17
00000100
00000000
00001010
00000000
00000001
00000010
00000100
00000000
,  // measure 18
00000010
00000000
00001100
00000000
00000100
00010000
00001000
00000000
,  // measure 19
00100000
00000000
00110000
00000000
00010000
00000000
10000000
01000000
,  // measure 20
00000000
11000000
00000000
01010000
00000000
01001000
00000000
00010000
,  // measure 21
00001000
00000000
00010100
00000000
00000100
00001000
00000010
00000000
,  // measure 22
00000100
00000000
00000101
00000000
00000010
00000001
00000100
00000000
,  // measure 23
00000010
00000000
00001010
00000000
00000100
00000000
00010000
00001000
,  // measure 24
00000000
00101000
00000000
00110000
00000000
01010000
00000000
01000000
,  // measure 25
00001000
00000000
00000000
00000000
00011000
00000000
00000000
00000100
00010000
00000000
00000100
00000000
00001000
00000000
00000000
00000000
,  // measure 26
00000001
00000000
00000000
00000000
00001001
00000000
00000000
00000100
00001000
00000000
00000100
00000000
00010000
00000000
00001000
00000000
,  // measure 27
01000000
00000000
00000000
00000000
01010000
00000000
00000000
01000000
00010000
00000000
10000000
00000000
01000000
00000000
00100000
00000000
,  // measure 28
00000000
01010000
00000000
01001000
00000000
00011000
00000000
00010000
,  // measure 29
00000100
00000000
00001001
00000000
00000010
00010000
00001000
00000000
,  // measure 30
00100000
00000000
00110000
00000000
00010000
10000000
01000000
00000000
,  // measure 31
10000000
00100000
01000000
00000000
00001000
00010000
00000100
00001000
,  // measure 32
00000000
00001010
00000000
00000101
00000000
00010010
00000000
00020000
,  // measure 33
00002000
00000000
00000000
00000000
,  // measure 34
00000000
00000000
00000000
00033000
,  // measure 35
00002000
00000000
00103000
00000000
00020000
01000000
00000000
01030000
,  // measure 36
00200000
00000000
00000000
20000000
00000000
00000000
30300000
00000000
,  // measure 37
20000000
00000000
30100000
00000000
02000000
00001000
00000000
03001000
,  // measure 38
00020000
00000000
00000000
00000200
00000000
00000000
00030300
00000000
,  // measure 39
00002000
00000000
00003001
00000000
00002000
00000100
00000000
00003100
,  // measure 40
00020000
00000000
00000000
00002000
00000000
00000000
00033000
00000000
,  // measure 41
02000000
00000000
00000000
00020000
00000000
00000000
03030000
00000000
,  // measure 42
00000000
11000000
01001000
00010100
,  // measure 43
00001100
00000000
00001001
00000000
00000020
00000100
00000000
00000130
,  // measure 44
00000002
00000000
00000103
00000020
00000000
00000000
00001030
00000000
,  // measure 45
00000100
00000000
00010100
00000000
00020000
00001000
00000000
00031000
,  // measure 46
02000000
00000000
03010000
20000000
00000000
00000000
30100000
00000000
,  // measure 47
10000000
00000000
11000000
00000000
00200000
01000000
00000000
01300000
,  // measure 48
00020000
00000000
01030000
00002000
00000000
00000000
00013000
00000000
,  // measure 49
00020000
00000000
00030200
00002300
00000000
00000000
00003001
00000000
,  // measure 50
00002002
00000000
00000000
00003003
00001001
00000000
00011000
00000000
,  // measure 51
10010000
00000000
00000000
00000000
01100000
00000000
00000000
00000000
10010000
00000000
00000000
10000000
00000000
01000000
00000000
00010000
,  // measure 52
00000000
00000000
00000000
00000000
10010000
00000000
00000000
00000000
01010000
00000000
00000000
00100000
00000000
00010000
00000000
00001000
,  // measure 53
00000000
00000000
00000000
00000000
00001100
00000000
00000000
00000000
00000101
00000000
00000000
00000001
00000000
00000010
00000000
00000100
,  // measure 54
00000000
00000000
00000000
00000000
00001100
00000000
00000000
00000000
00010100
00000000
00000000
00010000
00000000
00001000
00000000
00010000
,  // measure 55
00000000
00000000
00000000
00000000
00011000
00000000
00000000
00000000
00101000
00000000
00000000
00100000
00000000
00010000
00000000
01000000
,  // measure 56
00000000
00000000
00000000
00000000
10100000
00000000
00000000
00000000
11000000
00000000
00000000
00100000
00000000
10000000
00000000
01000000
,  // measure 57
00000000
00000000
00000000
00000000
11000000
00000000
00000000
00000000
01010000
00000000
00000000
00100000
00000000
00001000
00000000
00010000
,  // measure 58
00000000
00000000
00000000
00000000
00011000
00000000
00000000
00000000
00010010
00000000
00000000
00000010
00000000
00001000
00000000
00000100
,  // measure 59
00000000
00001000
00000000
00000000
00001001
00000000
00000000
00000000
00000101
00000000
00000000
00000010
00000000
00000001
00000000
00000100
,  // measure 60
00000000
00000010
00000000
00000000
00001010
00000000
00000000
00000000
00001100
00000000
00000000
00000100
00000000
00010000
00000000
00001000
,  // measure 61
00000000
01000000
00000000
00000000
01010000
00000000
00000000
00000000
11000000
00000000
00000000
00100000
00000000
10000000
00000000
01000000
,  // measure 62
00000000
10000000
00000000
00000000
10100000
00000000
00000000
00000000
01001000
00000000
00000000
00001000
00000000
00010000
00000000
00000100
,  // measure 63
00000000
00001000
00000000
00000000
00001001
00000000
00000000
00000000
00001100
00000000
00000000
00010000
00000000
00001000
00000000
01000000
,  // measure 64
00000000
00100000
00000000
00000000
10010000
00000000
00000000
00000000
11000000
00000000
00000000
00100000
00000000
01000000
00000000
00001000
,  // measure 65
00000000
00010000
00000000
00000000
00011000
00000000
00000000
00000000
00001001
00000000
00000000
00000010
00000000
00001000
00000000
00000100
,  // measure 66
00000000
00010000
00000000
00000000
00011000
00000000
00000000
00000000
01001000
00000000
00000000
01000000
00000000
00010000
00000000
01000000
,  // measure 67
00100000
01000000
00000000
00000000
10010000
00000000
00000000
00000000
11000000
00000000
00000000
00100000
01000000
00100000
00000000
01000000
,  // measure 68
00010000
01000000
00000000
00000000
00100000
00000000
00001000
00000000
00010000
00000000
00000000
00000100
00000000
00001000
00000000
00000010
,  // measure 69
00001000
00000010
00000000
00000000
00000100
00000000
00000000
00000000
00000001
00000000
00000000
00001000
00000001
00001000
00000000
00000010
,  // measure 70
00001000
00000010
00000000
00000000
00010000
00000000
00001000
00000000
01000000
00000000
00000000
00010000
10000000
00010000
00000000
10000000
,  // measure 71
00010000
10000000
00000000
00000000
00100000
00000000
01000000
00000000
00001000
00000000
00000000
00010000
00000100
00010000
00000000
00000100
,  // measure 72
00001000
00000100
00000000
00000000
00001000
00000000
00000010
00000000
00000100
00000000
00000000
00000001
00000000
00001000
00000000
00000100
,  // measure 73
00001000
00000100
00000000
00000000
00000010
00000000
00010000
00000000
00001000
00000000
00000000
00100000
00000000
00001000
00000000
01000000
,  // measure 74
00000000
01010000
00000000
00000000
10010000
00000000
00000000
00000000
00011000
00000000
00000000
00010000
00000000
00000010
00000000
00020000
,  // measure 75
00002000
00000000
00000000
00000000
,  // measure 76
00000000
00000000
00000000
00000000
,  // measure 77
00000000
00000000
00000000
00000000
,  // measure 78
00033000
00000000
00000000
00000000
;

//---------------dance-single - ----------------
#NOTES:
     dance-single:
     :
     Medium:
     9:
     0.348219,0.448679,0.258853,0.266044,0.003595,339.000000,303.000000,36.000000,37.000000,0.000000,0.000000,0.348219,0.448679,0.258853,0.266044,0.003595,339.000000,303.000000,36.000000,37.000000,0.000000,0.000000:
0000
0000
0000
0000
,
0000
0000
0000
0000
,
0000
0000
0000
0000
,
0000
0000
0000
0000
,
0000
0000
0000
0000
,
0010
1000
0010
1000
,
0001
0100
0001
0100
,
0010
0000
0100
0000
0010
0000
0000
0001
,
0000
1000
0000
0100
0000
0010
0000
0001
,
1000
0000
0001
0000
1000
0001
1000
0000
,
0001
0000
1000
0000
0001
0100
0001
0000
,
1000
0000
0001
0000
1000
0100
1000
0000
,
0010
0100
0010
0000
0001
0010
0001
0000
,
1000
0000
0100
0000
1000
0010
1000
0000
,
0001
0000
0100
0000
0001
0010
0001
0000
,
1000
0010
1000
0000
0010
0000
1000
0100
,
0000
0010
0000
0001
0000
0100
0000
0001
,
1000
0000
1001
0000
0010
0100
0010
0000
,
0001
0000
1001
0000
0100
0010
0100
0000
,
1000
1100
0001
0101
,
0100
0010
0000
1000
0000
0001
0000
1000
,
0100
0000
1100
0000
0001
0100
0001
0000
,
0010
0000
0011
0000
1000
0100
1000
0000
,
0010
0000
0110
0000
1000
0001
1000
0001
,
0000
0010
0000
0100
0000
1000
0000
0001
,
0100
0000
0101
0000
1000
0100
0100
0000
,
1000
0000
1100
0000
0001
0100
0100
0000
,
0010
0000
0110
0000
1000
0001
0001
1000
,
0000
0010
0000
0100
0000
0001
0000
1000
,
0001
0000
0101
0000
0010
1000
1000
0000
,
1000
0000
1100
0000
0010
0001
0001
0000
,
0100
0010
0010
0000
0001
1000
1000
0001
,
0000
0110
0000
1001
0000
0110
0000
2000
,
0002
0000
0000
0000
,
0000
0000
0000
3003
,
0020
0000
0230
0000
,
0302
0000
0000
2000
0000
0000
3003
0000
,
0200
0000
0320
0000
,
2030
0000
0000
0002
0000
0000
3003
0000
,
2000
0000
3200
0000
,
0320
0000
0000
0002
0000
0000
0033
0000
,
0002
0000
0000
0200
0000
0000
0303
0000
,
0000
0002
0203
0320
,
2030
3100
0002
0103
,
0020
0000
0000
0200
0000
0000
0330
0000
,
0002
0013
2000
3010
,
0200
0000
0000
0020
0000
0000
0330
0000
,
2000
3100
0002
0103
,
2000
0000
0000
0020
0000
0000
3030
0000
,
0002
0000
0000
0200
0000
0000
0303
0000
,
2002
0000
3003
0000
,
0010
0000
0100
0000
0010
0000
1000
0100
,
1000
0000
0010
0000
0100
0000
0001
0010
,
0001
0000
0100
0000
0010
0000
1000
0010
,
1000
0000
0010
0000
0100
0000
0001
0100
,
0001
0000
0100
0000
1000
0000
0001
1000
,
0001
0000
1000
0000
0100
0000
0001
1000
,
0001
0000
0010
0000
1000
0000
0100
1000
,
0100
0010
0001
1001
,
1000
0100
1000
0000
0101
0000
1100
0000
,
0001
0100
0001
0000
1100
0000
0101
0000
,
0010
0100
0010
0000
1010
0000
0011
0000
,
0100
0010
0100
0000
0011
0000
1010
0000
,
1000
0100
1000
0000
0011
0000
0110
0000
,
0001
0100
0001
0000
1100
0000
0110
0000
,
1000
0100
0010
0000
1100
0000
1100
0000
,
0001
0010
0100
0000
0011
0000
0011
0000
,
1000
0100
1000
0000
0001
0010
0001
0000
,
0100
0010
0100
0000
0001
0100
0001
0000
,
1000
0010
1000
0000
0001
0100
0001
0000
,
1000
0001
0010
0000
0001
1000
0010
0000
,
1000
0001
0100
0000
0001
1000
0100
0000
,
1000
0010
0100
0000
0001
0100
0010
0000
,
1000
0001
1000
0001
0100
0010
0100
0010
,
0000
0000
0000
0000
1001
0000
0000
0000
0010
0000
0000
0110
0000
0000
0000
0000
,
2002
0000
0000
0000
,
0000
0000
0000
0000
,
0000
0000
0000
0000
,
3003
0000
0000
0000
;

//---------------dance-double - ----------------
#NOTES:
     dance-double:
     :
     Medium:
     9:
     0.328702,0.448679,0.280424,0.230092,0.003595,320.000000,281.000000,39.000000,32.000000,0.000000,0.000000,0.328702,0.448679,0.280424,0.230092,0.003595,320.000000,281.000000,39.000000,32.000000,0.000000,0.000000:
00000000
00000000
00000000
00000000
,
00000000
00000000
00000000
00000000
,
00000000
00000000
00000000
00000000
,
00000000
00000000
00000000
00000000
,
00000000
00000000
00000000
00000000
,
00100000
00010000
00000100
00001000
,
00001000
00000100
00010000
00100000
,
10000000
01000000
00100000
00010000
,
00000000
00100000
00000000
00001000
00000000
00010000
00000000
00000100
,
00000000
00001000
00000010
00000110
,
00000001
00000100
00000010
00000110
,
00001000
00000100
00010000
00011000
,
01000000
00010000
10000000
10010000
,
10000000
00100000
01000000
01001000
,
00010000
00000100
00001000
00001001
,
00000100
00000000
00010000
00000000
00001000
00000000
00000000
00010000
,
00000000
00001000
00000000
01000000
00000000
00100000
00000000
10000000
,
00010000
01010000
10000000
11000000
,
00100000
00000000
01100000
00000000
10000000
01000000
10000000
00000000
,
00010000
01010000
00100000
00101000
,
00000000
00100000
00000000
00001000
00000000
00010000
00000000
00000100
,
00001000
00001001
00000010
00000110
,
00001000
00001100
00000100
00010100
,
00010000
00000000
00011000
00000000
01000000
00000000
00010000
01000000
,
00000000
00100000
00000000
10000000
00000000
10010000
00000000
10010000
,
00000000
00000000
01010000
00000000
01000000
00001000
01000000
00000000
,
00001000
00000000
00010000
00000000
00000100
00010000
00000100
00000000
,
00001000
00000001
00010000
01000000
,
10000000
01000000
00000000
00001000
00000000
00010000
00000000
00000100
,
00001000
00000000
00001001
00000000
00000010
00001000
00000100
00000000
,
00001000
00000000
00011000
00000000
00100000
00010000
01000000
00000000
,
10000000
11000000
00100000
00101000
,
00010000
00000100
00000000
00001000
00000000
00100000
00000000
00020000
,
00002000
00000000
00000000
00000000
,
00000000
00000000
00000000
00033000
,
00000020
00000030
00002000
00003000
,
00000200
00000000
00000000
00020000
00000000
00000000
00030300
00000000
,
00200000
00300000
00020000
00030000
,
20000000
00000000
00000000
02000000
00000000
00000000
33000000
00000000
,
00200000
00300000
00002000
00003000
,
00020000
00000000
00000000
00000020
00000000
00000000
00030030
00000000
,
00000200
00000000
00000000
00000020
00000000
00000000
00000330
00000000
,
00000000
00000011
00000110
00001100
,
00000200
00010300
00020000
00031000
,
00002000
00000000
00000000
02000000
00000000
00000000
03003000
00000000
,
02000000
03100000
20000000
30010000
,
02000000
00000000
00000000
00200000
00000000
00000000
03300000
00000000
,
20000000
31000000
00020000
00031000
,
00000200
00000000
00000000
00000302
00000000
00000000
00000103
00000000
,
00020000
00000000
00000000
00002000
00000000
00000000
00000000
00000000
,
00000000
00000000
00033000
00000000
,
10010000
00000000
01100000
00000000
10010000
00000000
10000000
01000000
,
10000000
00000000
10010000
00000000
01100000
00000000
00100000
00001000
,
00100000
00000000
00101000
00000000
00011000
00000000
00010000
00000100
,
00010000
00000000
00010100
00000000
00001100
00000000
00001000
00000001
,
00001000
00000000
00000010
00000000
00000100
00000000
00010000
00001000
,
00010000
00000000
00001000
00000000
01000000
00000000
00010000
01000000
,
00010000
10000000
01000000
00001000
,
00010000
00000000
00000100
00000000
00001000
00000001
00001000
00000000
,
00000001
00000000
00000100
00000000
00001000
00000000
00000100
00001000
,
00000100
00000000
00010000
00000000
00001000
00000000
01000000
00010000
,
01000000
00000000
00100000
00000000
10000000
00000000
00100000
10000000
,
00100000
00000000
01000000
00000000
00001000
00000000
00010000
00001000
,
00010000
00000000
00000010
00000000
00001000
00000000
00000001
00001000
,
00000001
00000000
00001000
00000000
00000010
00000000
00010000
00001000
,
00010000
00000000
00001000
00000000
01000000
00000000
00100000
10000000
,
00100000
01000000
00001000
00010000
,
00000100
00000000
00001000
00000000
00000010
00000100
00000010
00000100
,
00000010
00000000
00010000
00000000
00001000
00010000
00001000
00010000
,
00001000
00000000
01000000
00000000
00100000
10000000
00100000
10000000
,
00100000
00000000
01000000
00000000
00001000
00010000
00001000
00010000
,
00001000
00000000
00010000
00000000
00000010
00001000
00000010
00000000
,
00001000
00000100
00001000
00000000
00010000
00000100
00010000
00000000
,
00001000
00100000
00001000
00000000
01000000
00010000
01000000
00000000
,
00000000
10000000
00000000
00000000
10010000
00000000
00000000
00000000
01100000
00000000
00000000
00000000
00010100
00000000
00000000
00000000
,
00022000
00000000
00000000
00000000
,
00000000
00000000
00000000
00000000
,
00000000
00000000
00000000
00000000
,
00033000
00000000
00000000
00000000
;

//---------------dance-double - ----------------
#NOTES:
     dance-double:
     :
     Easy:
     4:
     0.225983,0.280424,0.100665,0.028761,0.000000,220.000000,206.000000,14.000000,4.000000,0.000000,0.000000,0.225983,0.280424,0.100665,0.028761,0.000000,220.000000,206.000000,14.000000,4.000000,0.000000,0.000000:
00000000
00000000
00000000
00000000
,
00000000
00000000
00000000
00000000
,
00000000
00000000
00000000
00000000
,
00000000
00000000
00000000
00000000
,
00000000
00000000
00000000
00000000
,
10000000
00010000
10000000
00010000
,
01000000
00100000
01000000
00100000
,
10000000
01000000
00100000
00010000
,
00000000
00001000
00000000
00000100
00000000
00000010
00000000
00000001
,
00001000
00000001
00000000
00001001
,
00000000
00001001
00000000
00001001
,
00000000
00000110
00000000
00000110
,
00000000
00000001
00000100
00010000
,
00000000
00011000
00000000
00011000
,
00000000
01001000
00000000
01001000
,
00000000
10010000
00000000
10010000
,
00000000
10000000
00000000
00100000
00000000
01000000
00000000
00001000
,
00000000
00010000
00001000
00010000
,
00000000
00000100
00010000
00000100
,
00000000
00010000
00000010
00010000
,
00000000
00000010
00000000
00001000
00000000
00000100
00000000
00000001
,
00000000
00000100
00001000
00000100
,
00000000
00010000
00001000
00010000
,
00000000
00001000
01000000
00001000
,
00000000
01000000
00000000
00010000
00000000
00100000
00000000
10000000
,
00000000
00010000
10000000
00010000
,
00000000
10000000
01000000
10000000
,
00000000
00010000
01000000
00010000
,
00000000
01000000
00000000
00001000
00000000
00010000
00000000
00000100
,
00000000
00001000
00000100
00001000
,
00000000
00000010
00001000
00000010
,
00000000
00000001
00000100
00000001
,
00000000
00000010
00000000
00010000
00000000
00001000
00000000
00200000
,
00000000
00000000
00000000
00000000
,
00000000
00000000
00300000
00000000
,
00010000
00000000
10000000
00000000
,
00100000
00000000
00000000
01000000
00000000
00000000
00000000
00000000
,
10000000
00000000
00010000
00000000
,
01000000
00000000
00000000
00001000
00000000
00000000
00000000
00000000
,
00010000
00000000
00000100
00000000
,
00001000
00000000
00000000
00000001
00000000
00000000
00000000
00000000
,
00010000
00000000
00000000
00001000
00000000
00000000
00000000
00000000
,
00000000
00010000
00100000
01000000
,
10000000
00000000
00010000
00000000
,
00100000
00000000
00000000
00001000
00000000
00000000
00000000
00000000
,
00010000
00000000
00001000
00000000
,
00010000
00000000
00000000
00000100
00000000
00000000
00000000
00000000
,
00000001
00000000
00001000
00000000
,
00000001
00000000
00000000
00001000
00000000
00000000
00000000
00000000
,
00000100
00000000
00000000
00020000
00000000
00000000
00000000
00000000
,
00000000
00000000
00030000
00000000
,
00000000
00001000
00001000
00100000
,
00000000
10000000
10000000
01000000
,
00000000
00010000
00010000
00100000
,
00000000
00001000
00001000
00010000
,
00000000
00000010
00000010
00001000
,
00000000
00000001
00000001
00000100
,
00000000
00010000
00010000
00001000
,
00000000
01000000
01000000
00100000
,
10000000
10000000
00010000
00010000
,
10000000
00010000
01000000
00010000
,
00000100
00001000
00000100
00001000
,
00000001
00000100
00010000
00001000
,
01000000
00010000
01000000
00010000
,
10000000
00100000
00001000
00010000
,
00000010
00001000
00000010
00001000
,
00000001
00000010
00010000
00001000
,
01000000
00100000
01000000
00001000
,
00010000
00000010
00010000
00001000
,
01000000
00100000
10000000
00010000
,
01000000
00001000
00010000
00000010
,
00001000
00000001
00001000
00000100
,
00010000
00001000
01000000
00001000
,
10000000
00010000
10000000
00001000
,
00000000
00011000
00011000
00000000
,
00022000
00000000
00000000
00000000
,
00000000
00000000
00000000
00000000
,
00000000
00000000
00000000
00000000
,
00033000
00000000
00000000
00000000
;

//---------------dance-single - ----------------
#NOTES:
     dance-single:
     :
     Easy:
     4:
     0.224956,0.392594,0.186949,0.093475,0.000000,219.000000,193.000000,26.000000,13.000000,0.000000,0.000000,0.224956,0.392594,0.186949,0.093475,0.000000,219.000000,193.000000,26.000000,13.000000,0.000000,0.000000:
0000
0000
0000
0000
,
0000
0000
0000
0000
,
0000
0000
0000
0000
,
0000
0000
0000
0000
,
0000
0000
0000
0000
,
0010
0010
0100
0100
,
0001
0001
1000
1000
,
0001
1000
0001
1000
,
0000
0010
0000
0010
0000
0010
0000
0010
,
0000
1001
0000
1001
,
0000
0110
0000
0110
,
0000
1001
0000
1001
,
0000
0110
0000
0110
,
0000
0001
1000
0001
,
0000
1000
0001
1000
,
0000
0001
1000
0001
,
0000
0100
0000
0100
0000
0100
0000
0100
,
0000
0001
0000
0001
,
0000
1000
0000
1000
,
0000
0010
0000
0010
,
0000
1000
0000
1000
0000
1000
0000
1000
,
0000
0100
0000
0100
,
0000
0010
0000
0010
,
0000
0100
0000
0100
,
0000
0001
0000
0001
0000
0001
0000
0001
,
0000
1001
1000
1001
,
0000
1001
0001
1001
,
0000
0110
0010
0110
,
0000
0110
0100
0110
,
0000
0001
0001
0001
,
1000
1000
1000
1000
,
0100
0100
0100
0100
,
0000
0010
0000
0010
0000
0010
0000
0000
,
2002
0000
0000
0000
,
0000
0000
3003
0000
,
0001
0000
1000
0000
,
0020
0000
0030
0000
,
1000
0000
0001
0000
,
0200
0000
0300
0000
,
0001
0000
0010
0000
,
0200
0000
0300
0000
,
2000
0000
3000
0000
,
0002
0000
0003
0000
,
1000
0000
1001
0000
,
0020
0000
0030
0000
,
0001
0000
1001
0000
,
0200
0000
0300
0000
,
0010
0000
0110
0000
,
0002
0000
0003
0000
,
2000
0000
0000
0000
,
3000
0000
0000
0000
,
0010
0010
0010
0000
,
0100
0100
0100
0000
,
0001
0001
0001
0000
,
1000
1000
1000
0000
,
0010
0010
0010
0000
,
1000
1000
1000
0000
,
0001
0001
0001
0000
,
0100
0100
0100
0000
,
0001
0001
0001
0100
,
1000
1000
1000
0100
,
0001
0001
0001
0010
,
1000
1000
1000
0010
,
0001
0001
0100
0001
,
1000
1000
0100
1000
,
0001
0001
0010
0001
,
1000
1000
0010
1000
,
0001
0100
0001
0100
,
0001
0001
1000
1000
,
1000
0010
1000
0010
,
1000
1000
0001
0001
,
0100
0100
0010
0010
,
1000
1000
0001
0001
,
1001
1001
0110
0110
,
0000
1001
0100
0010
,
2002
0000
0000
0000
,
0000
0000
0000
0000
,
0000
0000
0000
0000
,
3003
0000
0000
0000
;

//---------------dance-single - ----------------
#NOTES:
     dance-single:
     :
     Beginner:
     2:
     0.109910,0.196297,0.021571,0.014381,0.000000,107.000000,104.000000,3.000000,2.000000,0.000000,0.000000,0.109910,0.196297,0.021571,0.014381,0.000000,107.000000,104.000000,3.000000,2.000000,0.000000,0.000000:
0000
0000
0000
0000
,
0000
0000
0000
0000
,
0000
0000
0000
0000
,
0000
0000
0000
0000
,
0000
0000
0000
0000
,
0000
0010
0000
0010
,
0000
0010
0000
0010
,
0000
0010
0000
0010
,
0000
0000
0000
0000
,
0000
1000
0000
1000
,
0000
1000
0000
1000
,
0000
0001
0000
0001
,
0000
0001
0000
0001
,
0000
1000
0000
1000
,
0000
1000
0000
1000
,
0000
0001
0000
0001
,
0000
0000
0000
0000
,
0000
0100
0000
0100
,
0000
0100
0000
0100
,
0000
0100
0000
0100
,
0000
0000
0000
0000
,
0000
0010
0000
0010
,
0000
0010
0000
0010
,
0000
0010
0000
0010
,
0000
0000
0000
0000
,
0000
1000
0000
1000
,
0000
0001
0000
0001
,
0000
0100
0000
0100
,
0000
0000
0000
0000
,
0000
0001
0000
0001
,
0000
1000
0000
1000
,
0000
0010
0000
0010
,
0000
0000
0000
0000
,
1001
0000
0000
0000
,
0000
0000
0000
0000
,
0010
0000
0000
0000
,
0000
0000
0000
0000
,
0100
0000
0000
0000
,
0000
0000
0000
0000
,
0010
0000
0000
0000
,
0000
0000
0000
0000
,
0100
0000
0000
0000
,
0000
0000
0000
0000
,
0000
0000
1000
0000
,
0000
0000
0001
0000
,
0000
0000
1000
0000
,
0000
0000
0001
0000
,
0000
0000
1000
0000
,
0000
0000
0001
0000
,
0000
0000
1000
0000
,
1000
0000
0000
0000
,
0000
0000
0010
0000
,
0000
0000
0010
0000
,
0000
0000
0100
0000
,
0000
0000
0100
0000
,
0000
0000
1000
0000
,
0000
0000
0001
0000
,
0000
0000
1000
0000
,
0001
0000
0000
0000
,
0000
0010
0010
0000
,
0000
0010
0010
0000
,
0000
0100
0100
0000
,
0000
0100
0100
0000
,
0000
0010
0010
0000
,
0000
0100
0100
0000
,
0000
0001
0001
0000
,
0000
1000
1000
0000
,
0000
0001
0001
0001
,
0000
0001
0001
0001
,
0000
1000
1000
1000
,
0000
1000
1000
1000
,
0000
0010
0010
0010
,
0000
0010
0010
0010
,
0000
0100
0100
0100
,
0000
0000
1001
0000
,
2002
0000
0000
0000
,
0000
0000
0000
0000
,
0000
0000
0000
0000
,
3003
0000
0000
0000
;
