#TITLE:good night, mommy;
#SUBTITLE:;
#ARTIST:South Carolina Duzzle;
#TITLETRANSLIT:;
#SUBTITLETRANSLIT:;
#ARTISTTRANSLIT:;
#GENRE:;
#CREDIT:;
#MENUCOLOR:;
#METERTYPE:DDR;
#BANNER:good night, mommy.png;
#BACKGROUND:good night, mommy-bg.png;
#LYRICSPATH:;
#CDTITLE:;
#MUSIC:good night, mommy.ogg;
#OFFSET:-2.780;
#SAMPLESTART:23.895;
#SAMPLELENGTH:15.820;
#SELECTABLE:YES;
#LISTSORT:;
#DISPLAYBPM:182.000;
#BPMS:0.000=182.000;
#STOPS:;
#BGCHANGES:;
#ATTACKS:;

//---------------dance-double - ----------------
#NOTES:
     dance-double:
     :
     Hard:
     13:
     0.602,0.665,0.143,0.475,0.154: // measure 1
00000000
00000000
00000000
00000000
,  // measure 2
00000000
00000000
00000000
00000000
,  // measure 3
00000000
00000000
00000000
00000000
,  // measure 4
00000000
00000000
00000000
00000000
,  // measure 5
00000000
00000000
00000000
00000000
,  // measure 6
00000000
00000000
00000000
00000000
,  // measure 7
00000000
00000000
00000000
00000000
,  // measure 8
00000000
00000000
00000000
00000000
,  // measure 9
00020000
00000000
00032000
00023000
,  // measure 10
00030020
00000000
00002030
00000000
00003002
00000000
00000000
00000103
,  // measure 11
00000200
00000000
00000000
00000000
00000300
00000001
00000100
00000001
,  // measure 12
00000200
00000000
00000000
00000010
00000320
00000000
00000030
00000000
,  // measure 13
00002000
00000000
00000000
00000000
00003000
00000100
00010000
00000100
,  // measure 14
00020000
00032000
00203000
00320000
,  // measure 15
20030000
32000000
03020000
00230000
,  // measure 16
00302000
00000000
00023000
00030000
,  // measure 17
10000000
00000000
00000000
00100000
00000000
00000000
10000000
00000000
00010000
00000000
01000000
00000000
00010000
00000000
00100000
00000000
,  // measure 18
00001000
00000000
00000000
00001000
00000000
00000000
00010000
00000000
00000100
00000000
00001000
00000000
00000001
00000000
00000010
00000000
,  // measure 19
00000100
00000000
00000100
00000000
00000100
00000000
00000000
00000001
00000000
00000000
00000001
00000000
00000010
00000000
00000100
00000000
,  // measure 20
00000010
00000000
00000100
00000000
00010000
00000000
00001000
00000000
00000000
00010000
00000000
00000000
00011000
00000000
00000000
00000000
,  // measure 21
01000000
00010000
01000000
00010000
10000000
00100000
10000000
00100000
,  // measure 22
10000000
00000000
00010000
00000000
10000000
00000000
00010000
00000000
00000000
01000000
00000000
00000000
01001000
00000000
00000000
00000000
,  // measure 23
01000000
00001000
00010000
00001000
00010000
00000020
00000000
00001030
,  // measure 24
00000001
00000000
00001000
00000000
00000001
00000000
00001000
00000001
00000000
00000000
00000010
00000000
00001000
00000000
00000100
00000000
,  // measure 25
00001000
00000000
00000000
00000100
00000000
00000000
00001000
00000000
00000010
00000000
00001000
00000000
00000100
00000000
00001000
00000000
,  // measure 26
00000010
00000000
00000000
00000001
00000000
00000000
00000010
00000000
00000001
00000000
00000100
00000000
00000001
00000000
00000100
00000000
,  // measure 27
00000010
00000000
00000010
00000000
00000010
00000000
00000000
00001000
00000000
00000000
00000100
00000000
00010000
00000000
00001000
00000000
,  // measure 28
00100000
00000000
00010000
00000000
01000000
00000000
00100000
00000000
00000000
10000000
00000000
00000000
10010000
00000000
00000000
00000000
,  // measure 29
10000000
01000000
10000000
01000000
00010000
01000000
00010000
01000000
,  // measure 30
00001000
00000000
01000000
00000000
00001000
00000000
00100000
00000000
00000000
00100000
00000000
00000000
00101000
00000000
00000000
00000000
,  // measure 31
00100000
00000000
00001000
00000000
00010000
00000000
00000000
00001000
00000000
00000000
00000010
00000000
00000000
00000000
00001000
00000000
,  // measure 32
00000001
00000010
00000100
00001000
00000001
00000010
00000100
00001000
,  // measure 33
00000100
00010000
00000100
00010000
00000000
00010000
00001000
00010000
,  // measure 34
00001000
01000000
00001000
01000000
00000000
00010000
01000000
00010000
,  // measure 35
01000000
00100000
01000000
00100000
00000000
10000000
00100000
10000000
,  // measure 36
00010000
01000000
00100000
01000000
00000000
00100000
00001000
00100000
,  // measure 37
00001000
00010000
00001000
00010000
00000000
00010000
00000100
00001000
,  // measure 38
00000010
00001000
00000010
00001000
00000000
00000001
00000100
00000001
,  // measure 39
00000100
00000010
00000100
00000010
00000000
00000010
00001000
00000100
,  // measure 40
00001000
00000100
00010000
00000100
00010000
00001000
00010000
00000000
,  // measure 41
00010000
00001000
00100000
00010000
00000000
10000000
01000000
00100000
,  // measure 42
00010000
01000000
00100000
01000000
00000000
00010000
00100000
00001000
,  // measure 43
00010000
00000010
00000100
00001000
00000000
00000001
00000010
00000100
,  // measure 44
00000010
00000100
00000010
00001000
00000000
00000100
00010000
00001000
,  // measure 45
00000000
00010000
00011000
00000000
00000000
00010000
00001000
00100000
,  // measure 46
00010000
00100000
00010000
00100000
00000000
00010000
01000000
00010000
,  // measure 47
01000000
00100000
01000000
00100000
00000000
10000000
01000000
10000000
,  // measure 48
00100000
01000000
00100000
01000000
00010000
00100000
00020000
00000000
,  // measure 49
00230000
00000000
00302000
00023000
,  // measure 50
00030020
00000000
00000230
00000000
00000302
00000000
00000003
00000001
,  // measure 51
00000002
00000000
00000000
00000000
00000003
00000100
00000010
00000100
,  // measure 52
00000020
00000000
00000030
00001000
00002000
00000000
00003000
00000000
,  // measure 53
00000200
00000000
00000000
00000000
00000300
00010000
00000100
00010000
,  // measure 54
00000200
00020300
00032000
02003000
,  // measure 55
03020000
00230000
02300000
23000000
,  // measure 56
30200000
00000000
00300000
01000000
01000000
00000000
00000000
00000000
,  // measure 57
20020000
00000000
30030000
00000000
10000000
00100000
10000000
00100000
,  // measure 58
20000000
00000000
30200000
00000000
02300000
00000000
03001000
00010000
,  // measure 59
00020000
00000000
00000000
00000000
00030000
00001000
00010000
00001000
,  // measure 60
00020000
00000000
00000000
00030010
00000020
00000000
00000030
00000000
,  // measure 61
00002002
00000000
00000000
00000000
00003003
00000001
00000010
00000100
,  // measure 62
00000020
00002030
00003200
00020300
,  // measure 63
00032000
00000000
00000000
00000000
00003000
00100000
00001000
00100000
,  // measure 64
00020000
00000000
00000000
00130000
00200000
00000000
00300000
00000000
,  // measure 65
10000000
00000000
00100000
00000000
10000000
00000000
00100000
10000000
00000000
00000000
00010000
00000000
01000000
00000000
00010000
00000000
,  // measure 66
00100000
00000000
00010000
00000000
00100000
00000000
00010000
00100000
00000000
00000000
00001000
00000000
00010000
00000000
00001000
00000000
,  // measure 67
00010000
00000000
00000100
00000000
00010000
00000000
00000100
00001000
00000000
00000000
00000010
00000000
00000100
00000000
00000010
00000000
,  // measure 68
00001000
00000100
00000010
00000001
00000000
00000001
00000010
00000100
,  // measure 69
00001000
00000000
00000000
00001000
00000100
00000000
00000000
00000100
00000010
00000000
00000000
00000010
00001000
00000000
00000000
00001000
,  // measure 70
00000100
00000000
00000000
00000100
00010000
00000000
00000000
00010000
00001000
00000000
00000000
00001000
01000000
00000000
00000000
01000000
,  // measure 71
00010000
00000000
00000000
00010000
00100000
00000000
00000000
00100000
01000000
00000000
00000000
01000000
10000000
00000000
00000000
10000000
,  // measure 72
00000000
00100000
00000000
00000000
01000000
00000000
00000000
00100000
00000000
01000000
00000000
00000000
10010000
00000000
00000000
00000000
,  // measure 73
10000000
00000000
00010000
10000000
00000000
00010000
10000000
00000000
00100000
00000000
01000000
00000000
00001000
00000000
00010000
00000000
,  // measure 74
00000100
00000000
00001000
00000100
00000000
00001000
00000100
00000000
00001000
00000000
00000001
00000000
00000010
00000000
00000100
00000000
,  // measure 75
00001000
00000000
00001000
00000000
00001000
00000000
00000000
00001100
00000000
00000000
00000100
00000000
00010000
00000000
00001000
00000000
,  // measure 76
01000000
00000000
00010000
00000000
01000000
00000000
00100000
00000000
01000000
00010000
00000000
00000000
01010000
00000000
00000000
00000000
,  // measure 77
00100000
10000000
00100000
10000000
00010000
01000000
00010000
01000000
,  // measure 78
00001000
00000000
00010000
00000000
00001000
00000000
00010000
00000000
00000010
00001000
00000000
00000000
00001010
00000000
00000000
00000000
,  // measure 79
00001000
00000000
00000100
00000000
00000010
00000000
00000001
00000010
00000000
00000001
00000010
00000000
00000100
00000000
00001000
00000000
,  // measure 80
00001100
00000100
00010000
00001000
01000000
00010000
00100000
10000000
,  // measure 81
11000000
10000000
00100000
01000000
00001000
00010000
00000100
00001000
,  // measure 82
00001010
00001000
00000010
00010000
00000100
00010000
00000010
00001000
,  // measure 83
00000000
00001010
00010100
00101000
,  // measure 84
00022000
00000000
00000000
00000000
,  // measure 85
00033000
00000000
00000000
00000000
;

//---------------pump-couple - ----------------
#NOTES:
     pump-couple:
     :
     Challenge:
     1:
     0.001,0.037,0.000,0.000,0.000:
0000000000
0000000000
0000000000
0000000000
,
0000000000
0000000000
0000000000
0000000000
,
0000000000
0000000000
0000000000
0000000000
,
0000000000
0000000000
0000000000
0000000000
,
0000000000
0000000000
0000000000
0000000000
,
0000000000
0000000000
0000000000
0000000000
,
0000000000
0000000000
0000000000
0000000000
,
0000000000
0000000000
0000000000
0000000000
,
0000000000
0000000000
0000000000
0000000000
,
0000000000
0000000000
0000000000
0000000000
,
0000000000
0000000000
0000000000
0000000000
,
0000000000
0000000000
0000000000
0000000000
,
0000000000
0000000000
0000000000
0000000000
,
0000000000
0000000000
0000000000
0000000000
,
0000000000
0000000000
0000000000
0000000000
,
0000000000
0000000000
0000000000
0000000000
,
0000000000
0000000000
0000000000
0000000000
,
0000000000
0000000000
0000000000
0000000000
,
0000000000
0000000000
0000000000
0000000000
,
0000000000
0000000000
0000000000
0000000000
,
0000000000
0000000000
0000000000
0000000000
,
0000000000
0000000000
0000000000
0000000000
,
0000000000
0000000000
0000000000
0000000000
,
0000000000
0000000000
0000000000
0000000000
,
0000000000
0000000000
0000000000
0000000000
,
0000000000
0000000000
0000000000
0000000000
,
0000000000
0000000000
0000000000
0000000000
,
0000000000
0000000000
0000000000
0000000000
,
0000000000
0000000000
0000000000
0000000000
,
0000000000
0000000000
0000000000
0000000000
,
0000000000
0000000000
0000000000
0000000000
,
0000000000
0000000000
0000000000
0000000000
,
0000000000
0000000000
0000000000
0000000000
,
0000000000
0000000000
0000000000
0000000000
,
0000000000
0000000000
0000000000
0000000000
,
0000000000
0000000000
0000000000
0000000000
,
0000000000
0000000000
0000000000
0000000000
,
0000000000
0000000000
0000000000
0000000000
,
0000000000
0000000000
0000000000
0000000000
,
0000000000
0000000000
0000000000
0000000000
,
0000000000
0000000000
0000000000
0000000000
,
0000000000
0000000000
0000000000
0000000000
,
0000000000
0000000000
0000000000
0000000000
,
0000000000
0000000000
0000000000
0000000000
,
0000000000
0000000000
0000000000
0000000000
,
0000000000
0000000000
0000000000
0000000000
,
0000000000
0000000000
0000000000
0000000000
,
0000000000
0000000000
0000000000
0000000000
,
0000000000
0000000000
0000000000
0000000000
,
0000000000
0000000000
0000000000
0000000000
,
0000000000
0000000000
0000000000
0000000000
,
0000000000
0000000000
0000000000
0000000000
,
0000000000
0000000000
0000000000
0000000000
,
0000000000
0000000000
0000000000
0000000000
,
0000000000
0000000000
0000000000
0000000000
,
0000000000
0000000000
0000000000
0000000000
,
0000000000
0000000000
0000000000
0000000000
,
0000000000
0000000000
0000000000
0000000000
,
0000000000
0000000000
0000000000
0000000000
,
0000000000
0000000000
0000000000
0000000000
,
0000000000
0000000000
0000000000
0000000000
,
0000000000
0000000000
0000000000
0000000000
,
0000000000
0000000000
0000000000
0000000000
,
0000000000
0000000000
0000000000
0000000000
,
0000000000
0000000000
0000000000
0000000000
,
0000000000
0000000000
0000000000
0000000000
,
0000000000
0000000000
0000000000
0000000000
,
0000000000
0000000000
0000000000
0000000000
,
0000000000
0000000000
0000000000
0000000000
,
0000000000
0000000000
0000000000
0000000000
,
0000000000
0000000000
0000000000
0000000000
,
0000000000
0000000000
0000000000
0000000000
,
0000000000
0000000000
0000000000
0000000000
,
0000000000
0000000000
0000000000
0000000000
,
0000000000
0000000000
0000000000
0000000000
,
0000000000
0000000000
0000000000
0000000000
,
0000000000
0000000000
0000000000
0000000000
,
0000000000
0000000000
0000000000
0000000000
,
0000000000
0000000000
0000000000
0000000000
,
0000000000
0000000000
0000000000
0000000000
,
0000000000
0000000000
0000000000
0000000000
,
0000000000
0000000000
0000000000
0000000000
,
0000000000
0000000000
0000000000
0000000000
,
0000000000
0000000000
0000000000
0000000000
,
0000000000
0000000000
0000000000
0000000000
,
0000000000
0000000000
0000000000
0000000000
,
0000000000
0000000000
0000000000
0000000000
,
0000000000
0000000000
0000000000
0000000000
,
0000000000
0000000000
0000000000
0000000000
,
0000000000
0000000000
0000000000
0000000000
,
0000000000
0000000000
0000000000
0000000000
,
0000000000
0000000000
0000000000
0000000000
,
0000000000
0000000000
0000000000
0000000000
,
0000000000
0000000000
0001000000
0000000000
;

//---------------dance-double - ----------------
#NOTES:
     dance-double:
     :
     Medium:
     9:
     0.543,0.599,0.570,0.428,0.000:
00000000
00000000
00000000
00000000
,
00000000
00000000
00000000
00000000
,
00000000
00000000
00000000
00000000
,
00000000
00000000
00000000
00000000
,
00000000
00000000
00000000
00000000
,
00000000
00000000
00000000
00000000
,
00000000
00000000
00000000
00000000
,
00000000
00000000
00000000
00000000
,
00022000
00000000
00033000
00000000
,
00010000
00000100
00000010
00000000
,
00000002
00000000
00000000
00000000
00000003
00000100
00000001
00000100
,
00000002
00000003
00002000
00003000
,
00000020
00000000
00000000
00000030
00000000
00001000
00000100
00000000
,
00010000
00001000
00100000
00010000
,
20000000
00000000
30000000
00000000
00000000
01000000
00010000
01000000
,
00020000
00000000
20030000
30000000
,
01100000
00000000
10010000
00000000
01000000
00010000
01000000
00000000
,
10010000
00000000
01100000
00000000
00100000
00001000
00100000
00000000
,
00011000
00000000
00011000
00000000
00010000
00000010
00001000
00000000
,
00001001
00000000
00000101
00000000
00000001
00000010
00000001
00000000
,
00000101
00000000
00001010
00000000
00000010
00001000
00000100
00000000
,
00001100
00000000
00010100
00000000
00010000
00001000
00100000
00000000
,
00110000
00000000
11000000
00000000
00010000
01000000
10000000
00000000
,
10100000
00000000
01010000
00000000
01000000
00001000
00010000
00000000
,
00011000
00000000
00010100
00000000
00001000
00000001
00001000
00000001
,
00001000
00000000
00001100
00000000
00000100
00010000
00000100
00010000
,
00001000
00010000
00001000
00000000
00010000
00000000
00001000
00100000
,
00001000
00000000
00100000
00000000
00010000
01000000
00010000
00000000
,
10000000
00000000
11000000
00000000
10000000
01000000
00100000
00000000
,
00100000
00000000
00110000
00000000
00100000
00001000
00010000
00000000
,
00001000
00000000
00011000
00000000
00010000
00000100
00000010
00000000
,
00000001
00000000
00000011
00000000
00000001
00000100
00000010
00001000
,
00000100
00000000
00010000
00000000
00001000
00010000
00001000
00010000
,
00001000
00000000
00100000
00000000
00010000
01000000
00010000
01000000
,
00010000
00000000
10000000
00000000
00100000
01000000
00100000
01000000
,
00100000
00000000
01000000
00000000
00001000
00010000
00001000
00010000
,
00001000
00000000
00010000
00000000
00000010
00000100
00000010
00000100
,
00000010
00000000
00000001
00000000
00001000
00000010
00001000
00000010
,
00001000
00000000
00000100
00000000
00001000
01000000
00001000
01000000
,
00010000
10000000
10100000
01010000
,
01100000
00000000
10000000
00010000
00000000
00010000
01000000
00010000
,
01000000
00000000
00100000
00001000
00000000
00100000
00001000
00100000
,
00001000
00000000
00010000
00000010
00000000
00010000
00000010
00001000
,
00000001
00001000
00000010
00001000
00000100
00010000
00001000
00010000
,
00000000
00001000
00011000
00000000
00000000
00001000
00100000
00000000
,
00010000
00100000
00010000
00100000
00000000
01000000
10000000
00000000
,
10000000
00100000
10000000
00000000
00010000
01000000
00010000
00000000
,
00100000
00001000
00100000
00000000
00010000
00000100
00010000
00000000
,
00002200
00003300
00000002
00000203
,
00000320
00000000
00002030
00000000
00003200
00000000
00000300
00002000
,
00000200
00000000
00000000
00000000
00003300
00000100
00010000
00000100
,
00020000
00000000
00000000
00001000
00002000
00000000
00033000
00000000
,
00022000
00000000
00000000
00000000
00033000
00001000
00100000
00001000
,
00200000
00320000
20030000
32000000
,
03020000
00230000
00302000
00023000
,
00030020
00000000
00000130
00000000
,
00002002
00000000
00000000
00000000
00003003
00000010
00000100
00000010
,
00000200
00000000
00000302
00000000
00002003
00000000
00003000
00000002
,
00002000
00000000
00000000
00000000
00003003
00000100
00001000
00000100
,
00020000
00000000
00000000
00031000
00002000
00000000
00203000
00000000
,
00320000
00000000
00000000
00000000
00030000
01000000
00100000
01000000
,
00200000
00000000
20300000
00000000
30020000
00000000
00130000
00001000
,
00200000
00000000
00000000
00300000
00000000
00100000
00001000
00010000
,
00002000
00000000
00003000
00010000
00002000
00000000
00003000
00000000
,
00001100
00001100
00000011
00000011
,
00000101
00000101
00001010
00001010
,
00001100
00001100
00010100
00010100
,
00001000
00010000
00001000
00000000
00100000
00010000
00100000
00000000
,
01010000
01010000
11000000
11000000
,
01100000
01100000
10010000
10010000
,
10000000
01000000
00100000
00000000
01000000
00010000
00100000
00000000
,
00100000
00001000
00010000
00000000
00010000
00000010
00001000
00000000
,
00001001
00000000
00000101
00000000
00000001
00000010
00000100
00000000
,
00000110
00000000
00001100
00000000
00000100
00010000
00001000
00000000
,
00011000
00000000
01001000
00000000
00010000
01000000
00100000
00000000
,
11000000
00000000
01010000
00000000
01000000
00001000
00010000
00000000
,
00010100
00000000
00010010
00000000
00001000
00000001
00000100
00000000
,
00000101
00000000
00001100
00000000
00010000
00001000
00010000
00000000
,
00220000
00330000
22000000
33000000
,
10010000
00000000
00010000
00100000
01000000
00100000
00010000
00000000
,
00011000
00000000
00000100
00001000
00000010
00001000
00000100
00000000
,
00000011
00000000
00000001
00001000
00000100
00001000
00000010
00010000
,
00000000
00001010
00001100
00010100
,
00022000
00000000
00000000
00000000
,
00033000
00000000
00000000
00000000
;

//---------------dance-double - ----------------
#NOTES:
     dance-double:
     :
     Easy:
     6:
     0.414,0.532,0.253,0.713,0.000:
00000000
00000000
00000000
00000000
,
00000000
00000000
00000000
00000000
,
00000000
00000000
00000000
00000000
,
00000000
00000000
00000000
00000000
,
00000000
00000000
00000000
00000000
,
00000000
00000000
00000000
00000000
,
00000000
00000000
00000000
00000000
,
00000000
00000000
00000000
00000000
,
00020000
00000000
00030000
00010000
,
00001000
00000100
00000020
00000030
,
00000002
00000000
00000003
00000010
,
00002000
00003000
00000200
00000300
,
00020000
00000000
00030000
00010000
,
10000000
01000000
00100000
00010000
,
00200000
00000000
00300000
00001000
,
00020000
00000000
00032000
00003000
,
00010000
00000100
00010000
00000100
,
00001000
00000001
00001000
00000001
,
00000010
00001000
00000010
00001000
,
00000100
00001000
00010000
00011000
,
00001000
00100000
00010000
01000000
,
00100000
10000000
01000000
00010000
,
00001000
00010000
00000010
00000100
,
00000001
00000010
00000100
00001000
,
00001001
00001001
00000010
00000100
,
00010000
00001000
01000000
00100000
,
10010000
10010000
00010000
01000000
,
00001000
00010000
00000010
00000100
,
00000110
00000110
00000001
00001000
,
00000100
00010000
00001000
00100000
,
01100000
01100000
00001000
00010000
,
00011000
00011000
00011000
00011000
,
00020000
00000000
00030020
00000000
,
00000230
00000000
00000302
00000000
,
00002003
00000000
00000000
00000000
00003000
00000000
00000010
00001000
,
00000020
00000030
00002000
00003000
,
00000200
00000000
00000300
00001000
,
00001000
00000100
00010000
00001000
,
01000000
00100000
00010000
10000000
,
22000000
33000000
00220000
00330000
,
20020000
30030000
20000000
30100000
,
20020000
30030000
00020000
00130000
,
00022000
00033000
00020000
00030100
,
00002002
00003003
00000020
00000130
,
00002002
00003003
00000020
00001030
,
00000100
00001000
00100000
00010000
,
10000000
01000000
00100000
00010000
,
00001000
00010000
00000010
00000100
,
00001001
00000000
00000020
00000230
,
00000302
00000023
00000230
00000300
,
00022000
00000000
00033000
00001000
,
00200000
00300000
02000000
03000000
,
20020000
00000000
30030000
10000000
,
00020000
00230000
00302000
00023000
,
00030020
00000230
00000302
00000023
,
00002030
00003000
00002200
00003300
,
00001001
00000000
00002000
00003200
,
00020300
00032000
02003000
03000000
,
20020000
00000000
30030000
01000000
,
00002000
00003000
00020000
00030000
,
00022000
00000000
00033000
00010000
,
00000200
00000302
00002003
00003200
,
00020300
00000000
00030000
00000100
,
00022000
00033000
00022000
00033000
,
00010000
00000100
00001000
00000001
,
00001000
00000100
00010000
00001000
,
00100000
00010000
01000000
00100000
,
10000000
01000000
00100000
00010000
,
01000000
00001000
00010000
00000100
,
00001000
00000010
00000100
00000001
,
00000001
00000100
00000010
00001000
,
00000200
00000300
00020000
00031000
,
00001000
00100000
00010000
10000000
,
00010000
00100000
00001000
00010000
,
00000100
00001000
00000010
00000100
,
00000001
00000010
00000100
00001000
,
00000010
00010000
00001000
00100000
,
00010000
01000000
00100000
10000000
,
10000000
00100000
01000000
00010000
,
00200000
00300000
00002000
00013000
,
00020000
00030000
00000020
00001030
,
00002020
00003030
00022000
00033000
,
00000000
00000100
00010000
00001000
,
00022000
00000000
00000000
00000000
,
00033000
00000000
00000000
00000000
;

//---------------dance-single - ----------------
#NOTES:
     dance-single:
     :
     Beginner:
     3:
     0.134,0.197,0.032,0.000,0.000:
0000
0000
0000
0000
,
0000
0000
0000
0000
,
0000
0000
0000
0000
,
0000
0000
0000
0000
,
0000
0000
0000
0000
,
0000
0000
0000
0000
,
0000
0000
0000
0000
,
0000
0000
0000
0000
,
0001
0000
0000
0000
,
1000
0000
0000
0000
,
0010
0000
0000
0000
,
0100
0000
0000
0000
,
0010
0000
0000
0000
,
1000
0000
0000
0000
,
0001
0000
0000
0000
,
0100
0000
0100
0000
,
0100
0000
0000
0000
,
0001
0000
0000
0000
,
0010
0000
0010
0000
,
0100
0000
0100
0000
,
0010
0000
0000
0000
,
0001
0000
0000
0000
,
1000
0000
1000
0000
,
0001
0000
0001
0000
,
1001
0000
0000
0000
,
0010
0000
0000
0000
,
0100
0000
0100
0000
,
0010
0000
0010
0000
,
0010
0000
0000
0000
,
0001
0000
1000
0000
,
0001
0000
0000
0000
,
1000
0000
0001
0000
,
1000
0000
0000
0000
,
0010
0000
0010
0000
,
0010
0000
0000
0000
,
0100
0000
0100
0000
,
0100
0000
0000
0000
,
0001
0000
0001
0000
,
1000
0000
1000
0000
,
0010
0000
0010
0000
,
0100
0000
0000
0000
,
0001
0000
0001
0000
,
0001
0000
0000
0000
,
1000
0000
1000
0000
,
1000
0000
0000
0000
,
0010
0000
0010
0000
,
0100
0000
0100
0000
,
0001
0000
1000
0000
,
0001
0000
0000
0000
,
1000
0000
1000
0000
,
1000
0000
0000
0000
,
0001
0000
0001
0000
,
0001
0000
0000
0000
,
0010
0000
0010
0000
,
0100
0000
0100
0000
,
1000
0000
0001
0000
,
1000
0000
0000
0000
,
0010
0000
0010
0000
,
0100
0000
0000
0000
,
0100
0000
0100
0000
,
0001
0000
0000
0000
,
0001
0000
0010
0000
,
1000
0000
0000
0000
,
1000
0000
0010
0000
,
0001
0000
0000
0000
,
0001
0000
0000
0000
,
1000
0000
0000
0000
,
0010
0000
0010
0000
,
0010
0000
0000
0000
,
0100
0000
0100
0000
,
0010
0000
0010
0000
,
1000
0000
0001
0000
,
1000
0000
0000
0000
,
0010
0000
0010
0000
,
0010
0000
0000
0000
,
0100
0000
0100
0000
,
0100
0000
0000
0000
,
0001
0000
1000
0000
,
0001
0000
0001
0000
,
1001
0000
0000
0000
,
1001
0000
0000
0000
,
1001
0000
0000
0000
,
0000
0010
0010
0010
,
0010
0000
0000
0000
;

//---------------dance-single - ----------------
#NOTES:
     dance-single:
     :
     Hard:
     13:
     0.617,0.632,0.135,0.444,0.190:
0000
0000
0000
0000
,
0000
0000
0000
0000
,
0000
0000
0000
0000
,
0000
0000
0000
0000
,
0000
0000
0000
0000
,
0000
0000
0000
0000
,
0000
0000
0000
0000
,
0000
0000
0000
0000
,
2002
3000
2003
3020
,
0230
0000
0320
0000
0032
0000
0000
0103
,
0200
0000
0000
0000
0300
0001
0100
0001
,
0200
0000
0000
0010
0320
0000
0030
0000
,
2002
0000
0000
0000
3003
1000
0001
1000
,
0002
0000
2003
0000
3020
0000
0130
0010
,
0200
0000
0300
0000
0000
1000
0001
1000
,
0002
0000
2000
3003
,
1000
0000
0000
0010
0000
0000
1000
0000
0010
0000
0100
0000
0010
0000
0100
0000
,
0001
0000
0000
0100
0000
0000
0001
0000
0100
0000
0010
0000
0100
0000
0010
0000
,
0100
0000
0100
0000
0100
0000
0000
0001
0000
0000
0001
0000
0100
0000
0010
0000
,
0100
0000
0010
0000
1000
0000
0001
0000
0000
0001
0000
0000
1001
0000
0000
0000
,
0100
0001
0100
0001
1000
0010
1000
0010
,
1000
0000
0001
0000
1000
0000
0001
0000
0000
0100
0000
0000
1100
0000
0000
0000
,
0100
0000
1000
0000
0001
0000
1000
0001
0000
1000
0002
0000
0000
0000
1003
0000
,
0001
0000
0100
0000
0001
0000
0100
0001
0000
0000
1000
0000
0001
0000
1000
0000
,
0100
0000
0000
0100
0000
0000
1000
0000
0010
0000
1000
0000
0100
0000
1000
0000
,
0010
0000
0000
0010
0000
0000
0001
0000
0100
0000
0001
0000
0100
0000
0001
0000
,
0010
0000
0010
0000
0010
0000
0000
0001
0000
0000
0001
0000
0010
0000
0001
0000
,
0010
0000
0100
0000
0010
0000
0100
0000
0000
1000
0000
0000
1001
0000
0000
0000
,
1000
0010
1000
0010
0100
0010
0100
0001
,
0010
0000
0001
0000
0010
0000
0001
0000
0000
0001
0000
0000
1001
0000
0000
0000
,
0010
0000
0100
0000
0010
0000
0100
0010
0000
0100
0020
0000
0000
0000
1030
0000
,
0001
0010
0100
1000
0001
0010
0100
1000
,
0100
1000
0100
1000
0000
0001
1000
0001
,
1000
0100
1000
0100
0000
0001
0010
0001
,
0010
0001
0100
0001
0000
1000
0010
1000
,
0001
1000
0001
1000
0010
1000
0010
1000
,
0001
0100
0001
0100
0000
0001
0100
0010
,
1000
0010
1000
0010
0000
1000
0010
0100
,
0001
0100
0001
0100
0001
0010
0001
0010
,
0001
1000
0001
1000
0001
0010
0100
0000
,
1000
0001
1000
0001
0000
1000
0001
1000
,
0001
0010
0001
0010
0000
0100
1000
0100
,
1000
0010
1000
0010
0000
0001
0100
0001
,
1000
0001
1000
0001
0100
0001
0100
0001
,
1000
0010
1000
0010
0000
1000
0010
0100
,
0001
0100
0001
0100
0000
0001
0100
0010
,
1000
0010
1000
0010
1000
0100
1000
0100
,
1000
0001
1000
0001
1000
0100
0010
0000
,
0020
0000
0032
0023
,
0230
0000
2300
0000
3002
0000
0003
0001
,
0002
0000
0000
0000
0003
1000
0010
1000
,
0020
0000
0030
1000
2000
0000
3000
0000
,
0200
0000
0000
0000
0300
0010
0100
0010
,
0200
2300
3002
0023
,
0032
0203
0320
2030
,
3020
0000
0030
0100
0100
0000
0000
0000
,
2002
0000
3003
0000
1000
0010
1000
0010
,
2000
0000
3020
0000
0230
0000
0301
1000
,
0002
0000
0000
0000
0003
1000
0001
1000
,
0002
0000
0000
0013
0020
0000
0030
0000
,
2002
0000
0000
0000
3003
0001
0010
0100
,
0020
0000
0230
0000
1300
0001
1000
0001
,
2000
0000
0000
0000
3001
0010
0100
0010
,
0002
0000
0000
0013
0020
0000
0130
0000
,
1000
0000
0100
0000
1000
0000
0100
1000
0000
0000
0001
0000
0100
0000
0001
0000
,
0010
0000
0001
0000
0010
0000
0001
0010
0000
0000
0001
0000
1000
0000
0001
0000
,
1000
0000
0010
0000
1000
0000
0010
1000
0000
0000
0010
0000
0100
0000
0010
0000
,
1000
0100
0010
0001
0000
1000
0100
0100
,
1000
0000
0000
1000
0100
0000
0000
0100
0010
0000
0000
0010
0001
0000
0000
0001
,
0100
0000
0000
0100
0001
0000
0000
0001
1000
0000
0000
1000
0100
0000
0000
0100
,
1000
0000
0000
1000
0010
0000
0000
0010
0100
0000
0000
0100
0001
0000
0000
0001
,
0010
0001
0000
0000
0100
0000
0010
0100
0000
0010
0000
0000
1001
0000
0000
0000
,
1000
0000
0001
1000
0000
0001
1000
0000
0010
0000
0100
0000
0010
0000
1000
0000
,
0001
0000
1000
0001
0000
1000
0001
0000
1000
0000
0010
0000
0100
0000
1000
0000
,
0001
0000
0001
0000
0001
0000
0000
1001
0000
0000
0100
0000
0001
0000
1000
0000
,
0010
0000
0100
0000
0010
0000
0100
0001
0000
0001
0000
0000
0101
0000
0000
0000
,
0010
1000
0010
1000
0001
0100
0001
0100
,
0001
0000
1000
0000
0001
0000
1000
0001
0000
1000
0000
0000
1010
0000
0000
0000
,
1000
0000
0010
0000
0100
0000
0001
0010
0000
0001
0010
0000
0100
0000
1000
0000
,
1000
0000
0100
0000
0010
0000
0001
0010
0000
0001
0010
0000
0001
0000
0100
0000
,
0010
0000
1000
0000
0010
0000
1000
0010
0000
1000
0010
0000
0100
0000
0001
0000
,
1001
1000
0010
0100
0001
0100
0010
1000
,
0000
0011
0101
1001
,
2002
0000
0000
0000
,
3003
0000
0000
0000
;

//---------------dance-single - ----------------
#NOTES:
     dance-single:
     :
     Medium:
     9:
     0.543,0.599,0.610,0.428,0.000:
0000
0000
0000
0000
,
0000
0000
0000
0000
,
0000
0000
0000
0000
,
0000
0000
0000
0000
,
0000
0000
0000
0000
,
0000
0000
0000
0000
,
0000
0000
0000
0000
,
0000
0000
0000
0000
,
2002
0000
3003
0100
,
0001
0100
0001
0000
,
2000
0000
0000
0000
3000
0000
0001
1000
,
0002
0003
2000
3000
,
0020
0000
0000
0030
0000
1000
0010
0000
,
0010
1000
0010
0100
,
0002
0000
0003
0000
0000
0100
0001
0100
,
0002
0000
2003
3000
,
1001
0000
1001
0000
0010
0001
0010
0000
,
1001
0000
1001
0000
0010
1000
0010
0000
,
1001
0000
1001
0000
0001
0010
0001
0000
,
1001
0000
1001
0000
1000
0001
1000
0000
,
0101
0000
1010
0000
0010
1000
0100
0000
,
1100
0000
0101
0000
0001
1000
0010
0000
,
0011
0000
1100
0000
0001
0100
0010
0000
,
1010
0000
0101
0000
0100
0010
0100
0000
,
1001
0000
1001
0000
1000
0001
1000
0001
,
1000
0000
1100
0000
1000
0100
1000
0100
,
1000
0000
1001
0000
0001
1000
0001
1000
,
0001
0000
0101
0000
0001
0100
0001
0000
,
1000
0000
1100
0000
1000
0100
0010
0000
,
0010
0000
0011
0000
0001
0010
0001
0000
,
0001
0011
0010
0110
,
0100
1100
1001
1010
,
1100
0000
0001
0000
1000
0001
1000
0001
,
1000
0000
0010
0000
0001
0100
0001
0100
,
0001
0000
1000
0000
0010
0100
0010
0100
,
0010
0000
0100
0000
0001
1000
0001
1000
,
0001
0000
0001
0000
0010
0100
0010
0100
,
0010
0000
0001
0000
1000
0010
1000
0010
,
1000
0000
0100
0000
1000
0100
1000
0100
,
1000
0001
1001
1001
,
1001
0000
1000
0001
0000
0001
0010
0001
,
0010
0000
0010
0001
0000
1000
0001
1000
,
0001
0000
1000
0100
0000
1000
0100
1000
,
0001
0000
1000
0000
0001
1000
0001
1000
,
0000
1000
0001
0000
0000
1000
0010
1000
,
0010
0000
0010
0100
0000
0010
0100
0000
,
0001
0100
0001
0000
0001
0100
0001
0000
,
0010
0001
0010
0000
0001
1000
0001
0000
,
2002
3003
0002
0203
,
0320
0000
2030
0000
3200
0000
0300
2000
,
0200
0000
0000
0000
3300
1000
0001
1000
,
0002
0000
0000
1000
2000
0000
3003
0000
,
2002
0000
0000
0000
3003
1000
0010
1000
,
0020
0230
0302
0203
,
0302
0023
0230
2300
,
3020
0000
0130
0000
,
2002
0000
0000
0000
3003
0010
0100
0010
,
0200
0000
0302
0000
2003
0000
3000
0002
,
2000
0000
0000
0000
3003
0001
1000
0001
,
2000
0000
0000
3001
0002
0000
0023
0000
,
0032
0000
0000
0000
0003
0100
0001
0100
,
0002
0000
2003
0000
3002
0000
0013
0001
,
0020
0000
0030
0000
0000
0010
0001
1000
,
0002
0000
0003
0001
2000
0000
3000
0000
,
1100
1100
0011
0011
,
0101
0101
0110
0110
,
1010
1010
1001
1001
,
1000
0001
1000
0000
0001
0010
0001
0000
,
0101
0101
1001
1001
,
1100
1100
1001
1001
,
1000
0010
0100
0000
0001
0100
0010
0000
,
0010
1000
0001
0000
0001
0010
0100
0000
,
1001
0000
0101
0000
0001
0010
0100
0000
,
0110
0000
1100
0000
0100
1000
0001
0000
,
1001
0000
1100
0000
0001
0100
0010
0000
,
0110
0000
1001
0000
0100
0001
1000
0000
,
1001
0000
0011
0000
1000
0001
0100
0000
,
1001
0000
1100
0000
0001
1000
0100
0000
,
0022
0033
2200
3300
,
1001
0000
0001
0010
0100
0010
0001
0000
,
1001
0000
1000
0100
0010
0100
1000
0000
,
1001
0000
0001
1000
0100
1000
0001
1000
,
0000
1010
1100
0101
,
2002
0000
0000
0000
,
3003
0000
0000
0000
;

//---------------dance-single - ----------------
#NOTES:
     dance-single:
     :
     Easy:
     6:
     0.416,0.532,0.277,0.713,0.000:
0000
0000
0000
0000
,
0000
0000
0000
0000
,
0000
0000
0000
0000
,
0000
0000
0000
0000
,
0000
0000
0000
0000
,
0000
0000
0000
0000
,
0000
0000
0000
0000
,
0000
0000
0000
0000
,
0002
0000
1003
0001
,
1000
0100
0020
0030
,
0002
0000
0003
0010
,
0200
0300
2000
3000
,
0002
0000
0003
0001
,
1000
0100
0010
0001
,
0020
0000
0030
0001
,
0002
0000
2003
3000
,
0001
0010
0001
0010
,
0100
1000
0100
1000
,
0001
0010
0100
1000
,
0100
0010
0001
1001
,
1000
0010
1000
0010
,
0100
0001
0100
0001
,
1000
0010
0100
0001
,
0010
0100
1000
1001
,
1001
1001
1000
0100
,
0010
0001
0010
0100
,
1001
1001
0001
0010
,
0100
1000
0100
0010
,
1001
1001
0001
1000
,
0100
0010
0001
1000
,
1001
1001
0001
1000
,
0100
0010
0001
1001
,
0002
0000
0023
0000
,
0230
0000
2300
0000
,
3002
0000
0000
0000
0003
0000
1000
0001
,
2000
3000
2000
3000
,
0002
0000
0000
1003
,
1000
0100
0001
1000
,
0100
0010
0001
1000
,
2200
3300
0022
0033
,
2002
3003
2000
3010
,
2002
3003
0002
0013
,
2002
3003
0002
0103
,
2002
3003
2000
3100
,
2002
3003
0020
1030
,
0100
1000
0010
0001
,
1000
0100
0010
0001
,
1000
0001
0010
0100
,
1001
0000
0020
0230
,
2300
3200
0320
0030
,
2002
0000
3003
1000
,
0020
0030
0200
0300
,
2002
0000
3003
1000
,
0002
0023
0230
2300
,
3020
0230
0302
0023
,
0230
0300
2200
3300
,
1001
0000
2000
3200
,
0320
0032
0203
0300
,
2002
0000
3003
0100
,
2000
3000
0002
0003
,
2002
0000
3003
0001
,
0200
0302
2003
3200
,
0320
0000
0030
0100
,
2002
3003
2002
3003
,
0001
0100
0001
0100
,
1000
0100
1000
0100
,
0001
0100
1000
0100
,
0001
0100
1001
0000
,
0001
0010
0001
0010
,
1000
0010
1000
0010
,
0001
0010
1000
0010
,
0001
0010
1001
0000
,
1000
0010
0001
0010
,
0001
0100
1000
0100
,
0001
0010
0100
1000
,
0100
0010
1001
0000
,
1000
0100
0001
0100
,
1000
0010
0001
0010
,
1000
0010
0100
0001
,
2002
3003
0020
0130
,
2002
3003
0200
0310
,
2002
3003
0220
0330
,
0000
0001
0010
0100
,
2002
0000
0000
0000
,
3003
0000
0000
0000
;
