#TITLE:glory day;
#SUBTITLE:;
#ARTIST:BEXTER & Mycin.T ft. DyoN Joo;
#TITLETRANSLIT:;
#SUBTITLETRANSLIT:;
#ARTISTTRANSLIT:;
#GENRE:;
#CREDIT:;
#BANNER:glory day.png;
#BACKGROUND:glory day-bg.png;
#LYRICSPATH:;
#CDTITLE:;
#MUSIC:glory day.ogg;
#OFFSET:-0.043000;
#SAMPLESTART:83.561516;
#SAMPLELENGTH:23.703705;
#SELECTABLE:YES;
#BPMS:0.000000=162.000000
;
#STOPS:
;
#BGCHANGES:0.000=glory day.avi=1.000=0=0=0=StretchNoLoop====,
99999=-nosongbg-=1.000=0=0=0 // don't automatically add -songbackground-
;
#KEYSOUNDS:;
#ATTACKS:;

//---------------dance-single - ----------------
#NOTES:
     dance-single:
     :
     Hard:
     10:
     0.388479,0.507068,0.122678,0.211278,0.000000,399.000000,381.000000,18.000000,31.000000,0.000000,0.000000,0.388479,0.507068,0.122678,0.211278,0.000000,399.000000,381.000000,18.000000,31.000000,0.000000,0.000000:
0000
0000
0000
0000
,
0000
0000
0000
0000
,
0000
0000
0000
0000
,
0000
0000
0000
0000
,
0000
0000
0000
0000
,
0000
0000
0000
0000
,
0000
0000
0000
0000
,
0000
0000
0000
0000
,
0000
0000
0000
0000
,
1001
0000
0100
0010
0100
0000
0100
0000
,
1001
0000
0010
0100
0010
0000
0010
0000
,
1001
0000
1000
0100
1000
0000
0010
0000
,
1001
0000
0001
0100
0001
0000
0010
0000
,
1000
0100
1000
0000
0100
0000
0010
0000
,
0001
0010
0001
0000
0100
0000
0010
0000
,
1000
0010
1000
0000
0010
0000
0010
0000
,
0001
0100
0001
0000
0100
0000
0100
0000
,
0020
0000
0000
0130
,
1000
0001
0000
1000
0000
0001
0000
0100
,
0002
0000
0000
0200
0000
0000
0303
0000
,
2000
0000
3002
0000
,
0023
0000
0000
1030
,
0100
0001
0000
1000
0000
0001
0000
1000
,
0020
0000
0000
0100
0000
0000
0130
0000
,
2000
0000
0000
0001
0000
0000
3001
0000
,
0010
0000
0010
0000
0010
0000
1000
0010
,
1000
0000
0010
0000
0001
0000
0010
0001
,
0010
0000
0100
0000
1000
0000
0010
0100
,
0010
0000
0001
0000
0100
0000
1000
0001
,
1000
0000
0010
0000
1000
0010
1000
0000
,
0001
0000
0100
0001
0100
0000
0001
0000
,
1000
0010
1000
0000
0010
0000
0100
0000
,
0001
1000
0000
0010
0100
0010
0100
0000
,
2002
0000
0000
3003
,
0010
0000
0100
0000
0001
0000
1000
0100
,
0020
0000
0000
0000
1030
0000
0000
1001
,
0000
0110
0000
0000
0010
0000
0100
0000
,
0001
0100
1000
0010
,
0100
0100
0010
0010
,
0010
1000
0010
1000
0001
0100
0001
0100
,
0010
0000
0000
0000
0000
1000
1001
0000
,
0010
0000
0001
1000
0000
0010
0100
0000
,
1000
0000
0001
0100
0000
0001
0100
0000
,
0010
0000
1000
0100
0000
1000
0100
0010
,
0001
0000
0100
0010
0000
1000
0001
0000
,
1000
0000
0001
0100
0000
0001
0100
0000
,
2000
0000
3010
0000
0200
0000
0301
0010
,
0100
0000
0100
0010
0000
0100
0010
0000
,
1000
0100
1000
0001
0100
0001
0100
0000
,
0010
0000
0010
0010
0000
1000
0001
1000
,
0100
0000
0100
0100
0000
0001
1000
0001
,
0100
0000
1000
0010
0000
0100
0001
0100
,
0100
0000
0001
0010
0000
1000
0010
1000
,
1000
0001
0100
0010
,
1100
0001
0101
0100
,
0010
1000
0010
1000
0001
0100
0001
0100
,
0010
0000
1000
0100
0010
0000
0001
0100
,
0020
1000
0100
1030
,
2000
0000
3100
0000
0001
0000
0100
0010
,
2000
0001
0010
3001
,
0200
0000
0310
0000
0001
0000
0100
1000
,
0020
0100
1000
0100
,
1000
0000
0130
0001
0100
0000
0001
1000
,
0020
0100
0001
0100
,
0001
0000
0031
1000
0100
0000
0010
0100
,
0002
1000
0100
1003
,
2000
0001
0100
3001
,
0020
1000
0100
0031
,
0020
0001
0100
1030
,
0011
0000
1100
0000
0001
0100
1000
0000
,
1100
0000
0101
0000
1000
0010
0001
0000
,
0000
1001
0000
0000
0010
0000
0000
1000
,
0000
0001
0000
0100
0010
1000
0001
0100
,
0010
0000
1000
1000
0000
0001
0100
0000
,
0010
0000
0001
0001
0000
1000
0100
0000
,
0001
0100
0000
0110
0000
1000
0100
0000
,
1000
0100
0000
0110
0000
0001
0100
0000
,
0010
0010
0000
1000
1000
0000
0100
0000
,
0010
0010
0000
0001
0001
0000
0100
0000
,
0001
1000
0001
1000
0010
0100
0010
0100
,
0001
1000
0001
1000
0010
0000
0010
1000
,
0002
0000
0000
1000
1000
0000
0103
0000
,
2000
0000
0000
0001
0001
3000
0100
0010
,
2000
0000
0001
0001
0000
0000
3010
0000
,
0002
0000
0000
0100
0100
0000
1003
0010
,
0200
0000
0001
0001
0000
0000
1300
0000
,
0020
0000
0000
1000
1030
0000
0001
0100
,
1000
0100
0000
0001
0100
0000
1000
0100
,
0000
0001
0100
0000
1000
0100
0000
2002
,
0000
0000
0000
0000
,
0000
0000
0000
0000
,
0000
0000
0000
0000
,
0000
0000
0000
0000
,
3003
0000
0000
0000
;

//---------------dance-double - ----------------
#NOTES:
     dance-double:
     :
     Hard:
     10:
     0.319351,0.475376,0.088601,0.245355,0.000000,328.000000,315.000000,13.000000,36.000000,0.000000,0.000000,0.319351,0.475376,0.088601,0.245355,0.000000,328.000000,315.000000,13.000000,36.000000,0.000000,0.000000:
00000000
00000000
00000000
00000000
,
00000000
00000000
00000000
00000000
,
00000000
00000000
00000000
00000000
,
00000000
00000000
00000000
00000000
,
00000000
00000000
00000000
00000000
,
00000000
00000000
00000000
00000000
,
00000000
00000000
00000000
00000000
,
00000000
00000000
00000000
00000000
,
00000000
00000000
00000000
00000000
,
10000000
00100000
00010000
00001000
,
00000100
00001000
00000100
00000001
,
00000001
00000010
00001000
00010000
,
00100000
00010000
00100000
01000000
,
10000000
00000000
00000000
00100000
00000000
00000000
00010000
00000000
,
00001000
00000000
00000000
00000010
00000000
00000000
00000001
00000000
,
00000001
00000000
00000000
00000100
00000000
00000000
00001000
00000000
,
00010000
01000000
00000000
00000000
00100000
00000000
01000000
00000000
,
20010000
00000000
00000000
00000000
00000000
00000000
30100000
01000000
,
00100000
01000000
00000000
00010000
00000000
00001000
00000000
00000000
,
00000020
00000000
00000000
00000230
00000000
00000000
00000002
00000000
,
00000303
00001000
00000001
00001000
,
00000010
00000000
00000010
00000000
00000010
00000000
00001000
00000100
,
00001000
00000100
00000000
00010000
00000000
00001000
00000000
00100000
,
00020000
00000000
00000000
02030000
00000000
00000000
00000000
03000000
,
00000000
00100000
10000000
00000000
00010000
00000000
01000000
00000000
,
00100000
00000000
10000000
00100000
00000000
01000000
00010000
00000000
,
00100000
00010000
00000000
00010000
00001000
00000000
00000100
00000000
,
00000010
00000000
00001000
00000010
00000000
00001000
00000010
00000000
,
00000001
00000100
00000000
00000001
00000100
00000000
00001000
00000000
,
00010000
00000000
00001000
00010000
00000000
00001000
00010000
00000000
,
00001000
00100000
00000000
00001000
00100000
00000000
00010000
00100000
,
00000000
00010000
01000000
00000000
00100000
01000000
00000000
10000000
,
01000000
00100000
00000000
00010000
00000000
00001000
00000100
00000000
,
00001001
00000000
00000110
00000000
,
00000001
00000000
00000100
00000000
00001000
00000000
00010000
00001000
,
00200000
00000000
00000000
00000000
00310000
00000000
00000000
01100000
,
00000000
10010000
00000000
00000000
00000000
00000000
01000000
00000000
,
10000000
00000000
00100000
00000000
00010000
00000000
00001000
00000100
,
00001000
00000000
00000010
00000100
00000001
00000000
00001000
00000000
,
00000110
00000110
00001001
00001001
,
00011000
00000000
00000000
00000000
,
00200000
00000000
00000000
00320000
00000000
00000000
01030000
00000000
,
00200000
00000000
00000000
20300000
00000000
00000000
31000000
00000000
,
00200000
00000000
00001000
00000000
00310000
00000000
00001000
00010000
,
00000200
00001000
00000010
00001300
,
00000002
00000000
00000100
00000100
00000000
00000000
00000103
00000000
,
00002200
00000000
00003000
00000000
00002000
00000000
00003000
00020300
,
00001000
00000000
00000000
00001000
00000000
00000000
00032000
00000000
,
00100000
00010000
01003000
00100000
,
10000000
01000000
00100000
00010000
00000000
00000000
00001000
00000000
,
00000001
00000010
00000100
00001000
00000000
00000000
00010000
00000000
,
01000000
00000000
00010000
00000000
10000000
00000000
00100000
01000000
,
00100000
10000000
00100000
00010000
,
00002000
00000000
00003000
00000001
,
00000200
00000300
00000020
00000030
,
00002002
00000000
00000000
00003003
,
00000010
00000000
00000100
00000010
00000100
00000000
00001000
00010000
,
00002000
00010000
00000000
00010000
,
00000000
00000000
01003000
00000000
00010000
00000000
01000000
00100000
,
20000000
00010000
00000000
00010000
,
00000000
00000000
30010000
00000000
00100000
00000000
00001000
00010000
,
00000200
00010000
00000000
00001000
,
00000000
00000000
00010300
00000000
00000100
00000000
00001000
00000010
,
00000200
00000001
00000000
00001000
,
00000000
00000000
00000301
00000000
00000010
00000000
00001000
00010000
,
00002000
00010000
00100000
00010000
,
00100000
00003000
00100000
00010000
01000000
00000000
01000000
00100000
,
20000000
01000000
00100000
01000000
,
30100000
00000000
01000000
00010000
00001000
00000000
00010000
00001000
,
00000200
00001000
00000010
00001000
,
00000310
00000000
00000001
00000010
00000100
00000000
00001000
00010000
,
00002000
00000000
00010000
00000000
00100000
00000000
00010000
00003000
,
00100000
00010000
00100000
00010000
01000000
00000000
10010000
00000000
,
01000000
00000000
00000000
00010000
00000000
00000000
00001000
00000000
,
00000100
00000000
00000000
00010000
00000000
00000000
00100000
00000000
,
10000000
00000000
00000000
01000000
00000000
00000000
00010000
00000000
,
00001000
00000000
00000000
00000100
00000000
00000000
00000010
00000000
,
00000001
00000000
00000000
00000100
00000000
00000000
00001000
00000000
,
00010000
00000000
00000000
00100000
00000000
00000000
01000000
00000000
,
20000000
00100000
00100000
30100000
,
00020000
00100000
00100000
00130000
,
00001000
00010000
00000000
00001000
00010000
00000000
00001000
00000000
,
00000100
00001000
00000000
00000010
00000100
00000000
00000001
00000000
,
00000100
00001000
00000000
00001000
00010000
00000000
01000000
00000000
,
10000000
00100000
00000000
00100000
00010000
00000000
00000000
00000000
,
00010000
00001000
00000000
00001000
00000100
00000000
00000010
00000000
,
00000001
00000010
00000000
00000010
00000100
00000000
00001000
00000000
,
00000001
00000000
00000000
00000010
00000000
00000000
00000100
00000000
,
00000000
00001000
00000000
00000000
00010000
00000000
00002000
00020000
,
00000000
00000000
00000000
00000000
,
00000000
00000000
00000000
00000000
,
00000000
00000000
00000000
00000000
,
00000000
00000000
00000000
00000000
,
00033000
00000000
00000000
00000000
;

//---------------dance-double - ----------------
#NOTES:
     dance-double:
     :
     Medium:
     7:
     0.235619,0.348609,0.149939,0.231724,0.000000,242.000000,220.000000,22.000000,34.000000,0.000000,0.000000,0.235619,0.348609,0.149939,0.231724,0.000000,242.000000,220.000000,22.000000,34.000000,0.000000,0.000000:
00000000
00000000
00000000
00000000
,
00000000
00000000
00000000
00000000
,
00000000
00000000
00000000
00000000
,
00000000
00000000
00000000
00000000
,
00000000
00000000
00000000
00000000
,
00000000
00000000
00000000
00000000
,
00000000
00000000
00000000
00000000
,
00000000
00000000
00000000
00000000
,
00000000
00000000
00000000
00000000
,
01000000
00000000
00000000
01000000
00000000
00000000
01000000
00000000
,
00100000
00000000
00000000
00100000
00000000
00000000
00100000
00000000
,
00001000
00000000
00000000
00001000
00000000
00000000
00001000
00000000
,
00000100
00000000
00000000
00000100
00000000
00000000
00000100
00000000
,
00000010
00000000
00000000
00000010
00000000
00000000
00000010
00000000
,
00001000
00000000
00000000
00001000
00000000
00000000
00001000
00000000
,
00010000
00000000
00000000
00010000
00000000
00000000
00010000
00000000
,
00000000
01000000
00000000
00000000
01000000
00000000
01000000
00000000
,
20020000
00000000
00000000
30030000
,
00100000
00000000
01000000
00000000
,
00020000
00000000
00000000
00030000
,
20000000
00000000
00000000
30000000
00020000
00000000
00000000
00030000
,
01000000
00000000
00000000
00000000
,
00010000
00000000
00001000
00000000
,
00000020
00000000
00000000
00000030
00000200
00000000
00000300
00000000
,
00000020
00000000
00000000
00000030
00000200
00000000
00000300
00000000
,
00000001
00000001
00000001
00000001
,
00001000
00001000
00001000
00001000
,
00010000
00010000
00010000
00010000
,
10000000
10000000
10000000
10000000
,
00010000
00010000
00010000
00010000
,
00000100
00000100
00000100
00000100
,
00010000
00010000
00010000
00010000
,
01000000
01000000
01000000
01000000
,
20020000
00000000
00000000
30030000
,
00100000
00000000
00010000
00000000
00001000
00000000
00010000
00002000
,
00020000
00000000
00000000
00000000
00000000
00033000
00000000
00000100
,
00000000
00000200
00000000
00000000
00000000
00000000
00000300
00000000
,
00000001
00000010
00000100
00001000
,
00010000
01000000
10000000
00100000
,
00010000
00001000
00010000
00000000
00001000
00010000
00001000
00000000
,
00010000
00000000
00000000
00000000
,
00000010
00000000
00000000
00000100
00000000
00000000
00000000
00000000
,
00100000
00000000
00000000
01000000
00000000
00000000
00000000
00000000
,
02000000
00000000
03000000
00100000
,
00020000
00030000
00002000
00003000
,
00000020
00000000
00000000
00000130
00000000
00000000
00000000
00000000
,
00000200
00000000
00000000
00000000
00000320
00000000
00000000
00002030
,
00000000
00010000
00000000
00013000
,
00200000
00010000
01000000
10300000
,
01000000
00000000
00000000
10010000
00000000
00000000
00000000
00000000
,
00100000
00000000
00000000
00011000
00000000
00000000
00000000
00000000
,
00000200
00000000
00000000
00000000
00000000
00000300
00000001
00000100
,
00000000
00000010
00001000
00000100
,
00002000
00000000
00003000
00010000
,
00001000
00000000
00110000
00000000
,
10000000
01000000
00100000
00010000
,
00001000
00000000
00000000
00000010
00000100
00000000
00000010
00000100
,
00000002
00000000
00000000
00000000
,
00000003
00000000
00000000
00000010
00001000
00000000
00000100
00001000
,
00000200
00000000
00000000
00000000
,
00000300
00000000
00000000
00010000
00001000
00000000
00010000
00001000
,
00020000
00000000
00000000
00000000
,
00030000
00000000
00000000
00100000
00010000
00000000
01000000
00010000
,
02000000
00000000
00000000
00000000
,
03000000
00000000
00000000
00100000
10000000
00000000
01000000
00000000
,
00020000
00000000
00001000
00000000
,
00031000
00000000
00000000
00001000
00000100
00000000
00000010
00000000
,
00000002
00000000
00000100
00000000
,
00001003
00000000
00000000
00000010
00001000
00000000
00000100
00000000
,
00020000
00000000
00001000
00000000
,
00031000
00000000
00000000
00001000
01000000
00000000
00100000
00000000
,
20000000
00000000
01000000
00000000
,
01000000
00000000
31000000
00000000
,
01100000
00000000
00000000
01100000
00000000
00000000
00000000
00000000
,
00011000
00000000
00000000
00011000
00000000
00000000
00000000
00000000
,
00000110
00000000
00000000
00000110
00000000
00000000
00000000
00000000
,
00011000
00000000
00000000
00011000
00000000
00000000
00000000
00000000
,
01100000
00000000
00000000
01100000
00000000
00000000
00000000
00000000
,
10010000
00000000
00000000
10010000
00000000
00000000
00000000
00000000
,
00011000
00000000
00000000
00011000
00000000
00000000
00000000
00000000
,
00001001
00000000
00000000
00001001
00000000
00000000
00000000
00000000
,
00000001
00000000
00000100
00001000
00000000
00000000
00000000
00000000
,
00000100
00000000
00010000
00001000
00000000
00000000
00000000
00000000
,
00010000
00000000
01000000
10000000
00000000
00000000
00000000
00000000
,
01000000
00000000
10000000
00010000
00000000
00000000
00000000
00000000
,
00010000
00000000
00001000
00010000
00000000
00001000
00010000
00000000
,
00000100
00000000
00001000
00000100
00000000
00001000
00000100
00000000
,
00000010
00000000
00000000
00001000
00000000
00000000
00010000
00000000
,
00000000
01000000
00000000
00000000
00010000
00000000
00000000
00022000
,
00000000
00000000
00000000
00000000
,
00000000
00000000
00000000
00000000
,
00000000
00000000
00000000
00000000
,
00000000
00000000
00000000
00000000
,
00033000
00000000
00000000
00000000
;

//---------------dance-double - ----------------
#NOTES:
     dance-double:
     :
     Easy:
     3:
     0.123651,0.221842,0.068154,0.184016,0.000000,127.000000,117.000000,10.000000,27.000000,0.000000,0.000000,0.123651,0.221842,0.068154,0.184016,0.000000,127.000000,117.000000,10.000000,27.000000,0.000000,0.000000:
00000000
00000000
00000000
00000000
,
00000000
00000000
00000000
00000000
,
00000000
00000000
00000000
00000000
,
00000000
00000000
00000000
00000000
,
00000000
00000000
00000000
00000000
,
00000000
00000000
00000000
00000000
,
00000000
00000000
00000000
00000000
,
00000000
00000000
00000000
00000000
,
00000000
00000000
00000000
00000000
,
00010000
00000000
00000000
00000000
,
00001000
00000000
00000000
00000000
,
00010000
00000000
00000000
00000000
,
00001000
00000000
00000000
00000000
,
00000010
00000000
00000000
00000000
,
00000100
00000000
00000000
00000000
,
01000000
00000000
00000000
00000000
,
00100000
00000000
00000000
00000000
,
10000000
00000000
00000000
00000000
,
10000000
00000000
10000000
00000000
,
10000000
00000000
00000000
00000000
,
00010000
00000000
00010000
00000000
,
00010000
00000000
00000000
00000000
,
00001000
00000000
00001000
00000000
,
00001000
00000000
00000000
00000000
,
00000001
00000000
00000001
00000000
,
00000000
00000100
00000000
00000100
,
00000000
00000100
00000000
00000100
,
00000000
00000010
00000000
00000010
,
00000000
00000010
00000000
00000010
,
00000000
00010000
00000000
00010000
,
00000000
00001000
00000000
00001000
,
00000000
00010000
00000000
00010000
,
00000000
01000000
00000000
01000000
,
20000000
00000000
30000000
00000000
,
00020000
00000000
00030000
00000000
,
20000000
00000000
30000000
00000000
,
00020000
00000000
00030000
00000000
,
00002000
00000000
00003000
00000000
,
00000002
00000000
00000003
00000000
,
00002000
00000000
00003000
00000000
,
00011000
00000000
00000000
00000000
,
00010000
00000000
00010000
00000000
,
00001000
00000000
00001000
00000000
,
02000000
00000000
03000000
00000000
,
00200000
00000000
00300000
00000000
,
10000000
00000000
10000000
00000000
,
00010000
00000000
00010000
00000000
,
00001000
00000000
00000000
00000000
,
00000100
00000000
00000000
00000000
,
00000001
00000000
00000001
00000000
,
00001000
00000000
00001000
00000000
,
00000100
00000000
00000000
00000000
,
01000000
00000000
00000000
00000000
,
10000000
00000000
10000000
00000000
,
00010000
00000000
00010000
00000000
,
00001000
00000000
00000000
00000000
,
00000000
00000000
00000001
00000000
,
00002002
00000000
00000000
00000000
,
00003003
00000000
00010000
00000000
,
00022000
00000000
00000000
00000000
,
00033000
00000000
00010000
00000000
,
20020000
00000000
00000000
00000000
,
30030000
00000000
00010000
00000000
,
00022000
00000000
00000000
00000000
,
00033000
00000000
00000010
00000000
,
00000220
00000000
00000000
00000000
,
00000330
00000000
00010000
00000000
,
00022000
00000000
00000000
00000000
,
00033000
00000000
00100000
00000000
,
02200000
00000000
00000000
00000000
,
03300000
00000000
00010000
00000000
,
00022000
00000000
00000000
00000000
,
00000000
00000000
00000000
00033000
,
00000100
00000000
00000000
00000100
00000000
00000000
00000000
00000000
,
00000100
00000000
00000000
00000100
00000000
00000000
00000000
00000000
,
00010000
00000000
00000000
00010000
00000000
00000000
00000000
00000000
,
00010000
00000000
00000000
00010000
00000000
00000000
00000000
00000000
,
00001000
00000000
00000000
00001000
00000000
00000000
00000000
00000000
,
00001000
00000000
00000000
00001000
00000000
00000000
00000000
00000000
,
01000000
00000000
00000000
01000000
00000000
00000000
00000000
00000000
,
00100000
00000000
00000000
00100000
00000000
00000000
00000000
00000000
,
10000000
00000000
00000000
01000000
00000000
00000000
00000000
00000000
,
00100000
00000000
00000000
00010000
00000000
00000000
00000000
00000000
,
00001000
00000000
00000000
00000100
00000000
00000000
00000000
00000000
,
00000010
00000000
00000000
00000001
00000000
00000000
00000000
00000000
,
00000100
00000000
00000000
00001000
00000000
00000000
00000000
00000000
,
00010000
00000000
00000000
01000000
00000000
00000000
00000000
00000000
,
10000000
00000000
00000000
00100000
00000000
00000000
00001000
00000000
,
00000000
00010000
00000000
00000000
00001000
00000000
00000000
00022000
,
00000000
00000000
00000000
00000000
,
00000000
00000000
00000000
00000000
,
00000000
00000000
00000000
00000000
,
00000000
00000000
00000000
00000000
,
00033000
00000000
00000000
00000000
;

//---------------dance-single - ----------------
#NOTES:
     dance-single:
     :
     Beginner:
     2:
     0.097363,0.221842,0.006815,0.102231,0.000000,100.000000,99.000000,1.000000,15.000000,0.000000,0.000000,0.097363,0.221842,0.006815,0.102231,0.000000,100.000000,99.000000,1.000000,15.000000,0.000000,0.000000:
0000
0000
0000
0000
,
0000
0000
0000
0000
,
0000
0000
0000
0000
,
0000
0000
0000
0000
,
0000
0000
0000
0000
,
0000
0000
0000
0000
,
0000
0000
0000
0000
,
0000
0000
0000
0000
,
0000
0000
0000
0000
,
0010
0000
0000
0000
,
0100
0000
0000
0000
,
0010
0000
0000
0000
,
0100
0000
0000
0000
,
0010
0000
0010
0000
,
0100
0000
0100
0000
,
1000
0000
0001
0000
,
1000
0000
0001
0000
,
0010
0000
0000
0000
,
0010
0000
0000
0000
,
0100
0000
0000
0000
,
0100
0000
0000
0000
,
1000
0000
0000
0000
,
0001
0000
0000
0000
,
1000
0000
0000
0000
,
0001
0000
0000
0000
,
0010
0000
0010
0000
,
0010
0000
0010
0000
,
0100
0000
0100
0000
,
0100
0000
0100
0000
,
1000
0000
1000
0000
,
1000
0000
1000
0000
,
0001
0000
0001
0000
,
0001
0000
0001
0000
,
0200
0000
0000
0000
,
0300
0000
0000
0000
,
0020
0000
0000
0000
,
0030
0000
0000
0000
,
1000
0000
0001
0000
,
1000
0000
0001
0000
,
0200
0000
0000
0000
,
0300
0000
0000
0000
,
0010
0000
0000
0000
,
0010
0000
0000
0000
,
0020
0000
0000
0000
,
0030
0000
0000
0000
,
0100
0000
0000
0000
,
0100
0000
0000
0000
,
0200
0000
0000
0000
,
0000
0000
0300
0000
,
0100
0000
0000
0000
,
0010
0000
0000
0000
,
0100
0000
0000
0000
,
0010
0000
0000
0000
,
1000
0000
1000
0000
,
1000
0000
1000
0000
,
0001
0000
0001
0000
,
0001
0000
0000
0000
,
0200
0000
0000
0000
,
0300
0000
0000
0000
,
0020
0000
0000
0000
,
0030
0000
0000
0000
,
2000
0000
0000
0000
,
3000
0000
0000
0000
,
0002
0000
0000
0000
,
0003
0000
0000
0000
,
0020
0000
0000
0000
,
0030
0000
0000
0000
,
0200
0000
0000
0000
,
0300
0000
0000
0000
,
0002
0000
0000
0000
,
0003
0000
0000
0000
,
2000
0000
0000
0000
,
3000
0000
0000
0000
,
0010
0000
0010
0000
,
0100
0000
0100
0000
,
1000
0000
0001
0000
,
1000
0000
0001
0000
,
0010
0000
0010
0000
,
0100
0000
0100
0000
,
1000
0000
0001
0000
,
1000
0000
0001
0000
,
0010
0000
0000
0000
,
0010
0000
0000
0000
,
0100
0000
0000
0000
,
0100
0000
0000
0000
,
1000
1000
1000
0000
,
0001
0001
0001
0000
,
0010
0000
0010
0000
,
0010
0000
0010
0000
,
2002
0000
0000
0000
,
0000
0000
0000
0000
,
0000
0000
0000
0000
,
0000
0000
0000
0000
,
3003
0000
0000
0000
;

//---------------dance-single - ----------------
#NOTES:
     dance-single:
     :
     Medium:
     7:
     0.257039,0.380301,0.163570,0.354402,0.000000,264.000000,240.000000,24.000000,52.000000,0.000000,0.000000,0.257039,0.380301,0.163570,0.354402,0.000000,264.000000,240.000000,24.000000,52.000000,0.000000,0.000000:
// measure 0
0000
0000
0000
0000
,  // measure 1
0000
0000
0000
0000
,  // measure 2
0000
0000
0000
0000
,  // measure 3
0000
0000
0000
0000
,  // measure 4
0000
0000
0000
0000
,  // measure 5
0000
0000
0000
0000
,  // measure 6
0000
0000
0000
0000
,  // measure 7
0000
0000
0000
0000
,  // measure 8
0000
0000
0000
0000
,  // measure 9
0100
0000
0000
0100
0000
0000
0100
0000
,  // measure 10
0010
0000
0000
0010
0000
0000
0010
0000
,  // measure 11
1000
0000
0000
1000
0000
0000
1000
0000
,  // measure 12
0001
0000
0000
0001
0000
0000
0001
0000
,  // measure 13
0100
0000
0000
0100
0000
0000
0100
0000
,  // measure 14
0010
0000
0000
0010
0000
0000
0010
0000
,  // measure 15
1000
0000
0000
1000
0000
0000
1000
0000
,  // measure 16
0000
1000
0000
0000
0010
0000
0100
0000
,  // measure 17
2002
0000
0000
0000
3003
0000
0010
0100
,  // measure 18
0010
0100
0000
0010
0000
0010
0000
0000
,  // measure 19
1000
0000
0000
0100
0000
0000
0002
0000
,  // measure 20
0000
0000
0003
0000
,  // measure 21
0010
0000
0010
0000
0010
0000
1000
0001
,  // measure 22
1000
0001
0000
0100
0000
0100
0000
0000
,  // measure 23
0020
0000
0000
2030
0000
0000
0000
0000
,  // measure 24
3001
0100
0001
0100
,  // measure 25
0010
0010
0010
0010
,  // measure 26
1000
1000
0100
0100
,  // measure 27
0010
0010
0010
0010
,  // measure 28
0001
0001
0100
0100
,  // measure 29
1000
1000
0010
0010
,  // measure 30
0001
0001
0100
0100
,  // measure 31
0001
0001
0001
0001
,  // measure 32
0100
0100
0100
0100
,  // measure 33
2002
0000
0000
3003
,  // measure 34
0010
0001
1000
0001
,  // measure 35
0002
0000
0000
0000
0000
0003
0000
0110
,  // measure 36
0000
1001
0000
0000
0000
0000
0010
0000
,  // measure 37
1000
1000
1000
0100
,  // measure 38
0001
0100
1000
0010
,  // measure 39
0001
0000
0001
1000
0000
0001
1000
0000
,  // measure 40
1001
0000
0000
0110
,  // measure 41
0010
0000
0000
0001
0000
0000
0000
0000
,  // measure 42
0010
0000
0000
0100
0000
0000
0000
0000
,  // measure 43
0200
0000
0000
0000
0300
0000
0010
1000
,  // measure 44
0002
0003
2000
3000
,  // measure 45
0010
0000
0000
0100
0000
0000
0000
0000
,  // measure 46
0010
0000
1001
0000
,  // measure 47
2000
0001
0000
3001
,  // measure 48
0020
0001
0100
1030
,  // measure 49
0100
0000
0000
1001
0000
0000
0000
0000
,  // measure 50
0010
0000
0000
1001
0000
0000
0000
0000
,  // measure 51
0010
0000
1000
0001
,  // measure 52
1000
0000
0100
0010
,  // measure 53
0001
0001
0001
0001
,  // measure 54
1000
0000
0011
0000
,  // measure 55
1000
0100
0010
0001
,  // measure 56
1000
0000
0000
0000
0110
0000
0001
0100
,  // measure 57
0002
0100
0000
0100
,  // measure 58
0000
0000
0103
0000
0010
0000
1000
0100
,  // measure 59
2000
0010
0000
0010
,  // measure 60
0000
0000
3000
0000
0001
0000
0001
0100
,  // measure 61
0002
0000
0000
1000
,  // measure 62
0000
0000
1003
0000
0010
0000
0100
0010
,  // measure 63
0200
0001
0000
0001
,  // measure 64
0000
1300
0010
0001
,  // measure 65
0200
0010
0000
0310
,  // measure 66
0002
1000
0100
1003
,  // measure 67
0200
0010
0000
0310
,  // measure 68
2000
0001
0100
3001
,  // measure 69
0010
0002
0100
1003
,  // measure 70
0010
2000
0100
3001
,  // measure 71
0020
0100
0100
0100
,  // measure 72
0100
0100
0100
0130
,  // measure 73
0001
0000
0000
2002
0000
0000
3003
0000
,  // measure 74
1000
0000
0000
2002
0000
0000
3003
0000
,  // measure 75
0100
0000
0000
0220
0000
0000
0330
0000
,  // measure 76
0010
0000
0000
0200
0000
0000
0300
0000
,  // measure 77
1000
0000
0000
0002
0000
0000
0003
0000
,  // measure 78
2000
0000
3000
0200
0000
0000
0300
0000
,  // measure 79
0020
0000
0030
0002
0000
0003
0100
0000
,  // measure 80
0020
0000
0030
2000
0000
3000
0100
0000
,  // measure 81
0002
0000
0000
0020
0000
0000
0033
0000
,  // measure 82
2000
0000
0000
0200
0000
0000
3300
0000
,  // measure 83
0020
0000
0000
0200
0000
0000
0330
0000
,  // measure 84
2000
0000
0000
0002
0000
0000
3003
0000
,  // measure 85
0011
0000
0000
2200
0000
0000
3300
0000
,  // measure 86
1100
0000
0000
0022
0000
0000
0033
0000
,  // measure 87
0110
0000
0000
1001
0000
0000
0110
0000
,  // measure 88
0000
1001
0000
0000
0110
0000
0000
2002
,  // measure 89
0000
0000
0000
0000
,  // measure 90
0000
0000
0000
0000
,  // measure 91
0000
0000
0000
0000
,  // measure 92
0000
0000
0000
0000
,  // measure 93
3003
0000
0000
0000
;

//---------------dance-single - ----------------
#NOTES:
     dance-single:
     :
     Easy:
     4:
     0.139229,0.221842,0.081785,0.361217,0.000000,143.000000,131.000000,12.000000,53.000000,0.000000,0.000000,0.139229,0.221842,0.081785,0.361217,0.000000,143.000000,131.000000,12.000000,53.000000,0.000000,0.000000:
// measure 0
0000
0000
0000
0000
,  // measure 1
0000
0000
0000
0000
,  // measure 2
0000
0000
0000
0000
,  // measure 3
0000
0000
0000
0000
,  // measure 4
0000
0000
0000
0000
,  // measure 5
0000
0000
0000
0000
,  // measure 6
0000
0000
0000
0000
,  // measure 7
0000
0000
0000
0000
,  // measure 8
0000
0000
0000
0000
,  // measure 9
1000
0000
1000
0000
,  // measure 10
0001
0000
0001
0000
,  // measure 11
1000
0000
1000
0000
,  // measure 12
0001
0000
0001
0000
,  // measure 13
0010
0000
0010
0000
,  // measure 14
0100
0000
0100
0000
,  // measure 15
1000
0000
0001
0000
,  // measure 16
1000
0000
0001
0000
,  // measure 17
2002
0000
0000
3003
,  // measure 18
0020
0030
0200
0300
,  // measure 19
0002
0000
0000
0003
,  // measure 20
0200
0300
0020
0030
,  // measure 21
2000
0000
0000
3000
,  // measure 22
0002
0003
0200
0300
,  // measure 23
2000
0000
0000
3000
,  // measure 24
0020
0030
0200
0300
,  // measure 25
1000
0001
0000
0001
,  // measure 26
1000
0001
0000
0001
,  // measure 27
0100
0010
0000
0010
,  // measure 28
0100
0010
0000
0010
,  // measure 29
1000
0001
0000
0001
,  // measure 30
1000
0001
0000
0001
,  // measure 31
0100
0010
0000
0010
,  // measure 32
0000
1000
0001
1000
,  // measure 33
0002
0000
0000
0003
,  // measure 34
0020
0000
0000
0030
,  // measure 35
0200
0000
0000
0300
,  // measure 36
2000
0000
0000
3000
,  // measure 37
0001
0000
0010
0000
,  // measure 38
0100
0000
1000
0000
,  // measure 39
2002
0000
0000
0000
,  // measure 40
3003
0000
0000
0000
,  // measure 41
0010
0000
0100
0000
,  // measure 42
0010
0000
0100
0000
,  // measure 43
0002
0000
0000
0000
,  // measure 44
2003
0000
0000
3000
,  // measure 45
0010
0000
0010
0000
,  // measure 46
0100
0000
0100
0000
,  // measure 47
2002
0000
0000
0000
,  // measure 48
3003
0000
0000
0000
,  // measure 49
0010
0100
0010
0000
,  // measure 50
0100
0010
0100
0000
,  // measure 51
0002
0000
0000
0000
,  // measure 52
2003
0000
3000
0010
,  // measure 53
0020
0030
0000
0100
,  // measure 54
0200
0300
2002
3003
,  // measure 55
0220
0000
0000
0330
,  // measure 56
0000
0000
1000
0001
,  // measure 57
0200
0000
0000
0000
,  // measure 58
0300
0000
0001
1000
,  // measure 59
0200
0000
0000
0000
,  // measure 60
0300
0000
1000
0001
,  // measure 61
0020
0000
0000
0000
,  // measure 62
0030
0000
0001
1000
,  // measure 63
0020
0000
0000
0000
,  // measure 64
0030
0000
1100
0000
,  // measure 65
2002
0000
0000
0000
,  // measure 66
3003
0000
0101
0000
,  // measure 67
2002
0000
0000
0000
,  // measure 68
3003
0000
0010
0000
,  // measure 69
0220
0000
0000
0000
,  // measure 70
0330
0000
0100
0000
,  // measure 71
0220
0000
0000
0000
,  // measure 72
0000
0000
0330
0000
,  // measure 73
2000
0000
3000
0000
,  // measure 74
0002
0000
0003
0000
,  // measure 75
2000
0000
3000
0000
,  // measure 76
0002
0000
0003
0000
,  // measure 77
0010
0000
0010
0000
,  // measure 78
0100
0000
0100
0000
,  // measure 79
1000
0000
0001
0000
,  // measure 80
1000
0000
0001
0000
,  // measure 81
0020
0000
0030
0000
,  // measure 82
0020
0000
0030
0000
,  // measure 83
0200
0000
0300
0000
,  // measure 84
0200
0000
0300
0000
,  // measure 85
1000
0000
0001
0000
,  // measure 86
1000
0000
0001
0000
,  // measure 87
0010
0000
0010
0000
,  // measure 88
0010
0000
1000
0000
,  // measure 89
2002
0000
0000
0000
,  // measure 90
0000
0000
0000
0000
,  // measure 91
0000
0000
0000
0000
,  // measure 92
0000
0000
0000
0000
,  // measure 93
3003
0000
0000
0000
;
