#TITLE:crew;
#SUBTITLE:-ryu☆ mix-;
#ARTIST:beatnation records feat. NU-KO;
#TITLETRANSLIT:;
#SUBTITLETRANSLIT:-ryu mix-;
#ARTISTTRANSLIT:;
#GENRE:;
#CREDIT:;
#BANNER:crew -ryu mix-.png;
#BACKGROUND:crew -ryu mix--jacket.png;
#LYRICSPATH:;
#CDTITLE:;
#MUSIC:crew -ryu mix-.ogg;
#OFFSET:-0.044000;
#SAMPLESTART:77.979485;
#SAMPLELENGTH:13.741936;
#SELECTABLE:YES;
#DISPLAYBPM:155.000000;
#BPMS:0.000000=155.000000
;
#STOPS:
;
#BGCHANGES:;
#KEYSOUNDS:;
#ATTACKS:;

//---------------dance-single - ----------------
#NOTES:
     dance-single:
     :
     Challenge:
     14:
     0.677953,0.718969,0.239347,0.222840,0.387907,575.000000,546.000000,29.000000,27.000000,0.000000,0.000000,0.677953,0.718969,0.239347,0.222840,0.387907,575.000000,546.000000,29.000000,27.000000,0.000000,0.000000:
0000
0000
0000
0000
,
0000
0000
0000
0000
,
1000
0001
0000
1000
0001
0000
1000
0001
0000
0000
1000
0000
0001
0000
1000
0000
,
0001
1000
0000
0001
1000
0000
0001
1000
0000
0000
0001
0000
0100
0000
0010
0000
,
0100
0010
0000
0100
0010
0000
0100
0010
0000
0000
0100
0000
0001
0000
1000
0000
,
0010
1000
0000
0010
1000
0000
0010
1000
0000
0000
0010
0000
0100
0000
0010
0000
,
1000
0010
0000
1000
0010
0000
1000
0001
0000
0000
0100
0000
0001
0000
1000
0000
,
0001
0100
0000
0001
0100
0000
0010
0100
0000
0000
0001
0000
0100
0000
0010
0000
,
1000
0010
0000
1000
0001
0000
1000
0100
0000
0000
1000
0000
0010
0000
1000
0000
,
1001
0000
0000
0100
0100
0100
0000
0000
,
0100
0010
1000
0100
0010
0001
0010
0100
,
1000
0010
0100
0001
1000
0010
1000
0001
,
0100
0010
1000
0100
0010
0001
0100
0010
,
1000
0010
1000
0010
0100
0010
0100
0001
,
0100
0001
0100
0010
1000
0010
0100
0010
,
1000
0001
0100
0010
1000
0001
1000
0010
,
1000
0100
1000
0010
0001
0010
0100
0001
,
0000
1000
0100
0010
0001
0001
0001
0000
,
1000
0100
1000
0100
0001
0100
0001
0100
,
1000
0010
0001
0010
1000
0010
0001
0010
,
1000
0100
1000
0100
1000
0001
1000
0001
,
1000
0010
0001
0100
0001
0010
0100
1000
,
0001
1000
0001
1000
0001
0010
0001
0010
,
0001
0100
1000
0100
0001
0100
1000
0100
,
0001
0010
0001
0010
0001
0100
0001
0100
,
0010
0000
0000
1000
1001
0000
0110
0000
,
2000
0100
0100
3100
,
0002
0100
0100
0103
,
2000
0010
0010
3010
,
0002
0010
2003
0010
,
3002
0100
0010
1003
,
2000
0100
0010
3001
,
0200
0001
0010
1300
,
0100
0001
1000
1001
,
0020
0000
0030
0001
1000
0000
0000
0000
0010
0000
1000
0000
0001
0000
0000
0000
,
0200
0000
0300
1000
0001
0000
0000
0000
0100
0000
0010
0000
1000
0000
0000
0000
,
0020
0000
0030
0001
1000
0000
0000
0000
0010
0000
1000
0000
0100
0000
0000
0000
,
0010
0000
1000
0100
1000
0000
0010
0000
0100
0000
0001
0010
0001
0000
0100
0000
,
0020
0000
0030
1000
0100
0000
1000
0000
0010
0000
0001
0000
0100
0000
0010
0000
,
2000
0000
3000
0001
0100
0000
0001
0000
0010
0000
1000
0000
0001
0000
0010
0000
,
0200
0000
0300
1000
0001
0000
0000
0000
0100
0000
0010
0000
1000
0000
0100
0000
,
0000
0110
1000
0110
0000
1001
0000
1100
,
1001
0000
0000
0001
0100
0001
0100
0000
0010
1000
0010
0000
0100
0000
0001
0000
,
1000
0000
0000
0001
1000
0001
1000
0000
0010
0100
0010
0000
1000
0000
0100
0000
,
1001
0000
0000
1000
0100
1000
0100
0000
1000
0000
0010
0000
0100
0000
0001
0000
,
1000
0001
0000
1000
0001
1000
0001
0000
1000
0000
0010
0100
0010
0000
0100
0000
,
1001
0000
0000
0010
0000
0000
0100
0000
0000
0000
0000
0000
0001
1000
0001
1000
0000
0000
0001
0000
0000
0100
0000
0000
,
1001
0000
0000
0100
0000
0000
0010
0000
0000
0000
0000
0000
1000
0010
1000
0010
0000
0000
1000
0000
0000
0100
0000
0000
,
1001
0010
0100
0000
1001
0100
0010
0000
,
1100
0000
0000
0001
0100
0001
0100
0001
1000
0001
1000
0000
0010
0000
0100
0000
,
0001
0000
1000
0001
0000
1000
0001
0000
0100
0010
0100
0000
0010
0000
0000
0000
,
1001
0000
0001
0100
0110
0000
1000
0010
,
0110
0000
0001
1001
0000
1000
1001
0000
,
1001
0000
0100
0010
1001
0000
0010
0100
,
1001
0000
1000
1100
0000
0001
0101
0000
,
0020
0000
0030
1000
0001
0000
0000
0001
0100
0000
0010
0000
1000
0000
0002
0000
,
0000
0103
0010
2000
0000
3001
0100
0010
,
0200
0000
0300
0001
1000
0000
0000
1000
0010
0000
1000
0000
0010
0000
0100
0000
,
0010
1000
0000
0010
0100
0000
0010
1000
0000
0010
0100
0000
0001
0000
0100
0000
,
0110
0000
1000
0001
0101
0000
0001
1000
,
0100
1000
0000
0010
1000
0000
0001
0100
0000
0001
1000
0000
0001
0000
0100
0000
,
0110
0000
1000
0100
1100
0000
0001
0100
,
0001
1000
0000
0010
1000
0000
0100
0010
0000
0001
1000
0000
0100
0000
0010
0000
,
0001
0100
0000
0100
0001
0000
0010
0000
1000
0000
0001
0000
1000
0000
0002
0000
,
0000
0103
0010
0200
0000
0310
1000
0010
,
0100
0001
0000
0001
1000
0000
1000
0010
0000
0010
0100
0000
0010
0000
1000
0000
,
0001
0100
0000
0001
0100
0000
0010
0000
1000
0000
0100
0000
0010
0000
0001
0000
,
1000
0100
0000
1000
0100
0000
0020
0000
0000
0000
0031
0000
0100
0000
0010
0000
,
1000
0001
0000
1000
0001
0000
0020
0000
0000
0000
0130
0000
1000
0000
0010
0000
,
0100
0001
0000
0100
0001
0000
0020
0000
0000
0000
0130
0000
1000
0000
0001
0000
,
0100
0010
0000
0100
0010
0000
0100
0010
0000
0000
1000
0000
0001
0000
0100
0000
,
0010
0100
0000
0010
0100
0000
0002
0000
0000
0000
0013
0000
0100
0000
1000
0000
,
0001
0100
0000
0100
0010
0000
2000
0000
0000
0000
3100
0000
0010
0000
0001
0000
,
0100
0010
0000
0010
1000
0000
0002
0000
0000
0000
0013
0000
0100
0000
1000
0000
,
0001
0000
0000
1000
0000
0000
0001
0000
0000
1000
0000
0000
0001
0000
0010
0100
,
0020
0000
0000
0030
;

//---------------dance-double - ----------------
#NOTES:
     dance-double:
     :
     Challenge:
     13:
     0.648477,0.718969,0.371401,0.156814,0.309500,550.000000,505.000000,45.000000,19.000000,0.000000,0.000000,0.648477,0.718969,0.371401,0.156814,0.309500,550.000000,505.000000,45.000000,19.000000,0.000000,0.000000:
// measure 0
00000000
00000000
00000000
00000000
,  // measure 1
00000000
00000000
00000000
00000000
,  // measure 2
00100000
00000000
00100000
00000000
00100000
00000000
00010000
00001000
,  // measure 3
00000100
00000000
00000100
00000000
00000100
00000000
00000001
00000100
,  // measure 4
00001000
00000000
00001000
00000000
00001000
00000000
00001000
01000000
,  // measure 5
10000000
00000000
10000000
00000000
10000000
00000000
10000000
00010000
,  // measure 6
00100000
00001000
00000000
00100000
00001000
00000000
00100000
00001000
00000000
00000000
00100000
00000000
00001000
00000000
00010000
00000000
,  // measure 7
00000100
00001000
00000000
00000100
00001000
00000000
00000100
00001000
00000000
00000000
00000100
00000000
00001000
00000000
00000010
00000000
,  // measure 8
00000100
00000001
00000000
00000100
00000001
00000000
00000100
00000001
00000000
00000000
00000100
00000000
00000010
00000000
00010000
00000000
,  // measure 9
00011000
00000000
00000000
00010000
00010000
00010000
00000000
00000000
,  // measure 10
00100000
00010000
01000000
00010000
01000000
00001000
01000000
00010000
,  // measure 11
00100000
00001000
00010000
00000100
00001000
00000001
00001000
00000100
,  // measure 12
00010000
00001000
00000010
00000001
00000100
00001000
00000100
00000001
,  // measure 13
00001000
00000100
00000010
00000001
00001000
00000100
00010000
00001000
,  // measure 14
00100000
00000000
00010000
01000000
00100000
10000000
01000000
00010000
,  // measure 15
00100000
00001000
00010000
00000010
00001000
00000001
00001000
00000010
,  // measure 16
00000100
00000001
00001000
00000010
00010000
00001000
01000000
00010000
,  // measure 17
00000000
10000000
00100000
10000000
00010000
00000000
11000000
00000000
,  // measure 18
00010000
00000000
00100000
00000000
00001000
00000000
00010000
00000000
00000010
00000000
00000100
00000000
00000001
00000000
00001000
00000001
,  // measure 19
00001000
00000010
00001000
00000100
00010000
00001000
01000000
00010000
,  // measure 20
10000000
01000000
00100000
00010000
01000000
00100000
10000000
00010000
,  // measure 21
01000000
00001000
00010000
00000100
00001000
00000001
00001000
00000100
,  // measure 22
00010000
00000000
00011000
00000000
00001000
01000000
00010000
10000000
,  // measure 23
00000000
01010000
00000000
00100000
00001000
00010000
00000010
00000100
,  // measure 24
00001001
00000000
00000000
00000000
00000001
00000000
00000100
00000000
00000010
00000000
00000000
00001000
00000000
00000000
00000100
00000000
,  // measure 25
00020200
00000000
00030300
00001000
00011000
00000000
00012000
00000000
,  // measure 26
00100000
00010000
00000100
00023000
,  // measure 27
00000100
00001000
01000000
00032000
,  // measure 28
01000000
00010000
00000100
00023000
,  // measure 29
01000000
00001000
00000010
00032000
,  // measure 30
00000100
01000000
00000100
02003000
,  // measure 31
00010000
03002000
00010000
00003200
,  // measure 32
00000001
00010000
00000001
00020300
,  // measure 33
00032000
01000000
00000100
01003000
,  // measure 34
01010000
00000000
10010000
00000000
01010000
00000000
01000000
00001000
,  // measure 35
00010000
00000000
00010100
00000000
00011000
00000000
00010000
00000010
,  // measure 36
00000100
00000000
00000101
00000000
00001100
00000000
00000010
00001000
,  // measure 37
00000100
00000000
00010100
00000000
00011000
00000000
00001000
01000000
,  // measure 38
00100000
01000000
00100000
01000000
00100000
01000000
00001000
00010000
,  // measure 39
00000010
00000100
00000010
00000100
00000010
00000100
00000010
00010000
,  // measure 40
00001000
01000000
00001000
01000000
00001000
00010000
00001000
00010000
,  // measure 41
00000100
00010000
00000100
00010000
00001000
00010000
00001000
01000000
,  // measure 42
00001000
00000000
00000000
01000000
00010000
01000000
00010000
00000000
00000000
00000000
10000000
00000000
00100000
00000000
01000000
00000000
,  // measure 43
00010000
00000000
00000000
10000000
00010000
10000000
00010000
00000000
00000000
00000000
01000000
00000000
00001000
00000000
00010000
00000000
,  // measure 44
00000100
00000000
00000000
00001000
00000100
00001000
00000100
00000000
00000000
00000000
00001000
00000000
00000001
00000000
00000010
00000000
,  // measure 45
00000100
00001000
00000000
00000100
00010000
00000100
00010000
00000000
00001000
00000000
00100000
00000000
00010000
00000000
01000000
00000000
,  // measure 46
10100000
00000000
10100000
00000000
10010000
00000000
00000000
00000000
00100000
00001000
00100000
00000000
00001000
00000000
00000000
00000000
,  // measure 47
00010100
00000000
00010100
00000000
00001100
00000000
00000000
00000000
00000010
00001000
00000010
00000000
00000100
00000000
00000000
00000000
,  // measure 48
00010100
00000000
00010100
00000000
00011000
00000000
00000000
00000000
00001000
01000000
00001000
00000000
00010000
00000000
00000000
00000000
,  // measure 49
01000000
00000000
00000000
10000000
00010000
10000000
00010000
01000000
00010000
01000000
00010000
00000000
00000000
00000000
00001000
00000000
,  // measure 50
00010000
00000000
00000100
00010000
00000000
00000001
00001000
00000000
00000001
00000100
00000001
00000100
00000001
00000000
00000000
00000000
,  // measure 51
00000100
00000000
00001001
00000000
00000100
00010000
00001000
00000000
,  // measure 52
00101000
00000000
00010010
00000000
00001000
00010000
00000100
00000000
,  // measure 53
00101000
00000000
00010010
00000000
00001000
00010000
00000100
00000000
,  // measure 54
00101000
00000000
00000010
00001000
00000000
00000001
00001000
00000000
,  // measure 55
00001100
00000000
01010000
00000000
11000000
00000000
00100000
20000000
,  // measure 56
00000000
00010000
31000000
00002000
00000000
00010000
00003100
00001000
,  // measure 57
00000001
00001000
00000000
00000001
00001000
00000000
00000010
00000000
00001000
00000000
00000100
00001000
00000000
00001000
00000100
00000000
,  // measure 58
00000010
00010000
00001000
01000000
00200000
00000000
10300000
00010000
,  // measure 59
01010000
00000000
01001000
00000000
01000000
00001000
00010000
00000000
,  // measure 60
00101000
00000000
00010010
00000000
00001000
00000010
00000100
00000000
,  // measure 61
00000101
00000000
00001100
00000000
00000100
00010000
00001000
00000000
,  // measure 62
00011000
00000000
00001000
00101000
00000000
00100000
00110000
00000000
,  // measure 63
00010000
01000000
00000000
00010000
01000000
00000000
00010000
01000000
00000000
00010000
01000000
00000000
00100000
00000000
20000000
00000000
,  // measure 64
00000000
30100000
01000000
00020000
00000000
01030000
00001000
00010000
,  // measure 65
00000100
00010000
00000000
00000100
00001000
00000000
00000100
00010000
00000000
00001000
00010000
00000000
00001000
00000000
01000000
00000000
,  // measure 66
00010000
10000000
00000000
00010000
01000000
00000000
00010000
00000000
01000000
00000000
00001000
00000000
00010000
00000000
00000100
00000000
,  // measure 67
00001000
00000010
00000000
00001000
00000001
00000000
00001000
00000010
00000000
00001000
00000100
00000000
00010000
00000000
00001000
00000000
,  // measure 68
01000000
00010000
00000000
10000000
00010000
00000000
01000000
00010000
00000000
10000000
00010000
00000000
01000000
00000000
00001000
00000000
,  // measure 69
00010000
00000100
00000000
00010000
00001000
00000000
00010000
00000100
00000000
00010000
00001000
00000000
00010000
00000000
00001000
00000000
,  // measure 70
01000000
00001000
00000000
00010000
00001000
00000000
01000000
00001000
00000000
00010000
00001000
00000000
00010000
00000000
00000010
00000000
,  // measure 71
00010000
00001000
00000000
00010000
00000010
00000000
00010000
00001000
00000000
00100000
00001000
00000000
00010000
00000000
00001000
00000000
,  // measure 72
01000000
00010000
00000000
01000000
00100000
00000000
01000000
00010000
00000000
00100000
00010000
00000000
00100000
00000000
00001000
00000000
,  // measure 73
00010000
00001000
00000000
00100000
00010000
00000000
01000000
00100000
00000000
10000000
01000000
00000000
00100000
00000000
00010000
00000000
,  // measure 74
00001000
00000000
00000000
00000100
00000000
00000000
00000010
00000000
00000000
00000001
00000000
00000000
00000100
00000000
00010000
00000000
,  // measure 75
00022000
00000000
00000000
00033000
;
