#TITLE:crew;
#SUBTITLE:-prim version-;
#ARTIST:beatnation records feat. Prim;
#TITLETRANSLIT:;
#SUBTITLETRANSLIT:;
#ARTISTTRANSLIT:;
#GENRE:;
#CREDIT:;
#BANNER:crew -prim version-.png;
#BACKGROUND:crew -prim version--jacket.png;
#LYRICSPATH:;
#CDTITLE:;
#MUSIC:crew -prim version-.ogg;
#OFFSET:-0.027000;
#SAMPLESTART:91.725166;
#SAMPLELENGTH:13.409081;
#SELECTABLE:YES;
#DISPLAYBPM:176.000000;
#BPMS:0.000000=176.000000
,252.000000=193.000000
,253.000000=176.000000
;
#STOPS:267.500000=1.363632
;
#BGCHANGES:;
#KEYSOUNDS:;
#ATTACKS:;

//---------------dance-single - ----------------
#NOTES:
     dance-single:
     :
     Challenge:
     14:
     0.620102,0.762640,0.263759,0.437086,0.301439,576.000000,541.000000,35.000000,58.000000,0.000000,0.000000,0.620102,0.762640,0.263759,0.437086,0.301439,576.000000,541.000000,35.000000,58.000000,0.000000,0.000000:
0000
0000
0000
0000
,
0000
0000
0000
0000
,
0000
0000
0000
0000
,
0000
0000
0000
0000
,
0000
0000
0000
0000
,
0000
0000
0000
0000
,
0000
0000
0000
0000
,
0000
0000
0000
0000
,
0000
0000
0000
0000
,
0000
0000
0000
0000
1000
0000
0001
0200
,
0002
0000
0000
0000
0303
0000
0000
0010
,
1000
0000
0001
0100
0000
0010
0100
0000
,
2002
0000
0000
0000
3003
0000
0000
0001
,
0100
0000
0010
1000
0000
0001
0100
0000
,
2002
0000
0000
0000
3003
0000
0001
2000
,
0000
0000
3001
2000
0000
0000
3001
1000
,
2002
3003
0220
0330
,
1001
0110
1001
0110
,
0010
0010
0010
0010
0010
0000
1001
0000
,
1000
0000
0000
1000
0010
0000
0100
0000
0001
0000
0000
0001
0100
0000
0010
0000
,
1000
0000
0000
1000
0010
0000
0100
0000
0010
0000
0000
0010
0100
0000
0001
0000
,
0100
0000
0000
0100
0001
0000
0100
0000
0010
0000
0000
0010
1000
0000
0010
0000
,
0100
0000
0000
0100
0010
0000
0100
0000
0001
0000
0000
0001
1000
0000
0100
0000
,
1000
0000
0000
1000
0010
0000
0100
0000
0001
0000
0000
0001
0100
0000
0010
0000
,
1000
0000
0000
1000
0001
0000
0010
0000
0001
0000
0000
0001
1000
0000
0010
0000
,
0100
0000
0000
0110
0000
0000
0001
1000
0001
0000
0000
1001
0000
0000
1000
0001
,
1000
0000
0000
0001
0000
0000
0100
0000
0010
0000
0000
0000
0100
0000
0001
0000
,
0100
0001
0100
0001
0100
0001
1000
0010
,
1000
0010
1000
0010
1000
0010
0100
0100
,
0001
0001
1000
1000
0010
0100
0010
0100
,
0000
1001
0000
0001
0010
0100
1000
0100
,
0010
0000
1000
0001
1000
0010
1000
0100
,
1000
0010
1000
1001
0000
0010
0200
0000
,
0301
0001
1000
1000
0010
0100
0010
1001
,
0000
1000
0100
1000
0100
0000
0101
0000
,
0010
0000
0000
0010
0000
0000
1000
0000
0001
0000
0000
0000
1000
0000
0100
0000
,
1000
0000
0000
1000
0000
0000
0001
0000
0100
0000
0000
0000
0010
0000
1000
0000
,
0010
0010
1000
1000
0001
0100
0001
0100
,
0010
0000
0000
0010
0000
0000
0100
0000
0010
0000
1000
0000
0001
0000
1000
0000
,
0010
0000
0000
0010
1000
0000
0000
1000
0010
0000
0100
0000
0010
0000
1000
0000
,
0001
0000
0100
0000
0001
0000
0100
0000
0010
0000
0000
0010
0000
0000
1000
0000
,
0001
0000
0001
0000
0100
0000
0100
0000
0010
0000
0000
0100
0000
0000
0010
0000
,
0100
0000
0100
0010
0100
0000
1001
0000
,
1000
0010
1000
0010
1000
0100
1000
0100
,
0001
0100
0001
0100
0000
0010
1000
0000
,
0010
1000
0010
1000
0010
0100
0010
0100
,
0001
0100
0001
0100
0000
0010
1000
0000
,
0100
1000
0100
1000
0001
1000
0001
1000
,
0001
0010
0001
0010
0001
0100
0010
0100
,
0000
0001
0100
0001
1000
0100
1000
0001
,
0000
1001
0000
0010
0100
0010
0100
0000
,
1000
0100
1000
1000
0001
0100
0001
0001
,
1000
0100
1000
0000
0100
0000
1000
0000
0000
0000
0001
0000
0100
0000
0001
0000
,
0000
0010
0100
0010
1000
0010
0100
0010
,
0100
0010
0100
0000
0010
0000
1000
0000
0000
0000
0001
0000
0010
0000
0100
0000
,
0000
0001
0100
0001
1000
0010
1000
0001
,
0010
0000
0001
0000
1000
0000
0100
0000
1000
0000
0001
0100
0001
0000
0200
0000
,
0000
0310
0001
1000
0001
0100
0010
0110
,
0000
1001
0010
0100
0000
1100
0000
0002
,
0200
0000
0000
0000
0003
0000
0320
2000
,
0000
0030
0100
3020
0000
0130
0002
2000
,
0000
0000
0000
0000
,
0000
3000
0200
0003
0020
0300
2000
0030
,
3001
1000
0001
1000
0010
1000
0010
0100
,
0001
0100
0001
0100
0010
0100
0010
0100
,
0010
1000
0010
0000
1000
0010
1000
0000
0001
1000
0001
0000
1000
0001
1000
0000
,
0001
0000
0000
0000
0000
0000
0000
0000
0000
0000
0000
0000
1000
0000
0000
0000
0000
0000
0000
0000
0000
0000
0000
0000
1001
0000
0000
0000
0000
0000
0000
0000
0000
1001
0000
0000
0000
0000
0000
0000
0000
0000
2002
0000
3003
0000
0000
0000
,
0010
0000
1000
0010
0000
1000
0010
0000
0100
0000
0000
0100
0000
0000
0001
0000
,
2000
0000
3010
0200
0000
0301
2002
0003
,
3001
0000
0100
0001
0000
0100
0001
0000
1000
0000
0000
1000
0000
0000
1000
0000
,
0020
0000
0001
0230
0000
0010
2300
0000
,
3001
0000
0100
0001
0000
0100
0001
0000
0100
0000
0010
0000
1000
0000
2002
0000
,
0000
3003
0010
0220
0000
0330
1000
0002
,
0100
0000
0000
0100
0000
0000
0203
0000
0010
0000
0000
0010
0000
0000
0320
0000
,
1000
0000
0000
1000
0000
0000
1030
0000
1002
0000
0000
0000
0100
0000
0103
0000
,
0001
0000
0100
0001
0000
0100
0001
0000
1000
0000
0010
1000
0000
0010
1000
0000
,
0020
0000
0100
0032
0000
1000
0203
0000
,
0310
0000
1000
0010
0000
1000
0010
0000
1000
0000
0001
1000
0000
0001
1000
0000
,
0002
0000
0100
0023
0000
1000
0230
0000
,
0301
0000
0100
0001
0000
0100
0001
0000
1000
0000
0010
0000
1000
0000
0020
0000
,
0000
0100
0031
0200
0000
0001
1300
0002
,
0100
0000
0000
0100
0000
0000
0203
0000
0010
0000
0000
0010
0000
0000
0310
0000
,
1001
0000
0000
1001
0000
0000
1000
0000
0010
0000
0100
0000
0001
0000
2000
0000
,
0010
0000
0000
0010
0000
0000
3020
0000
0100
0000
0000
0100
0000
0000
0100
0000
,
0230
0000
0000
0001
0000
0000
0001
0000
0302
0000
0000
0010
0000
0000
0013
0000
,
0001
0000
1000
0001
0000
1000
0001
0000
1000
0000
0010
1000
0000
0010
1000
0000
,
0010
0000
0100
0010
0000
0100
0010
0000
1000
0000
0001
1000
0000
0001
1000
0000
,
0101
0000
0000
0100
0000
0000
0100
0000
0010
0000
1000
0010
0000
1000
0010
0000
,
0100
0000
0001
0100
0000
0001
0100
0000
0001
0000
1000
0001
0000
1000
0001
0000
,
1001
0000
0000
1001
0000
0000
1000
0000
1100
0000
0000
1100
0000
0000
0001
0000
,
0100
0001
0100
0001
0100
0000
0020
0000
0130
0000
0000
0100
0000
0000
0220
0000
,
0000
0000
0000
0000
,
0330
0000
0000
0000
;

//---------------dance-double - ----------------
#NOTES:
     dance-double:
     :
     Challenge:
     14:
     0.572733,0.727974,0.143183,0.324046,0.256223,532.000000,513.000000,19.000000,43.000000,0.000000,0.000000,0.572733,0.727974,0.143183,0.324046,0.256223,532.000000,513.000000,19.000000,43.000000,0.000000,0.000000:
// measure 0
00000000
00000000
00000000
00000000
,  // measure 1
00000000
00000000
00000000
00000000
,  // measure 2
00000000
00000000
00000000
00000000
,  // measure 3
00000000
00000000
00000000
00000000
,  // measure 4
00000000
00000000
00000000
00000000
,  // measure 5
00000000
00000000
00000000
00000000
,  // measure 6
00000000
00000000
00000000
00000000
,  // measure 7
00000000
00000000
00000000
00000000
,  // measure 8
00000000
00000000
00000000
00000000
,  // measure 9
00000000
00000000
00000000
00010000
00200000
00000000
00301000
00020000
,  // measure 10
00000100
00000100
00000100
00030100
,  // measure 11
00001000
00000000
00000010
00000100
00000000
00000001
00002000
00000000
,  // measure 12
00000010
00000010
00000010
00003010
,  // measure 13
00000010
00000000
00010000
00001000
00000000
00100000
00020000
00000000
,  // measure 14
01000000
00000000
01000000
00000000
01030000
00000000
00100000
10000000
,  // measure 15
10010000
00000000
00100000
01000000
00000000
00000000
00010000
10000000
,  // measure 16
10010000
01000000
00110000
00001000
,  // measure 17
00010000
00001000
00010000
00000010
00001000
00000100
00000010
00000001
,  // measure 18
00000100
00000001
00000100
00000000
00000001
00000100
00000001
00000000
00000100
00000000
00000000
00000010
00000000
00000000
00010000
00000000
,  // measure 19
00011000
00000000
00000000
00001000
00000000
00000000
00001000
00000000
01000000
00000000
00000000
01000000
00000000
00000000
01000000
00000000
,  // measure 20
00010000
00000000
00000000
00010000
00000000
00000000
00010000
00000000
10000000
00000000
00000000
10000000
00000000
00000000
10000000
00000000
,  // measure 21
00100000
00000000
00000000
00100000
01000000
00000000
00100000
00000000
10000000
00000000
00000000
10000000
00010000
00000000
10000000
00000000
,  // measure 22
00100000
00000000
00000000
00100000
01000000
00000000
00010000
00000000
00100000
00000000
00000000
00100000
00001000
00000000
00010000
00000000
,  // measure 23
00000100
00000000
00000000
00000100
00000000
00000000
00000100
00000000
00001000
00000000
00000000
00001000
00000000
00000000
00001000
00000000
,  // measure 24
00000001
00000000
00000000
00000001
00000000
00000000
00000001
00000000
00000100
00000000
00000000
00000100
00000000
00000000
00000100
00000000
,  // measure 25
00010000
00000000
00000000
00001000
00000000
00000000
01000000
00010000
01000000
00000000
00000000
00100000
00000000
00000000
10000000
00100000
,  // measure 26
10000000
00000000
00000000
01000000
00100000
00000000
10000000
00010000
,  // measure 27
01000000
00010000
00000000
00100000
00001000
00000000
00010000
00000010
,  // measure 28
00000000
00001001
00000000
00000001
00000010
00000100
00001000
00000100
,  // measure 29
00010000
00001000
00100000
00010000
01000000
10000000
01000000
00010000
,  // measure 30
00000000
00000100
00000000
00001000
00000010
00001000
00000100
00000001
,  // measure 31
00000000
00000001
00001000
00000001
00000100
00000001
00000010
00000001
,  // measure 32
00000100
00000001
00001000
00001001
00000000
00000010
00002000
00000000
,  // measure 33
00003100
00010000
00001000
01000000
00010000
00100000
01000000
10010000
,  // measure 34
00000000
10000000
10000000
00010000
00010000
00000000
01000000
00001000
,  // measure 35
00010000
00000000
00000000
00010000
00000000
00000000
00010000
00000000
00000100
00000000
00000000
00000000
00001000
00000000
00000010
00000000
,  // measure 36
00000100
00000000
00000000
00000100
00000000
00000000
00000100
00000000
00000001
00000000
00000000
00000000
00001000
00000000
00000010
00000000
,  // measure 37
00010000
00001000
00010000
00001000
01000000
00010000
01000000
00010000
,  // measure 38
10000000
00000000
00000000
00100000
00000000
00000000
10000000
00000000
01000000
00000000
00100000
00000000
00010000
00000000
00100000
00000000
,  // measure 39
00001000
00000000
00000000
00001000
00010000
00000000
00000000
00010000
00000100
00000000
00001000
00000000
00000010
00000000
00000100
00000000
,  // measure 40
00000000
00000101
00000000
00001001
00000000
00000010
00001000
00000100
,  // measure 41
00010100
00000000
00000000
00010000
00000000
00000000
00010000
00000000
00001000
00000000
00000000
00001000
00000000
00000000
00001000
00000000
,  // measure 42
01001000
00000000
00000000
00100000
01100000
00000000
10010000
00000000
,  // measure 43
10000000
01000000
10000000
01000000
00010000
01000000
00010000
01000000
,  // measure 44
00010000
00100000
00001000
00010000
00000000
00000100
00001000
00000000
,  // measure 45
00000010
00000100
00000010
00000100
00000010
00001000
00000010
00001000
,  // measure 46
00000001
00000100
00000010
00010000
00000000
00001000
00100000
00000000
,  // measure 47
00010000
01000000
00010000
01000000
00100000
10000000
00100000
10000000
,  // measure 48
00010000
01000000
00010000
00000000
01000000
00001000
00010000
00000200
,  // measure 49
00000000
00000000
00001300
00000010
00000100
00000001
00001000
00001001
,  // measure 50
00000000
00000110
00000000
00000001
00000100
00001000
00000100
00000000
,  // measure 51
00000010
00001000
00000100
00000000
00000100
00010000
00001000
00000000
,  // measure 52
00001000
00100000
00010000
01000000
00000000
00100000
01000000
00000000
,  // measure 53
00100000
10000000
01000000
00000000
01000000
00001000
00010000
00000000
,  // measure 54
00010000
00000010
00000100
00000100
00000000
00000001
00001001
00000000
,  // measure 55
00000001
00000100
00000001
00000100
00001000
00000100
00001000
00000100
,  // measure 56
00000001
00000100
00001000
00000100
00010000
00001000
01000000
00020000
,  // measure 57
00000000
00000000
10030000
00100000
01000000
00010000
00100000
00001000
,  // measure 58
00000000
00010000
00010100
00010100
00000000
00001000
00000000
00000020
,  // measure 59
00000200
00000000
00000000
00000000
00000030
00000000
00000001
00000002
,  // measure 60
00000000
00000300
00001000
00002000
00000003
00000100
00013000
00002000
,  // measure 61
00000000
01000000
00000000
01000000
00000000
01000000
00000000
01000000
,  // measure 62
00000000
01003000
00200000
00000000
20300000
00000000
30020000
00000000
,  // measure 63
01030000
00100000
10000000
00100000
01000000
00100000
10000000
00010000
,  // measure 64
01000000
00001000
01000000
00001000
00010000
00000100
00010000
00000100
,  // measure 65
00001000
00000010
00001000
00000000
00000010
00001000
00000010
00000000
00001000
00000001
00001000
00000000
00000001
00001000
00000001
00000000
,  // measure 66
00000010
00000000
00000000
00000000
00000000
00000000
00000100
00000000
00000000
00000000
00000000
00000000
00001000
00000000
00000000
00000000
00000000
00000000
00010000
00000000
00000000
00000000
00000000
00000000
00001000
00000000
00000000
00000000
00000000
00000000
00000000
00000000
00000000
00000100
00000000
00000000
00000000
00000000
00000000
00000000
00000000
00000000
00022000
00000000
00033000
00000000
00000000
00000000
,  // measure 67
01000000
00000000
00000000
01000000
00000000
00000000
01000000
00000000
00100000
00000000
00000000
00100000
00000000
00000000
00100000
00000000
,  // measure 68
20000000
00000000
30010000
02000000
00000000
03100000
20000000
00000000
,  // measure 69
01000000
00000000
00000000
01000000
00000000
00000000
32000000
00000000
00100000
00000000
00000000
00100000
00000000
00000000
00100000
00000000
,  // measure 70
03020000
00000000
01000000
00032000
00000000
00010000
00003200
00000000
,  // measure 71
00001000
00000000
00000000
00001000
00000000
00000000
00001000
00000000
00001300
00000000
00000000
00000000
00000001
00000000
00000200
00000000
,  // measure 72
00000000
00000310
00001000
00000200
00000000
00000310
00010000
00002000
,  // measure 73
00100000
00000000
00000000
00100000
00000000
00000000
00100000
00000000
00010000
00000000
00000000
00010000
00000000
00000000
00010000
00000000
,  // measure 74
01000000
00000000
00000000
01000000
00000000
00000000
01003000
00000000
00020000
00000000
00000000
00000000
00130000
00000000
02000000
00000000
,  // measure 75
10000000
00000000
00000000
10000000
00000000
00000000
10000000
00000000
00100000
00000000
00000000
00100000
00000000
00000000
00100000
00000000
,  // measure 76
03002000
00000000
00010000
00003020
00000000
00001000
00000032
00000000
,  // measure 77
00000100
00000000
00000000
00000100
00000000
00000000
00000100
00000000
00001000
00000000
00000000
00001000
00000000
00000000
00001000
00000000
,  // measure 78
00000203
00000000
00010000
00002300
00000000
01000000
00023000
00000000
,  // measure 79
10000000
00000000
00000000
10000000
00000000
00000000
10000000
00000000
01030000
00000000
00000000
00000000
00100000
00000000
02000000
00000000
,  // measure 80
00000000
00000000
00001000
03020000
00000000
00000100
00031000
00000002
,  // measure 81
00000100
00000000
00000000
00000100
00000000
00000000
00000100
00000000
00001000
00000000
00000000
00001000
00000000
00000000
00002003
00000000
,  // measure 82
00000100
00000000
00000000
00000100
00000000
00000000
00003100
00000000
00010000
00000000
00001000
00000000
01000000
00000000
00002000
00000000
,  // measure 83
00100000
00000000
00000000
00100000
00000000
00000000
00000000
00000000
00010000
00000000
00000000
00010000
00000000
00000000
00000000
00000000
,  // measure 84
01000000
00000000
00000000
01000000
00000000
00000000
00000000
00000000
00000100
00000000
00000000
00003100
00000000
00000000
00000200
00000000
,  // measure 85
00000001
00000000
00000000
00000001
00000000
00000000
00001000
00000000
00010000
00000000
00000000
00010000
00000000
00000000
00001000
00000000
,  // measure 86
00000001
00000000
00000000
00000001
00000000
00000000
00002300
00000000
00000100
00000000
00000000
00000100
00000000
00000000
00013000
00000000
,  // measure 87
00001000
00000000
01000000
00001000
00000000
01000000
00001000
00000000
01000000
00000000
00010000
01000000
00000000
00010000
01000000
00000000
,  // measure 88
00010000
00000000
10000000
00100000
00000000
10000000
00100000
00000000
10000000
00000000
00100000
01000000
00000000
00100000
01000000
00000000
,  // measure 89
00001000
00000000
00000000
01000000
00000000
00000000
00010000
00000000
01000000
00000000
00000000
00001000
00000000
00000000
00010000
00000000
,  // measure 90
00001000
00010000
00001000
00010000
00001000
00000000
01000000
00000000
00010000
00000000
00000000
01000000
00000000
00000000
00002000
00000000
,  // measure 91
00000000
00000000
00000000
00000000
,  // measure 92
00003000
00000000
00000000
00000000
;
