#TITLE:crew;
#SUBTITLE:;
#ARTIST:beatnation records feat. 星野奏子;
#TITLETRANSLIT:;
#SUBTITLETRANSLIT:;
#ARTISTTRANSLIT:beatnation records feat. Kanoko Hoshino;
#GENRE:;
#CREDIT:;
#MENUCOLOR:;
#METERTYPE:DDR;
#BANNER:crew -original mix-.png;
#BACKGROUND:crew -original mix--jacket.png;
#LYRICSPATH:;
#CDTITLE:;
#MUSIC:crew -original mix-.ogg;
#OFFSET:-2.500;
#SAMPLESTART:94.275;
#SAMPLELENGTH:15.000;
#SELECTABLE:YES;
#LISTSORT:;
#DISPLAYBPM:150.000;
#BPMS:0.000=150.000;
#STOPS:;
#BGCHANGES:;
#ATTACKS:;

//---------------dance-double - ----------------
#NOTES:
     dance-double:
     :
     Easy:
     4:
     0.180,0.237,0.029,0.300,0.000:
00000000
00000000
00000000
00000000
,
00000000
00000000
00000000
00000000
,
00000000
00000000
00000000
00000000
,
00000000
00000000
00000000
00000000
,
00000000
00000000
00000000
00000000
,
00000000
00000000
00000000
00000000
,
00000000
00000000
00000000
00000000
,
00000000
00000000
00000000
00000000
,
00000000
00000000
00000000
00000000
,
00020000
00000000
00000000
00000000
00000000
00000000
00031000
00000200
,
00000000
00000000
00000000
00000000
00000000
00000300
00000010
00000002
,
00000000
00000000
00000000
00000003
,
00000020
00000030
00000200
00000300
,
00002000
00000000
00000000
00000000
00000000
00000000
00013000
00200000
,
00000000
00300000
00010000
02000000
00000000
03000000
00100000
20000000
,
00000000
00000000
00000000
30000000
,
00020000
00030000
00200000
00300000
,
00000000
00001000
00000000
00000010
,
00000000
00001000
00000000
00000010
,
00000000
00010000
00000000
00001000
,
00000000
00010000
00000000
00001000
,
00000000
01000000
00000000
10000000
,
00000000
01000000
00000000
10000000
,
00000000
00100000
00000000
00001000
,
00001000
00000000
00010000
00010000
,
00000000
00001000
00000000
00010000
,
00000000
00001000
00000000
00010000
,
00000000
00000010
00000000
00000100
,
00000000
00000010
00000000
00000100
,
00000000
00000001
00000000
00000100
,
00000000
00000001
00000000
00000100
,
00000100
00000000
00000010
00000000
,
00001000
00000000
00000100
00000000
,
00000000
00010000
00010000
00000000
,
00001000
00001000
00000000
00000000
,
00000000
00100000
00100000
00000000
,
01000000
01000000
00000000
00000000
,
00000000
10000000
10000000
00000000
,
00100000
00000000
00001000
00000000
,
00010000
00000000
00001000
00000000
,
00000100
00000000
00000010
00000000
,
00000000
00000001
00000001
00000000
,
00001000
00001000
00000000
00000000
,
00000000
00000100
00000100
00000000
,
00010000
00010000
00000000
00000000
,
00000000
00001000
00001000
00000000
,
00100000
00100000
00000000
00000000
,
00010000
00000000
00100000
00000000
,
01000000
00000000
10000000
00000000
,
20020000
00000000
30030000
00000000
,
02000000
00000000
03000000
00000000
,
00002000
00000000
00003000
00000000
,
00020000
00000000
00030000
00000000
,
00002000
00000000
00003000
00000000
,
00000200
00000000
00000300
00000000
,
00000020
00000000
00000030
00000000
,
00000002
00000000
00000000
00000000
,
00000003
00000000
00000010
00001000
,
00002002
00000000
00003003
00000000
,
00000010
00000000
00000000
00001000
00000000
00000000
00000200
00000000
,
00000000
00000000
00000300
00000000
,
00010000
00000000
00000000
00001000
00000000
00000000
00200000
00000000
,
00000000
00000000
00000000
00000000
00300000
00000000
10000000
00010000
,
00000000
00000000
10000000
00010000
00000000
00000000
10000000
00020000
,
00000000
00000000
00030000
00000000
,
00000000
00000000
01000000
00001000
,
00020000
00000000
00030000
00000000
,
00010000
00000000
00000000
00001000
00000000
00000000
00000200
00000000
,
00000000
00000300
00000000
00000000
,
00000010
00000000
00000000
00000100
00000000
00000000
00020000
00000000
,
00000000
00000000
00030000
00000000
00000000
00000000
00001000
00010000
,
00000000
00000000
00001000
00010000
00000000
00000000
00001000
00020000
,
00000000
00000000
00030000
00000000
,
02200000
00000000
03300000
00000000
,
20020000
00000000
30030000
00000000
,
02000000
00000000
03000000
00000000
,
00002000
00000000
00003000
00000000
,
00020000
00000000
00030200
00000000
,
00002300
00000000
00003000
00000000
,
00000002
00000000
00000203
00000000
,
00020300
00000000
00000000
00000000
,
00002000
00000000
00000000
00000000
,
00000000
00000000
00000000
00000000
,
00033000
00000000
00000000
00000000
;

//---------------dance-single - ----------------
#NOTES:
     dance-single:
     :
     Easy:
     3:
     0.159,0.208,0.036,0.193,0.000:
0000
0000
0000
0000
,
0000
0000
0000
0000
,
0000
0000
0000
0000
,
0000
0000
0000
0000
,
0000
0000
0000
0000
,
0000
0000
0000
0000
,
0000
0000
0000
0000
,
0000
0000
0000
0000
,
0000
0000
0000
0000
,
0010
0000
0000
0000
,
0001
0000
0000
0000
,
0100
0000
0000
0000
,
1000
0000
0100
0000
,
0010
0000
0000
0000
,
1000
0000
0000
0000
,
0100
0000
0000
0000
,
0002
0000
0003
0000
,
0000
0010
0000
0010
,
0000
0100
0000
0100
,
0000
1000
0000
0001
,
0000
1000
0000
0001
,
0000
0010
0000
0010
,
0000
0100
0000
0100
,
0000
1000
0001
1000
,
0001
0000
1001
0000
,
0000
0010
0000
0010
,
0000
0100
0000
0100
,
0000
1000
0000
0001
,
0000
1000
0000
0001
,
0000
0010
0000
0010
,
0000
0100
0000
0100
,
1000
0000
0001
1000
,
0001
0000
0010
0010
,
0000
1000
1000
0000
,
0001
0001
0000
0000
,
0000
1000
1000
0000
,
0001
0001
0000
0000
,
0000
0100
0100
0000
,
0010
0000
0010
0000
,
1000
0000
1000
0000
,
0001
0000
0001
0000
,
0000
0001
0001
0000
,
1000
1000
0000
0000
,
0000
0001
0001
0000
,
1000
1000
0000
0000
,
0000
0001
0001
0000
,
1000
0000
0100
0000
,
0001
0000
0010
0000
,
0100
0000
1000
0000
,
2002
0000
0000
0000
,
3003
0000
0000
0000
,
0020
0000
0030
0000
,
0002
0000
0003
0000
,
2000
0000
3000
0000
,
0200
0000
0300
0000
,
0002
0000
0003
0000
,
0020
0000
0000
0000
,
0030
0000
0010
1000
,
1001
0000
0000
0000
,
1000
0000
0000
1000
0000
0000
2000
0000
,
0000
0000
3000
0000
,
0001
0000
0000
0001
0000
0000
0002
0000
,
0000
0000
0000
0000
0003
0000
0010
0100
,
0000
0000
0010
0100
0000
0000
0010
0200
,
0000
0000
0000
0300
,
0000
0000
1000
0001
,
2002
0000
3003
0000
,
0010
0000
0000
0100
0000
0000
2000
0000
,
0000
0000
3000
0000
,
0001
0000
0000
0100
0000
0000
0020
0000
,
0000
0000
0000
0000
0030
0000
1000
0001
,
0000
0000
1000
0001
0000
0000
1000
0002
,
0000
0000
0000
0003
,
0000
0000
0010
0100
,
2002
0000
0000
0000
,
3003
0000
0000
0000
,
2000
0000
0000
0000
,
3002
0000
0023
0000
,
0230
0000
0000
0000
,
0320
0000
0230
0000
,
2300
0000
0000
0000
,
0002
0000
0000
0000
,
0000
0000
0000
0000
,
3003
0000
0000
0000
;

//---------------dance-single - ----------------
#NOTES:
     dance-single:
     :
     Beginner:
     1:
     0.077,0.119,0.007,0.007,0.000:
0000
0000
0000
0000
,
0000
0000
0000
0000
,
0000
0000
0000
0000
,
0000
0000
0000
0000
,
0000
0000
0000
0000
,
0000
0000
0000
0000
,
0000
0000
0000
0000
,
0000
0000
0000
0000
,
0000
0000
0000
0000
,
0010
0000
0000
0000
,
0010
0000
0000
0000
,
0100
0000
0000
0000
,
0100
0000
0000
0000
,
1000
0000
0000
0000
,
0001
0000
0000
0000
,
1000
0000
0000
0000
,
0001
0000
0000
0000
,
0010
0000
0000
0000
,
0010
0000
0000
0000
,
0100
0000
0000
0000
,
0100
0000
0000
0000
,
1000
0000
0000
0000
,
0001
0000
0000
0000
,
1000
0000
0000
0000
,
0001
0000
0000
0000
,
0010
0000
0000
0000
,
0010
0000
0000
0000
,
0100
0000
0000
0000
,
0100
0000
0000
0000
,
1000
0000
0000
0000
,
0001
0000
0000
0000
,
1000
0000
0000
0000
,
0001
0000
0000
0000
,
0010
0000
0000
0000
,
1000
0000
0000
0000
,
0100
0000
0000
0000
,
0001
0000
0000
0000
,
0010
0000
0000
0000
,
1000
0000
0000
0000
,
0100
0000
0000
0000
,
0001
0000
0000
0000
,
0010
0000
0000
0000
,
0001
0000
0000
0000
,
0100
0000
0000
0000
,
1000
0000
0000
0000
,
0010
0000
0000
0000
,
0001
0000
0000
0000
,
0100
0000
0000
0000
,
1000
0000
0000
0000
,
1001
0000
0000
0000
,
0000
0000
0000
0000
,
0000
0000
0000
0000
,
0000
0000
0000
0000
,
0010
0000
0000
0000
,
0001
0000
0000
0000
,
0100
0000
0000
0000
,
1000
0000
0000
0000
,
0000
0000
0000
0000
,
0010
0000
0000
0000
,
0001
0000
0001
0000
,
0001
0000
0000
0000
,
1000
0000
1000
0000
,
1000
0000
0000
0000
,
0100
0000
0100
0000
,
0100
0000
0000
0000
,
0000
0000
0000
0000
,
0010
0000
0000
0000
,
0100
0000
0100
0000
,
0100
0000
0000
0000
,
1000
0000
1000
0000
,
1000
0000
0000
0000
,
0001
0000
0001
0000
,
0001
0000
0000
0000
,
0000
0000
0010
0010
,
0010
0000
0000
0000
,
0000
0000
0000
0000
,
0000
0000
0000
0000
,
0000
0000
0000
0000
,
0001
0000
0000
0000
,
1000
0000
1000
0000
,
1000
0000
0000
0000
,
0020
0000
0000
0000
,
0000
0000
0000
0000
,
0030
0000
0000
0000
;

//---------------dance-double - ----------------
#NOTES:
     dance-double:
     :
     Medium:
     7:
     0.290,0.356,0.179,0.300,0.000: // measure 1
00000000
00000000
00000000
00000000
,  // measure 2
00000000
00000000
00000000
00000000
,  // measure 3
00000000
00000000
00000000
00000000
,  // measure 4
00000000
00000000
00000000
00000000
,  // measure 5
00000000
00000000
00000000
00000000
,  // measure 6
00000000
00000000
00000000
00000000
,  // measure 7
00000000
00000000
00000000
00000000
,  // measure 8
00000000
00000000
00000000
00000000
,  // measure 9
00000000
00000000
00000000
00000000
,  // measure 10
00012000
00000000
00000000
00000000
00003000
00000000
00001100
00000200
,  // measure 11
00000000
00000000
00000000
00000000
00000300
00000001
00000100
00000002
,  // measure 12
00000000
00000000
00000000
00000003
,  // measure 13
00001010
00001000
00010100
00010000
,  // measure 14
02010000
00000000
00000000
00000000
03000000
00000000
01100000
00200000
,  // measure 15
00000000
00000000
10300000
20000000
00000000
00000000
31000000
02000000
,  // measure 16
00000000
00100000
00000000
03100000
,  // measure 17
20020000
30030000
01000000
00001000
,  // measure 18
00001000
00100000
00000000
00100000
00001000
00000000
00001000
00010000
,  // measure 19
00000000
00011000
00000000
00010000
00000100
00000000
00000100
00000000
,  // measure 20
00001000
00000000
00000010
00000000
00000001
00000000
00001000
00000001
,  // measure 21
00000000
00000000
00000000
00000010
00000100
00000000
00001001
00000000
,  // measure 22
00000000
00000010
00001000
00000100
,  // measure 23
00010000
00001000
00000000
00011000
00000000
00000000
00000000
00000000
,  // measure 24
01010000
00000000
01000000
00000000
10000000
00000000
10000000
01000000
,  // measure 25
00000000
00100000
00010000
00011000
,  // measure 26
00010000
00000100
00001000
00000100
,  // measure 27
00001000
00000010
00001000
00000001
,  // measure 28
00000100
00000000
00000010
00000000
00001000
00000000
00000010
00001000
,  // measure 29
00000000
00000000
00000100
00010100
,  // measure 30
00000000
00000000
00010000
00000000
00001000
00000000
00100000
00010000
,  // measure 31
00000000
10000000
00000000
01000000
00000000
00000000
00000000
00000000
,  // measure 32
10010000
00000000
00000000
00000000
00100000
00000000
00000000
00001000
,  // measure 33
00010000
00000000
00000100
00000010
,  // measure 34
00000000
00000001
00000000
00000100
00000000
00001000
00000000
00000100
,  // measure 35
00000000
00000001
00001000
00000001
00000000
00000000
00000000
00000000
,  // measure 36
00000000
00000100
00000000
00010000
00000000
00001000
00000000
00010000
,  // measure 37
00000000
00001000
00100000
00001000
00000000
00000000
00000000
00000000
,  // measure 38
00000000
10000000
00000000
01000000
00000000
00010000
00000000
01000000
,  // measure 39
00000000
10000000
00000000
00100000
01000000
00000000
01000000
00100000
,  // measure 40
00000000
00000000
10000000
00010000
00000000
00000000
10000000
00010000
,  // measure 41
00000000
01000000
00001000
00011000
,  // measure 42
00000000
00010000
00000100
00010000
,  // measure 43
00000100
00000000
00001000
00000100
00000000
00000000
00000000
00000000
,  // measure 44
00000000
00000010
00000001
00000100
,  // measure 45
00001000
00000000
00000100
00000100
00000000
00000000
00000000
00000000
,  // measure 46
00000000
00010000
00001000
01000000
,  // measure 47
00100000
00000000
10000000
00000000
01000000
00000000
00100000
00001000
,  // measure 48
00000000
00000000
00010000
00001000
00000000
00000000
00010000
00000100
,  // measure 49
00000000
00000000
00001000
00000010
00000000
00000100
00000000
00002000
,  // measure 50
00000002
00000000
00000000
00000000
00003000
00000000
00000203
00000020
,  // measure 51
00000000
00000000
00000000
00000000
00000000
00000300
00002030
00000200
,  // measure 52
00000000
00000000
00000000
00000000
00000000
00000000
00000000
00003000
,  // measure 53
00020000
00000300
00002000
00030000
,  // measure 54
00203000
00000000
00000000
00000000
00310000
00000000
00010000
01000000
,  // measure 55
00000000
00000000
01000000
10000000
00000000
00000000
10000000
00200000
,  // measure 56
00000000
00000000
01300000
00000000
,  // measure 57
20020000
00000000
00000000
00000000
,  // measure 58
30030000
00000000
00000000
00001000
00010000
00000000
00001000
00020000
,  // measure 59
00000000
00000100
00000000
00030100
,  // measure 60
00001000
00000000
00000000
00000110
00000000
00000000
00001002
00000000
,  // measure 61
00000000
00000100
00000000
00000103
,  // measure 62
00000100
00000000
00000000
00001000
00000000
00000000
00021000
00000000
,  // measure 63
00000000
00000000
00031000
00000000
00000000
00000000
00001000
00200000
,  // measure 64
00000000
00000000
00310000
02000000
00000000
00000000
03100000
20000000
,  // measure 65
00000000
01000000
00000000
31000000
,  // measure 66
00000000
00000000
00100000
00000000
10000000
00000000
00010000
00200000
,  // measure 67
00000000
00001000
00000000
00301000
,  // measure 68
00010000
00000000
00000000
00001100
00000000
00000000
00002100
00000000
,  // measure 69
00000000
00000010
00000000
00003010
,  // measure 70
00000001
00000000
00000000
00000110
00000000
00000000
00001200
00000000
,  // measure 71
00000000
00000000
00010000
00000000
00000000
00000000
00010300
00002000
,  // measure 72
00000000
00000000
00103000
00020000
00000000
00000000
01030000
00200000
,  // measure 73
00000000
00001000
00000000
00302000
,  // measure 74
00013000
00000000
00000000
00000000
00010000
00001000
00010000
00002000
,  // measure 75
00020000
00000000
00000000
00003000
,  // measure 76
00000200
00000000
00000000
00030000
,  // measure 77
00002000
00000000
00000000
00000300
,  // measure 78
00003020
00000000
00000230
00000000
,  // measure 79
00000301
00000000
00000000
00000000
,  // measure 80
00001100
00000000
00110000
00000000
,  // measure 81
00002000
00000000
00000000
00000000
,  // measure 82
00020000
00000000
00000000
00000000
,  // measure 83
00000000
00000000
00000000
00000000
,  // measure 84
00033000
00000000
00000000
00000000
;

//---------------dance-single - ----------------
#NOTES:
     dance-single:
     :
     Medium:
     6:
     0.247,0.327,0.150,0.215,0.000:
0000
0000
0000
0000
,
0000
0000
0000
0000
,
0000
0000
0000
0000
,
0000
0000
0000
0000
,
0000
0000
0000
0000
,
0000
0000
0000
0000
,
0000
0000
0000
0000
,
0000
0000
0000
0000
,
0000
0000
0000
0000
,
1001
0000
0000
0000
0000
0000
0001
0100
,
0000
0000
0000
0000
0000
0000
1000
0100
,
0000
0000
0000
0000
,
0010
0000
0001
0000
,
0100
0000
0000
0000
0000
0000
0001
1000
,
0000
0000
0001
1000
0000
0000
0010
0100
,
0000
0000
0000
0000
,
1001
0000
1000
0001
,
0100
0100
0000
0000
0001
0000
1000
1000
,
0000
0100
0000
0000
1000
0000
0010
0000
,
0100
0000
0001
0000
0100
0000
0010
0100
,
0000
0000
0001
1000
,
0000
0100
0100
0100
,
0001
0010
0000
1001
0000
0000
0000
0000
,
0110
0000
0100
0000
1000
0001
0000
1001
,
0000
0000
0010
1000
,
1100
0000
0000
0000
0010
0000
0000
0001
,
0000
0101
0000
0000
0010
0000
1000
0000
,
0100
0000
0100
0000
0010
0000
0001
0100
,
0000
0000
0010
1001
,
0000
0000
0100
0000
0010
0000
0000
1000
,
0000
0001
0000
1001
0000
0000
0000
0000
,
0110
0000
0000
0000
1000
0000
0000
0001
,
1000
0000
0010
0110
,
0000
1000
0100
0001
,
0100
0000
1000
0001
0000
0000
0000
0000
,
0000
0001
0100
1000
,
0100
0000
0001
1000
0000
0000
0000
0000
,
0000
0001
0010
1000
,
0100
0000
0010
0000
0001
0000
0001
0100
,
0000
0000
0100
0010
0000
0000
0010
1000
,
0000
0100
0010
1001
,
0000
1000
0100
0010
,
0001
0000
1000
0001
0000
0000
0000
0000
,
0000
0001
0010
0100
,
1000
0000
0001
1000
0000
0000
0000
0000
,
0000
0010
0001
0100
,
1000
0000
0100
0000
0001
0000
0100
0001
,
0000
0000
1000
0000
0010
0000
0100
0010
,
0000
0000
0001
1000
0000
0010
0000
0200
,
0020
0000
0000
0330
,
2000
0000
3001
0000
,
0020
0000
0130
0000
,
0002
0000
0203
0000
,
2300
0000
3010
0000
,
0200
0000
0302
0000
,
2003
0000
3020
0000
,
0200
0000
0000
0000
,
0330
0000
0000
0001
1000
0000
0001
2000
,
0000
0001
0000
3001
,
0100
0000
0000
0110
0000
0000
2001
0000
,
0000
0001
0000
3001
,
0010
0000
0000
0110
0000
0000
1002
0000
,
0000
0000
1000
0000
0000
0000
1003
1000
,
0000
0000
0001
0001
0000
0000
0100
0100
,
0000
0010
0000
0010
,
0000
0000
0010
0000
1000
0000
0200
0020
,
0000
0000
0330
0000
,
0001
0000
0000
1001
0000
0000
0210
0000
,
0000
0001
0000
0301
,
0100
0000
0000
1001
0000
0000
0120
0000
,
0000
0000
1000
0000
0000
0000
1030
1000
,
0000
0000
0001
0001
0000
0000
0200
0020
,
0000
0000
0000
0000
,
0330
0000
0000
0000
0001
1000
0001
2000
,
0000
0000
0000
0000
,
0000
0000
0000
0000
,
3000
0000
0000
0000
,
0020
0000
0230
0000
,
0302
0000
0000
0000
,
2003
0000
3200
0000
,
0320
0000
0030
0000
,
2002
0000
0000
0000
,
0000
0000
0000
0000
,
3003
0000
0000
0000
;

//---------------dance-single - ----------------
#NOTES:
     dance-single:
     :
     Hard:
     10:
     0.431,0.445,0.129,0.401,0.004:
0000
0000
0000
0000
,
0000
0000
0000
0000
,
0000
0000
0000
0000
,
0000
0000
0000
0000
,
0000
0000
0000
0000
,
0000
0000
0000
0000
,
0000
0000
0000
0000
,
0000
0000
0000
0000
,
0000
0000
0000
0000
,
2001
0000
0100
0000
0000
0000
3001
0200
,
0000
0000
0001
0000
0000
0000
0301
0020
,
0000
0001
0000
0032
,
2003
0000
0000
0020
3000
0000
0130
0000
,
0002
0000
1000
0000
0000
0000
1003
0020
,
0000
0000
1030
0200
0000
1300
0010
0200
,
0000
0001
0000
0301
,
1001
0000
0000
0010
0100
0000
0001
1000
,
0000
0001
0000
1000
0100
0000
1000
0100
,
0000
0010
0000
0001
0100
0000
0001
0000
,
1000
0000
1000
0000
0001
0000
0001
2000
,
0000
0000
3000
0000
0001
0100
0001
0100
,
0000
0000
1000
0001
1000
0001
1000
0100
,
1000
0100
0010
0001
0000
0000
1000
0001
,
0100
0001
1000
0001
0010
0100
1000
0001
,
0000
1000
0010
0100
0001
0100
0010
1000
,
0100
0100
0000
0010
0001
0100
0001
0020
,
0000
0130
0000
1000
0100
1000
0001
1000
,
0100
1000
0010
0010
0100
0001
1000
0002
,
0000
0000
0003
1000
0010
0100
0001
1000
,
0000
0000
0001
0010
0001
1000
0100
1000
,
0010
0100
0001
1000
0000
0000
0100
0010
,
0001
0000
0000
0000
1000
0000
0100
0000
0010
0000
0000
0001
0000
0000
1000
0000
,
0001
0000
0010
0100
1001
0000
0110
0000
,
0000
1000
0100
0001
0100
0001
0100
1000
,
0001
0010
0100
1000
0000
0001
1000
0001
,
0000
0001
0010
0100
0010
0100
0010
0001
,
0010
0100
1000
0001
0000
1000
0001
1000
,
0000
0010
1000
0100
1000
0010
1000
0100
,
1000
0100
0010
0001
0100
0010
1000
0100
,
0000
0001
0100
0001
0100
1000
0100
1000
,
0000
1000
0000
0010
0100
0010
1001
0000
,
0000
1000
1100
0000
0001
0100
0101
0000
,
0010
0100
1000
0001
0000
1000
0001
1000
,
0000
0010
0110
0000
1000
0100
1100
0000
,
0001
0010
0100
1000
0000
0010
0110
0000
,
0000
1000
0100
1000
0001
0100
0001
1000
,
0100
0010
0001
1000
0010
0100
0001
2000
,
0000
3001
0010
0100
1000
0001
0100
0000
,
0000
0010
0100
2000
0000
3002
0000
0203
,
0020
0000
0000
0000
0300
0000
2030
0200
,
0000
0000
0000
0000
3300
1000
0020
0200
,
0000
0000
0330
0000
,
1002
0000
0000
0203
0000
0000
0320
0000
,
2030
0000
0000
0000
3100
0010
0100
0020
,
0000
1030
0100
2000
0000
3001
0100
0002
,
1000
0000
0100
0000
,
0020
0000
0000
0000
,
0033
0000
0000
0100
0110
0000
1000
0002
,
0000
0100
0000
0100
0000
0103
0000
1000
,
0010
0100
0001
0100
0000
0010
0200
0001
,
0000
0001
0000
0001
0000
0301
0000
1000
,
0010
0100
0001
2000
0000
3001
0200
0001
,
0000
0001
0000
0301
0000
0001
0010
0200
,
0000
0301
0010
2000
0000
3001
0100
2000
,
0000
0010
0000
0010
0000
3020
0000
0230
,
0000
0001
0000
0301
0101
0000
1000
1100
,
0000
0010
0100
0010
0000
1000
0100
1000
,
0002
0000
0103
0020
0000
1030
0200
1000
,
0000
1000
0000
1000
0000
1300
0000
0010
,
0200
0000
0301
0010
0000
1000
0100
0002
,
0000
0100
0000
0103
0000
0010
0100
1001
,
0000
0100
0010
1001
0000
0001
0100
1002
,
0000
0100
0000
0100
0000
0100
0000
0103
,
0101
0000
0000
1000
0100
0010
0001
2000
,
0002
0000
0000
3000
,
0200
0000
0000
0003
,
0020
0000
0000
0300
,
2000
0030
0200
3000
,
0002
0000
0000
0300
,
0020
0003
0200
0030
,
2000
0000
0300
0000
,
0002
0000
0000
0000
,
0000
0000
0000
0000
,
3003
0000
0000
0000
;

//---------------dance-double - ----------------
#NOTES:
     dance-double:
     :
     Hard:
     10:
     0.416,0.475,0.086,0.429,0.004: // measure 1
00000000
00000000
00000000
00000000
,  // measure 2
00000000
00000000
00000000
00000000
,  // measure 3
00000000
00000000
00000000
00000000
,  // measure 4
00000000
00000000
00000000
00000000
,  // measure 5
00000000
00000000
00000000
00000000
,  // measure 6
00000000
00000000
00000000
00000000
,  // measure 7
00000000
00000000
00000000
00000000
,  // measure 8
00000000
00000000
00000000
00000000
,  // measure 9
00000000
00000000
00000000
00000000
,  // measure 10
02000000
00000000
00010000
00000000
00000000
00000000
03010000
00200000
,  // measure 11
00000000
00000000
00001000
00000000
00000000
00301000
00010000
00000020
,  // measure 12
00000000
00001000
00000000
00001030
,  // measure 13
00000002
00000000
00000000
00000203
00000000
00000000
00000310
00000000
,  // measure 14
00000002
00000000
00000100
00000000
00000000
00000000
00000103
00000020
,  // measure 15
00000000
00000000
00001030
00000200
00000000
00000000
00010300
00002000
,  // measure 16
00000000
00010000
00000000
00023000
,  // measure 17
00031000
00000000
00000000
00001000
00100000
00000000
00001000
00100000
,  // measure 18
00000000
00010000
00000000
01000000
00100000
00000000
01000000
00100000
,  // measure 19
00000000
01000000
00000000
10000000
01000000
00000000
00100000
00010000
,  // measure 20
00000000
00100000
00001000
00000000
00010000
00000100
00010000
00000100
,  // measure 21
00000000
00000000
00000000
00001000
00000010
00000000
00000100
00000001
,  // measure 22
00000000
00000000
00000001
00001000
00000001
00000100
00000001
00000010
,  // measure 23
00000001
00000100
00000010
00002000
00000000
00000000
00003100
00000000
,  // measure 24
00000100
00010000
00000100
00010000
00001000
00010000
00001000
00010000
,  // measure 25
00000000
00001000
00000000
00100000
00010000
00000000
10000000
01000000
,  // measure 26
00000000
10010000
00000000
10000000
01000000
00000000
00100000
00001000
,  // measure 27
00000000
00011000
00000000
00010000
00000100
00000000
00001000
00000000
,  // measure 28
00000010
00000100
00000010
00000100
00000001
00001000
00000001
00002000
,  // measure 29
00000000
00000000
00003010
00000000
00000100
00010000
00000100
00010000
,  // measure 30
00000000
00000000
00001000
00000000
00100000
00010000
01000000
10000000
,  // measure 31
00000000
10010000
00000000
01100000
00000000
00000000
00000000
10000000
,  // measure 32
00020000
00000000
00000000
00000000
01030000
00000000
01000000
00000000
00001000
00000000
00000000
00010000
00000000
00000000
00000100
00000000
,  // measure 33
00001000
00000000
00000000
00000010
00001001
00000000
00000110
00000000
,  // measure 34
00000000
00000001
00000100
00000001
00001000
00000100
00001000
00000010
,  // measure 35
00010000
00000010
00010000
00001000
00010000
00000000
00011000
00000000
,  // measure 36
00000000
00001000
00100000
00001000
00100000
00010000
00100000
00010000
,  // measure 37
01000000
00010000
01000000
00100000
10000000
00000000
10010000
00000000
,  // measure 38
00000000
01000000
00100000
10000000
00100000
01000000
00001000
00010000
,  // measure 39
00000100
00001000
00000010
00000100
00000001
00000010
00000100
00002000
,  // measure 40
00000000
00003010
00001000
00000000
00000100
00010000
00001000
00010000
,  // measure 41
00000000
00001000
00000000
00100000
00010000
01000000
00010000
00000000
,  // measure 42
00000000
10000000
01000000
10000000
00100000
01000000
00010000
00100000
,  // measure 43
00001000
00010000
00000010
00000100
00000000
00000001
00000100
00000001
,  // measure 44
00000000
00000001
00000100
00000001
00001000
00000010
00001000
00000100
,  // measure 45
00010000
00001000
01000000
00010000
00000000
01000000
00100000
01000000
,  // measure 46
00000000
10000000
00100000
01000000
00100000
01000000
00001000
00010000
,  // measure 47
00001000
00010000
00000010
00000100
00000001
00000010
00000100
00002000
,  // measure 48
00000000
00003100
00010000
00001000
00010000
00001000
00100000
00010000
,  // measure 49
00000000
01000000
00100000
10000000
00000000
01010000
00000000
00002000
,  // measure 50
00020000
00000000
00000000
00000000
00033000
00000000
00002000
00000020
,  // measure 51
00000000
00000000
00000000
00000000
00003030
00000001
00000200
00000002
,  // measure 52
00000000
00000000
00000000
00000303
,  // measure 53
00000020
00000000
00000000
00002030
00000000
00000000
00003100
00000000
,  // measure 54
00001200
00000000
00000000
00000000
00000000
00010300
00001000
00020000
,  // measure 55
00000000
00031000
00100000
00002000
00000000
01003000
00010000
02000000
,  // measure 56
00000000
00000000
00100000
00000000
,  // measure 57
03020000
00000000
00000000
00000000
,  // measure 58
00030000
00000000
00000000
00010000
00002000
00000000
00013000
00000200
,  // measure 59
00001000
00000000
00001000
00000000
00001000
00000000
00001300
00001000
,  // measure 60
00000020
00000000
00000130
00000002
00000000
00000013
00000002
00000000
,  // measure 61
00000100
00000000
00000100
00000000
00000100
00000000
00000103
00000100
,  // measure 62
00000020
00000000
00001030
00000200
00000000
00010300
00002000
00000000
,  // measure 63
00100000
00000000
00100000
00000000
00103000
00010000
00100000
00020000
,  // measure 64
00000000
01030000
00100000
02000000
00000000
03100000
10000000
00200000
,  // measure 65
00000000
01000000
01000000
01300000
,  // measure 66
20010000
00000000
00000000
01000000
31000000
00000000
00100000
00020000
,  // measure 67
00000000
00000000
01000000
00000000
01000000
00000000
01030000
00010000
,  // measure 68
02000000
00000000
00100000
23000000
00000000
30100000
02000000
00000000
,  // measure 69
00001000
00000000
00001000
00000000
00001000
00000000
03001000
00010000
,  // measure 70
00000200
00000000
00001000
00002000
00000300
00000010
00000020
00003000
,  // measure 71
00000100
00000000
00000100
00000000
00000130
00000001
00000100
00000002
,  // measure 72
00000000
00001003
00000010
00002000
00000000
00003100
00010000
00002000
,  // measure 73
00010000
00010000
00010000
00013000
,  // measure 74
00011000
00000000
00000000
00100000
00001000
01000000
00010000
10000000
,  // measure 75
00200000
00000000
00000000
00000000
,  // measure 76
00302000
00000000
00000000
00000000
,  // measure 77
00023000
00000000
00000000
00000000
,  // measure 78
00030020
00000000
00000230
00000000
,  // measure 79
00000302
00000000
00000000
00000000
,  // measure 80
00002003
00000000
00003200
00000000
,  // measure 81
00020300
00000000
00000000
00000000
,  // measure 82
00002000
00000000
00000000
00000000
,  // measure 83
00000000
00000000
00000000
00000000
,  // measure 84
00033000
00000000
00000000
00000000
;
