#TITLE:crew;
#SUBTITLE:-kors k mix-;
#ARTIST:beatnation records feat. 星野奏子;
#TITLETRANSLIT:;
#SUBTITLETRANSLIT:;
#ARTISTTRANSLIT:beatnation records feat. Kanoko Hoshino;
#GENRE:;
#CREDIT:;
#BANNER:crew -kors k mix-.png;
#BACKGROUND:crew -kors k mix--jacket.png;
#LYRICSPATH:;
#CDTITLE:;
#MUSIC:crew -kors k mix-.mp3;
#OFFSET:-0.207000;
#SAMPLESTART:98.148178;
#SAMPLELENGTH:13.941177;
#SELECTABLE:YES;
#DISPLAYBPM:170.000000;
#BPMS:0.000000=170.000000
;
#STOPS:
;
#BGCHANGES:;
#KEYSOUNDS:;
#ATTACKS:;

//---------------dance-single - ----------------
#NOTES:
     dance-single:
     :
     Challenge:
     14:
     0.550732,0.872559,0.245903,0.190376,0.234004,486.000000,455.000000,31.000000,24.000000,0.000000,0.000000,0.550732,0.872559,0.245903,0.190376,0.234004,486.000000,455.000000,31.000000,24.000000,0.000000,0.000000:
// measure 0
0000
0000
0000
0000
,  // measure 1
0000
0000
0000
0000
,  // measure 2
0000
0000
0000
0000
,  // measure 3
0000
0000
0000
0000
,  // measure 4
0000
0000
0000
0000
,  // measure 5
0000
0000
0000
0000
,  // measure 6
0000
0000
0000
0000
,  // measure 7
0000
0000
0000
0000
,  // measure 8
0000
0000
0000
0000
,  // measure 9
0000
0000
0000
0000
,  // measure 10
0002
0000
0000
2000
0000
0000
0000
0000
,  // measure 11
0000
0000
0000
3003
,  // measure 12
0200
0000
0000
0020
0000
0000
0000
0000
,  // measure 13
0000
0000
0000
0330
,  // measure 14
2000
0000
0000
0200
0000
0000
0000
0000
,  // measure 15
0000
0000
0000
3300
,  // measure 16
0001
0001
1000
1000
,  // measure 17
1001
0000
1001
0000
1001
0000
2002
3003
,  // measure 18
0100
0000
1001
0000
0001
1000
0010
1000
,  // measure 19
0001
1000
0010
1000
0010
0100
0010
0100
,  // measure 20
0110
0000
1000
0001
1001
0000
1000
0100
,  // measure 21
1000
1001
1001
1001
,  // measure 22
0200
0000
0310
0000
0001
1000
0000
0100
,  // measure 23
0000
0000
1000
0100
1000
0000
0100
1000
0100
0000
1000
0000
0001
0000
0100
0000
,  // measure 24
0001
0000
1000
0000
0001
0100
0000
1000
,  // measure 25
0000
0000
0001
1000
0001
0000
1000
0001
1000
0000
0001
0000
0100
0000
0010
0000
,  // measure 26
0000
0000
0100
0000
0001
0100
0000
0010
,  // measure 27
0000
0000
1000
0010
1000
0000
0010
1000
0010
0000
1000
0000
0010
0000
0100
0000
,  // measure 28
0000
0000
0010
0000
0100
0010
0000
1000
,  // measure 29
0000
0000
0001
1000
0001
0000
1000
0001
1000
0000
0001
0000
1000
0000
0100
0000
,  // measure 30
0020
0000
0031
0000
0001
1000
0000
0001
,  // measure 31
0000
0000
1000
0001
1000
0000
0001
1000
0001
0000
1000
0000
0001
0000
0100
0000
,  // measure 32
0010
0000
0100
0000
0010
1000
0000
0010
,  // measure 33
0000
0000
1000
0010
1000
0000
0010
1000
0010
0000
1000
0000
0010
0000
0100
0000
,  // measure 34
0010
0000
0100
0000
0001
1000
0000
0100
,  // measure 35
0000
0000
1000
0100
1000
0000
0100
1000
0100
0000
1000
0000
0010
0000
0100
0000
,  // measure 36
0001
0000
0010
0100
1000
0000
0001
0100
,  // measure 37
0001
1000
0100
0010
0001
0100
0010
1000
,  // measure 38
2002
0000
0000
0000
,  // measure 39
0000
0000
3000
0000
,  // measure 40
0200
0000
0003
0020
0000
0000
0000
0000
,  // measure 41
0000
0000
0000
0330
,  // measure 42
2002
0000
0000
0000
,  // measure 43
0000
0000
0000
3003
,  // measure 44
2200
0000
3000
0020
0000
0000
0000
0000
,  // measure 45
0000
0000
0000
0330
,  // measure 46
1001
0000
0101
0000
0100
0001
0000
0101
,  // measure 47
0000
1000
0001
0000
1010
0000
1000
0000
,  // measure 48
1010
0000
1100
0000
1000
0100
0000
1100
,  // measure 49
0000
1000
0010
0000
0110
0000
1001
0000
,  // measure 50
0100
0010
1000
0000
0010
0100
0001
0000
,  // measure 51
1000
0001
0010
0000
0001
1000
0100
0000
,  // measure 52
1000
0001
1000
0001
0100
0001
0100
0001
,  // measure 53
0100
0010
0110
1001
,  // measure 54
0020
0000
0130
0001
1000
0001
0000
0100
,  // measure 55
0000
0000
0010
1000
0010
0000
0100
0001
0100
0001
0100
0000
0010
0000
0100
0000
,  // measure 56
0000
0000
1000
0001
1000
0001
0000
0100
,  // measure 57
0000
0000
0010
0100
0010
0000
1000
0010
1000
0010
1000
0000
0010
0000
0100
0000
,  // measure 58
0010
0000
1000
0001
1000
0001
0000
1000
,  // measure 59
0000
0000
0100
1000
0100
0000
1000
0100
1000
0100
1000
0000
0100
0000
1000
0000
,  // measure 60
0000
0001
1000
0001
0100
0001
1000
0000
,  // measure 61
0010
0100
0010
0100
0001
1000
0001
1000
,  // measure 62
0100
0000
1000
0100
0001
0100
0000
1010
,  // measure 63
0000
0000
0001
0100
0001
0000
1000
0010
1000
0010
1000
0000
0001
0100
0001
0000
,  // measure 64
0100
0000
0010
1000
0010
0100
0000
1001
,  // measure 65
0000
0000
0100
0010
0100
0000
0001
1000
0001
1000
0001
0000
0010
0000
0100
0000
,  // measure 66
1000
0100
1000
0000
0100
0000
1000
0000
0010
0100
0010
0000
0100
0000
0010
0000
,  // measure 67
0100
0001
0100
0000
0001
0000
0010
0000
0001
0010
0001
0000
0010
0000
0001
0000
,  // measure 68
0100
0001
0100
0000
0001
0100
0001
0000
1000
0010
1000
0000
0010
1000
0010
0000
,  // measure 69
0100
0010
0100
0000
0010
0000
1000
0000
0200
0000
0000
0000
0310
0000
0002
0000
,  // measure 70
0000
0000
1003
0100
0010
0100
0000
0010
,  // measure 71
0000
0000
1000
0000
0100
0000
1000
0100
1000
0100
1000
0000
0001
0000
1000
0000
,  // measure 72
0000
0000
0100
0001
0100
0001
0000
1000
,  // measure 73
0000
0000
0001
0000
0010
0000
0001
0010
0001
0010
0001
0000
0010
0000
0001
0000
,  // measure 74
1000
0000
0001
1000
0001
0100
0000
0100
,  // measure 75
0000
0000
0001
0000
1000
0000
0001
1000
0001
1000
0001
0000
1000
0000
0100
0000
,  // measure 76
1000
0000
0010
1000
0010
0100
0001
0100
,  // measure 77
0010
0000
1000
0000
0010
0000
0100
0010
0100
0010
0100
0000
0010
0000
0100
0000
,  // measure 78
0001
0000
1001
0000
0010
0100
0000
1001
,  // measure 79
0000
0000
1000
0000
0100
0000
1000
0100
1000
0100
1000
0000
0100
0000
1000
0000
,  // measure 80
0010
0000
0100
0001
0100
0001
0000
0100
,  // measure 81
0000
0000
0001
0000
0010
0000
0001
0100
0001
0100
0001
0000
0010
0000
0001
0000
,  // measure 82
0100
0000
0010
1000
1100
0000
0010
0001
,  // measure 83
0101
0000
0010
0100
1001
0000
0100
0010
,  // measure 84
1000
0010
1000
0010
1000
0010
1000
0010
0100
0001
0100
0001
0100
0001
0100
0001
,  // measure 85
0100
0000
0100
0001
0010
0100
1000
0020
,  // measure 86
0200
0000
0000
0000
,  // measure 87
0000
0000
0000
0000
,  // measure 88
0330
0000
0000
0000
;

//---------------dance-double - ----------------
#NOTES:
     dance-double:
     :
     Challenge:
     13:
     0.483874,0.698047,0.222106,0.190376,0.091222,427.000000,399.000000,28.000000,24.000000,0.000000,0.000000,0.483874,0.698047,0.222106,0.190376,0.091222,427.000000,399.000000,28.000000,24.000000,0.000000,0.000000:
00000000
00000000
00000000
00000000
,
00000000
00000000
00000000
00000000
,
00000000
00000000
00000000
00000000
,
00000000
00000000
00000000
00000000
,
00000000
00000000
00000000
00000000
,
00000000
00000000
00000000
00000000
,
00000000
00000000
00000000
00000000
,
00000000
00000000
00000000
00000000
,
00000000
00000000
00000000
00000000
,
00000000
00000000
00000000
00000000
,
00200000
00000000
00000000
00002000
00000000
00000000
00000000
00000000
,
00000000
00000000
00000000
00303000
,
00000200
00000000
00000000
00020000
00000000
00000000
00000000
00000000
,
00000000
00000000
00000000
00030300
,
00000002
00000000
00000000
00002000
00000000
00000000
00000000
00000000
,
00000000
00000000
00000000
00003003
,
00000200
00000000
00020300
00000000
,
00032000
00000000
02003000
00000000
,
03100000
00000000
10010000
00000000
10000000
00010000
00000000
00100000
,
00000000
00001000
00010000
00000000
00000010
00000000
00000100
00000001
,
00001001
00000000
00000010
00001000
00001100
00000000
00000100
00000000
,
00011000
01000000
00010000
10010000
,
10000000
00000000
10010000
00000000
00100000
01000000
00000000
00001000
,
00000000
00010000
00000100
00000000
00001000
00000010
00001000
00000001
,
00000100
00000000
00001001
00000000
00000001
00000010
00000000
00001000
,
00000000
00000100
00010000
00001000
01000000
00001000
01000000
00010000
,
01000000
00000000
00100000
10000000
01000000
10000000
00000000
00100000
,
00000000
01000000
00001000
00010000
00001000
00010000
00000100
00001000
,
00000100
00000000
00001000
00000001
00001000
00000010
00000000
00001000
,
00000000
00000100
00010000
00001000
00010000
00001000
01000000
00001000
,
01000000
00000000
00010000
01000000
00010000
10000000
00000000
10000000
,
00000000
00100000
10000000
00000000
00010000
01000000
00010000
01000000
,
00001000
00000000
00010000
00000000
00000010
00010000
00000000
00000010
,
00000000
00001000
00000010
00001000
00000001
00001000
00000010
00010000
,
00000010
00000000
00010000
00000000
00001000
00100000
00000000
00001000
,
00000000
00100000
00010000
01000000
00010000
10000000
00010000
01000000
,
00010000
00100000
00011000
00000100
,
00001000
00000100
00000010
00000001
00000010
00000100
00010000
00000000
,
00022000
00000000
00000000
00000000
,
00000000
00000000
00033000
00000000
,
00110000
00000000
00000000
22000000
00000000
00000000
00000000
00000000
,
00000000
00000000
00000000
33000000
,
00202000
00000000
00000000
00000000
,
00000000
00000000
00000000
00303000
,
00010010
00000000
00000000
00002002
00000000
00000000
00000000
00000000
,
00000000
00000000
00000000
00003003
,
00000110
00000000
00001001
00000000
00000010
00001000
00000000
00001100
,
00000000
00000100
00010000
00000000
00011000
00000000
00001000
00100000
,
00101000
00000000
00110000
00000000
00010000
01000000
00000000
01010000
,
00000000
00100000
01000000
10000000
01000000
00100000
00010000
00000000
,
00100000
00001000
00010000
00000000
00000100
00001000
00000010
00000000
,
00000100
00000001
00000010
00000000
00000100
00001000
00010000
00000000
,
00001000
00100000
00010000
01000000
00100000
10000000
01000000
00100000
,
00010000
00011000
00001100
00000110
,
00000002
00000000
00001003
00000000
00000010
00001000
00000000
00000100
,
00000000
00010000
00001000
00000000
00100000
00010000
01000000
00100000
,
10000000
00000000
10000000
00100000
10000000
00010000
00000000
01010000
,
00000000
01000000
00100000
01000000
00001000
00100000
00001000
00010000
,
00000100
00000000
00000100
00001000
00000010
00000100
00000000
00000001
,
00000000
00001000
00000001
00000010
00000100
00001000
00010000
00100000
,
00000000
00010000
01000000
00100000
10000000
01000000
10000000
00000000
,
01000000
00100000
00010000
00000000
00001000
00000100
00000010
00000001
,
00000100
00000000
00000010
00001000
00000100
00001100
00000000
00001010
,
00000000
00000010
00010000
00001000
00010000
00000010
00001000
00000100
,
00001000
00000000
00000100
00010000
00001000
00100000
00000000
00010000
,
00000000
01000000
00100000
10000000
01000000
00100000
00010000
00000000
,
00010000
00000100
00001000
00000000
00001000
00000010
00000100
00000000
,
00000001
00000100
00000010
00000000
00001000
00000100
00010000
00000000
,
00010000
00000000
00000000
00010000
00001000
00000000
00000000
00001000
00000001
00000000
00000000
00000001
00001000
00000000
00000000
00001000
,
00010000
00000000
00000000
00010000
10000000
00000000
00100000
00000000
02000000
00000000
00000000
00000000
03100000
00000000
20020000
00000000
,
00000000
00030000
30100000
00000000
10000000
00100000
00000000
01000000
,
00100000
00000000
01000000
00010000
01000000
00000000
00010000
01000000
00010000
01000000
00010000
00000000
01000000
00000000
00100000
00000000
,
01000000
00000000
00001000
00000000
00010000
00001000
00000000
00000100
,
00000000
00000000
00000001
00000100
00000001
00000000
00000100
00000001
00000100
00000001
00000100
00000000
00000001
00000000
00001000
00000000
,
00000100
00000000
00010000
00000000
00001000
01000000
00000000
00010000
,
00000000
00000000
10000000
00010000
10000000
00000000
00010000
10000000
00010000
10000000
00010000
00000000
10000000
00000000
01000000
00000000
,
10000000
00000000
00100000
00000000
01000000
00001000
00000000
00010000
,
00000000
00000000
00001000
00010000
00001000
00000000
00010000
00001000
00010000
00001000
00010000
00000000
00001000
00000000
00010000
00000000
,
00000100
00000000
00001000
00000000
00000010
00000100
00000000
00000001
,
00000000
00000000
00001000
00000001
00001000
00000000
00000001
00001000
00000001
00001000
00000001
00000000
00001000
00000000
00000001
00000000
,
00000100
00000000
00000010
00000000
00001000
00000100
00000000
00010000
,
00000000
00000000
00001000
00010000
00001000
00000000
00010000
00001000
00010000
00001000
00010000
00000000
00001000
00000000
01000000
00000000
,
00010000
00100000
01000000
10000000
01000000
00100000
00001000
00010000
,
00000100
00001000
00000100
00000010
00000001
00000010
00000100
00001000
,
00000010
00010000
00000100
00010000
00001000
00100000
00001000
01000000
,
00001000
00000000
00010000
00000000
00000100
00010000
00001000
00020000
,
00002000
00000000
00000000
00000000
,
00000000
00000000
00000000
00000000
,
00033000
00000000
00000000
00000000
;
