#TITLE:You Are The One For Me;
#SUBTITLE:;
#ARTIST:Jeon Jun-Kyu;
#TITLETRANSLIT:;
#SUBTITLETRANSLIT:;
#ARTISTTRANSLIT:;
#GENRE:;
#CREDIT:;
#MENUCOLOR:;
#METERTYPE:DDR;
#BANNER:You Are The One For Me.png;
#BACKGROUND:You Are The One For Me-bg.png;
#LYRICSPATH:;
#CDTITLE:;
#MUSIC:You Are The One For Me.mp3;
#OFFSET:-1.914;
#SAMPLESTART:61.300;
#SAMPLELENGTH:12.000;
#SELECTABLE:YES;
#LISTSORT:;
#DISPLAYBPM:116.000;
#BPMS:0.000=116.500,18.000=117.000,21.000=116.240,35.000=115.990,61.000=116.000;
#STOPS:;
#BGCHANGES:;
#ATTACKS:;

//---------------dance-single - ----------------
#NOTES:
     dance-single:
     :
     Challenge:
     13:
     0.490,0.472,0.093,0.175,0.454: // measure 1
0000
0000
0000
0000
,  // measure 2
0000
0000
0000
0000
,  // measure 3
0000
0000
0000
0000
,  // measure 4
1000
1000
1000
1000
,  // measure 5
0000
0000
0000
0000
0000
0000
0001
0000
0000
1000
0000
0000
0000
0000
0000
0010
0000
0000
0000
0000
0000
0000
0000
0000
1000
0000
0001
0000
0000
0000
0000
0000
0000
1001
0000
0000
0000
0000
0000
0000
0000
0000
0000
0000
0000
0000
0000
0000
,  // measure 6
1000
0000
0100
0000
0001
0000
0100
2000
0000
0000
3010
0000
0001
0000
0010
0000
,  // measure 7
1000
0000
0100
0000
0001
0000
0100
2000
0000
0000
3100
0000
0001
0000
0010
0000
,  // measure 8
1000
0000
0100
0000
1000
0000
0010
0002
0000
0000
0013
0000
1000
0000
0100
0000
,  // measure 9
1000
0000
0010
0000
0001
0000
0100
2000
0000
0000
3010
0000
0100
0000
0001
0000
,  // measure 10
0100
0000
1000
0000
0100
0000
0010
0002
0000
0000
0013
0000
1000
0000
0100
0000
,  // measure 11
0001
0000
0100
0000
1000
0000
0010
0002
0000
0000
0100
0003
2000
0000
0000
3010
,  // measure 12
0100
0000
0010
0000
0100
0000
0010
0002
0000
0000
0103
0000
1000
0000
0100
0000
,  // measure 13
1000
0000
0010
0000
0100
0000
0001
0020
0000
0000
0130
0000
2000
0000
0000
3001
,  // measure 14
0010
0000
0100
0010
0000
1000
0000
0001
0000
0000
0100
0000
0110
0000
0000
0000
,  // measure 15
0010
0000
1000
0001
0000
0100
0000
0110
0000
0000
1000
0000
1001
0000
0000
0000
,  // measure 16
0001
0000
0100
0010
0000
1000
0000
0010
0000
0000
0100
0000
0101
0000
0000
0000
,  // measure 17
1000
0000
0010
0100
0000
0001
0000
0100
0000
0000
0100
0000
0110
0000
0000
0000
,  // measure 18
1000
0000
0100
1000
0000
0010
0000
0200
0000
0000
0301
0000
0010
0000
0001
0000
,  // measure 19
0100
0000
0010
1000
0000
0100
0000
0020
0000
0000
0031
0000
0200
0000
0010
0000
,  // measure 20
0310
0000
1000
0100
0000
0010
0000
0002
0000
0000
0103
0000
0010
0000
1000
0000
,  // measure 21
0100
0000
0010
1000
0010
1000
0000
0020
0000
0000
0130
0000
0001
0000
0100
0000
,  // measure 22
0010
0000
1000
0000
0000
0010
0000
0000
1000
0000
0000
0010
0000
0000
1000
0000
,  // measure 23
0000
0000
0100
0000
0000
0001
0000
0000
0100
0000
0000
0001
0000
0000
0100
0000
,  // measure 24
0000
0000
0010
0000
0000
0100
0000
0000
0010
0000
0000
0100
0000
0000
0010
0000
,  // measure 25
0000
0000
1000
0000
0000
0100
0000
0000
0001
0000
0000
0100
0000
0000
1000
0000
,  // measure 26
0000
0000
0001
0000
0000
0100
0000
0000
1000
0000
0000
0100
0001
0000
0100
0000
,  // measure 27
0000
0000
1000
0000
0000
0010
0000
0000
0001
0000
0000
0010
0001
0000
0100
0000
,  // measure 28
0000
0000
0010
0000
0000
1000
0000
0000
0100
0000
0000
0001
0100
0000
0001
0000
,  // measure 29
0000
0000
1000
0000
0000
0100
0000
0000
0001
0010
0000
0001
0010
0000
0001
0000
,  // measure 30
1000
0001
0100
0001
1000
0001
0100
0001
,  // measure 31
1000
0000
0010
0000
0100
0000
0010
0100
0000
0010
0000
0100
0000
0000
0001
0000
,  // measure 32
1000
0100
1000
0010
1000
0100
1000
0010
,  // measure 33
1000
0000
0100
0000
0010
0000
0001
0010
0000
0100
0000
1000
0000
0000
0100
0000
,  // measure 34
0001
0000
0100
0000
1000
0000
0100
1000
0000
0000
0100
0000
0010
0000
0001
0000
,  // measure 35
0010
0000
0001
0000
0010
0000
1000
0010
0000
0001
0000
0010
0000
0000
0100
0000
,  // measure 36
1000
0000
0100
0000
0001
0000
0100
1000
0000
0000
0100
0000
0010
0000
0001
0000
,  // measure 37
0100
0000
0010
0000
0100
0000
0010
1000
0000
0010
0000
0100
0000
0000
0000
0000
,  // measure 38
1000
0000
0001
1000
0000
0001
0000
1000
0000
0000
0000
0000
0110
0000
0000
0000
,  // measure 39
0001
0000
1000
0001
0000
1000
0000
0001
0000
0000
0000
0000
0110
0000
0000
0000
,  // measure 40
1000
0000
0001
1000
0000
0001
0000
0100
0000
0010
0000
0100
0000
0000
0010
0000
,  // measure 41
1000
0000
0001
1000
0000
0001
0000
0000
0100
0000
0010
0000
0100
0000
0010
0000
,  // measure 42
1000
0000
0001
0000
1000
0000
0100
0010
0000
0000
0100
0000
0001
0000
1000
0000
,  // measure 43
0001
0000
1000
0000
0010
0000
0100
0001
0000
0000
0010
0000
1000
0010
1000
0000
,  // measure 44
0100
0000
0001
0000
0100
0000
0010
0100
0000
0000
1000
0000
0100
0000
1000
0000
,  // measure 45
0001
0000
0100
0000
0001
0000
0100
0010
0000
0100
0010
0000
1000
0000
0010
0000
,  // measure 46
2002
0000
0000
3003
;

//---------------dance-single - ----------------
#NOTES:
     dance-single:
     :
     Hard:
     9:
     0.300,0.307,0.041,0.227,0.273: // measure 1
0000
0000
0000
0000
,  // measure 2
0000
0000
0000
0000
,  // measure 3
0000
0000
0000
0000
,  // measure 4
0001
0001
0001
0001
,  // measure 5
0000
0000
0100
0000
0000
0010
0000
0000
0100
0000
0000
0010
0000
0000
0000
0000
,  // measure 6
1000
0000
0000
0000
0000
0000
0000
0002
0000
0000
0000
0000
0003
0000
0000
0000
,  // measure 7
0010
0000
0000
0000
0000
0000
0000
0200
0000
0000
0000
0000
0310
0000
0000
0000
,  // measure 8
1000
0000
0000
0000
0000
0000
0000
0020
0000
0000
0000
0000
0000
0030
0000
0000
,  // measure 9
0001
0000
0000
0000
0000
0000
0000
0200
0000
0000
0000
0000
0310
0000
0000
0000
,  // measure 10
0001
0000
0000
0000
0000
0000
0000
2000
0000
0000
0000
0000
3010
0000
0000
0000
,  // measure 11
0100
0000
0000
0000
0000
0000
0000
0002
0000
0000
0000
0000
0103
0000
0000
0000
,  // measure 12
0010
0000
0000
0000
0000
0000
0000
0200
0000
0000
0000
0000
0310
0000
0000
0000
,  // measure 13
1000
0000
0000
0000
0000
0000
0000
0020
0000
0000
0000
0000
0130
0000
0000
0000
,  // measure 14
1000
0000
0000
0000
0001
0000
0000
0001
0000
0000
0000
0000
0001
0000
0000
0000
,  // measure 15
1000
0000
0000
0000
0001
0000
0000
0001
0000
0000
0000
0000
0010
0000
0000
0000
,  // measure 16
0100
0000
0000
0000
0010
0000
0000
0010
0000
0000
0000
0000
0100
0000
0000
0000
,  // measure 17
0100
0000
0000
0000
0010
0000
0000
0010
0000
0000
0000
0000
1000
0000
0000
0000
,  // measure 18
0001
0000
0000
0000
1000
0000
0000
1000
0000
0000
0000
0000
0001
0000
0000
0000
,  // measure 19
0010
0000
0000
0000
1000
0000
0000
1000
0000
0000
0000
0000
0100
0000
0000
0000
,  // measure 20
0010
0000
0000
0000
0001
0000
0000
0001
0000
0000
0000
0000
0010
0000
0000
0000
,  // measure 21
1000
0000
0001
0000
1000
0001
0000
0000
0100
0000
0000
0000
0110
0000
0000
0000
,  // measure 22
0000
0000
1000
0000
0000
1000
0000
0000
1000
0000
0000
1000
0000
0000
0100
0000
,  // measure 23
0000
0000
0010
0000
0000
0010
0000
0000
0010
0000
0000
0010
0000
0000
0001
0000
,  // measure 24
0000
0000
0100
0000
0000
0100
0000
0000
0100
0000
0000
0100
0000
0000
1000
0000
,  // measure 25
0000
0000
0010
0000
0000
0010
0000
0000
0010
0000
0000
0010
0000
0000
0100
0000
,  // measure 26
0000
0000
1000
0000
0000
0001
0000
0000
1000
0000
0000
1000
0000
0000
1000
0000
,  // measure 27
0000
0000
0001
0000
0000
1000
0000
0000
0001
0000
0000
0001
0000
0000
0001
0000
,  // measure 28
0000
0000
0100
0000
0000
0010
0000
0000
0100
0000
0000
0100
0000
0000
0100
0000
,  // measure 29
0000
0000
0010
0000
0000
0100
0000
0000
0010
0000
0000
0000
1001
0000
0000
0000
,  // measure 30
0200
0310
0002
1003
,  // measure 31
0100
0000
0000
0000
2000
0000
0000
3001
0000
0100
0000
0000
0010
0000
0000
0000
,  // measure 32
0020
0130
2000
3001
,  // measure 33
0010
0000
0000
0000
0002
0000
0000
1003
0000
0010
0000
0000
0100
0000
0000
0000
,  // measure 34
2000
3010
0200
0301
,  // measure 35
0020
0000
0000
0000
1030
0000
0000
0100
0000
0100
0000
0000
0001
0000
0000
0000
,  // measure 36
0002
0013
0200
1300
,  // measure 37
0020
0000
0000
0000
0031
0000
0000
0100
0000
0100
0000
0000
1000
0000
0000
0000
,  // measure 38
0100
0000
0000
1000
0000
0100
0000
1000
0000
0000
0000
0000
0000
0000
0000
0000
,  // measure 39
0010
0000
0000
0001
0000
0010
0000
0001
0000
0000
0000
0000
1001
0000
0000
0000
,  // measure 40
0100
0000
0000
0010
0000
0100
0000
0010
0000
0000
0000
0000
0000
0000
0000
0000
,  // measure 41
1000
0000
0000
0001
0000
1000
0000
0001
0000
0000
0000
0000
0100
0000
0000
0000
,  // measure 42
1000
0000
0001
0000
1000
0100
0001
0000
,  // measure 43
0001
0000
1000
0000
0001
0100
1000
0000
,  // measure 44
0010
0000
0100
0000
1000
0100
0010
0000
,  // measure 45
0100
0000
0010
0000
0001
0010
0100
0000
,  // measure 46
2002
0000
0000
3003
;

//---------------dance-double - Copied from----------------
#NOTES:
     dance-double:
     Copied from:
     Hard:
     9:
     0.300,0.307,0.041,0.227,0.273:
00000000
00000000
00000000
00000000
,
00000000
00000000
00000000
00000000
,
00000000
00000000
00000000
00000000
,
00010000
00010000
00010000
00010000
,
00000000
00000000
00000100
00000000
00000000
00000010
00000000
00000000
00000100
00000000
00000000
00000010
00000000
00000000
00000000
00000000
,
00001000
00000000
00000000
00000000
00000000
00000000
00000000
00020000
00000000
00000000
00000000
00000000
00030000
00000000
00000000
00000000
,
00100000
00000000
00000000
00000000
00000000
00000000
00000000
02000000
00000000
00000000
00000000
00000000
13000000
00000000
00000000
00000000
,
00100000
00000000
00000000
00000000
00000000
00000000
00000000
00020000
00000000
00000000
00000000
00000000
00000000
00030000
00000000
00000000
,
00000100
00000000
00000000
00000000
00000000
00000000
00000000
00002000
00000000
00000000
00000000
00000000
00003001
00000000
00000000
00000000
,
00000001
00000000
00000000
00000000
00000000
00000000
00000000
00002000
00000000
00000000
00000000
00000000
00013000
00000000
00000000
00000000
,
00000100
00000000
00000000
00000000
00000000
00000000
00000000
00000002
00000000
00000000
00000000
00000000
00000103
00000000
00000000
00000000
,
00000010
00000000
00000000
00000000
00000000
00000000
00000000
00000200
00000000
00000000
00000000
00000000
00000310
00000000
00000000
00000000
,
00001000
00000000
00000000
00000000
00000000
00000000
00000000
00200000
00000000
00000000
00000000
00000000
01300000
00000000
00000000
00000000
,
10000000
00000000
00000000
00000000
00010000
00000000
00000000
00010000
00000000
00000000
00000000
00000000
00010000
00000000
00000000
00000000
,
00001000
00000000
00000000
00000000
00000001
00000000
00000000
00000001
00000000
00000000
00000000
00000000
00000010
00000000
00000000
00000000
,
00000100
00000000
00000000
00000000
00000010
00000000
00000000
00000010
00000000
00000000
00000000
00000000
00001000
00000000
00000000
00000000
,
00001000
00000000
00000000
00000000
00100000
00000000
00000000
00100000
00000000
00000000
00000000
00000000
00010000
00000000
00000000
00000000
,
01000000
00000000
00000000
00000000
10000000
00000000
00000000
10000000
00000000
00000000
00000000
00000000
01000000
00000000
00000000
00000000
,
00100000
00000000
00000000
00000000
10000000
00000000
00000000
10000000
00000000
00000000
00000000
00000000
01000000
00000000
00000000
00000000
,
00100000
00000000
00000000
00000000
00010000
00000000
00000000
00010000
00000000
00000000
00000000
00000000
00000010
00000000
00000000
00000000
,
00001000
00000000
00000001
00000000
00001000
00000001
00000000
00000000
00000100
00000000
00000000
00000000
00000110
00000000
00000000
00000000
,
00000000
00000000
00000001
00000000
00000000
00000001
00000000
00000000
00000001
00000000
00000000
00000001
00000000
00000000
00000010
00000000
,
00000000
00000000
00000100
00000000
00000000
00000100
00000000
00000000
00000100
00000000
00000000
00000100
00000000
00000000
00001000
00000000
,
00000000
00000000
01000000
00000000
00000000
01000000
00000000
00000000
01000000
00000000
00000000
01000000
00000000
00000000
10000000
00000000
,
00000000
00000000
00100000
00000000
00000000
00100000
00000000
00000000
00100000
00000000
00000000
00100000
00000000
00000000
01000000
00000000
,
00000000
00000000
00001000
00000000
00000000
00010000
00000000
00000000
00001000
00000000
00000000
00001000
00000000
00000000
00001000
00000000
,
00000000
00000000
00010000
00000000
00000000
00100000
00000000
00000000
00010000
00000000
00000000
00010000
00000000
00000000
00010000
00000000
,
00000000
00000000
01000000
00000000
00000000
00100000
00000000
00000000
01000000
00000000
00000000
01000000
00000000
00000000
01000000
00000000
,
00000000
00000000
00100000
00000000
00000000
01000000
00000000
00000000
00100000
00000000
00000000
00000000
10010000
00000000
00000000
00000000
,
02000000
03100000
00020000
00031000
,
00000100
00000000
00000000
00000000
00002000
00000000
00000000
00003001
00000000
00000100
00000000
00000000
00000010
00000000
00000000
00000000
,
00000020
00000130
00002000
00013000
,
00100000
00000000
00000000
00000000
00020000
00000000
00000000
10030000
00000000
00100000
00000000
00000000
01000000
00000000
00000000
00000000
,
20000000
30100000
02000000
03010000
,
00000200
00000000
00000000
00000000
00000301
00000000
00000000
00000010
00000000
00000010
00000000
00000000
00001000
00000000
00000000
00000000
,
00002000
00003100
00000020
00001030
,
00020000
00000000
00000000
00000000
00130000
00000000
00000000
01000000
00000000
01000000
00000000
00000000
10000000
00000000
00000000
00000000
,
01000000
00000000
00000000
10000000
00000000
01000000
00000000
10000000
00000000
00000000
00000000
00000000
00000000
00000000
00000000
00000000
,
00100000
00000000
00000000
00010000
00000000
00100000
00000000
00010000
00000000
00000000
00000000
00000000
00001001
00000000
00000000
00000000
,
00000100
00000000
00000000
00000010
00000000
00000100
00000000
00000010
00000000
00000000
00000000
00000000
00000000
00000000
00000000
00000000
,
00001000
00000000
00000000
00000001
00000000
00001000
00000000
00000001
00000000
00000000
00000000
00000000
00000100
00000000
00000000
00000000
,
00001000
00000000
00010000
00000000
10000000
01000000
00010000
00000000
,
00010000
00000000
00001000
00000000
00000001
00000100
00001000
00000000
,
00100000
00000000
01000000
00000000
10000000
01000000
00100000
00000000
,
01000000
00000000
00100000
00000000
00010000
00001000
00000100
00000000
,
00022000
00000000
00000000
00033000
;

//---------------dance-double - Copied from----------------
#NOTES:
     dance-double:
     Copied from:
     Challenge:
     13:
     0.490,0.448,0.247,0.041,0.227:
00000000
00000000
00000000
00000000
,
00000000
00000000
00000000
00000000
,
00000000
00000000
00000000
00000000
,
00010000
00010000
00010000
00010000
,
00000000
00000000
00000000
00000000
00000000
00000000
00010000
00000000
00000000
00001000
00000000
00000000
00000000
00000000
00000000
00100000
00000000
00000000
00000000
00000000
00000000
00000000
00000000
00000000
10000000
00000000
00010000
00000000
00000000
00000000
00000000
00000000
00000000
10010000
00000000
00000000
00000000
00000000
00000000
00000000
00000000
00000000
00000000
00000000
00000000
00000000
00000000
00000000
,
10000000
01000000
00100000
01000000
00010000
00001000
00000100
00001000
,
00000010
00000100
00000001
00001000
00000100
00010000
00001000
00100000
,
00010000
01000000
00010000
00000100
00001000
00100000
00010000
00000100
,
00000010
00000001
00000100
00001000
00100000
00010000
01000000
10000000
,
01000000
00010000
00100000
00001000
00010000
00000010
00000100
00000001
,
00000010
00001000
00010000
00000100
00100000
00010000
01000000
10000000
,
00100000
01000000
00010000
00000010
00001000
00000100
00010000
00001000
,
00100000
00010000
00000100
00001000
00000010
00000001
00001001
00000000
,
00000010
00000000
00000100
00000000
00001000
00000000
00010000
01000000
00000000
01000000
00001000
00000000
00010000
00000000
00000100
00000000
,
00001000
00000000
00000010
00000000
00000100
00000000
00000001
00001000
00000000
00001000
00000010
00000000
00000100
00000000
00010000
00000000
,
00100000
00000000
01000000
00000000
10000000
00000000
01000000
00010000
00000000
00010000
01000000
00000000
00100000
00000000
00001000
00000000
,
00000010
00000000
00000100
00000000
00001000
00000000
00100000
00010000
00000000
00010000
00100000
00000000
00010000
00000000
00000100
00000000
,
00001000
00000000
00000010
00000000
00000001
00000000
00000100
00001000
00000000
00001000
00010000
00000000
00100000
00000000
10000000
00000000
,
01000000
00000000
00010000
00000000
00100000
00000000
01000000
00010000
00000000
00010000
00000100
00000000
00001000
00000000
00000010
00000000
,
00000001
00000000
00000100
00000000
00001000
00000000
00000100
00010000
00000000
00010000
00100000
00000000
01000000
00000000
10000000
00000000
,
01000000
10000000
00010000
00100000
00001000
00000000
00011000
00000000
,
00000010
00000100
00000010
00000100
00001000
00010000
00001000
00010000
,
00100000
10000000
00100000
10000000
01000000
00001000
01000000
00001000
,
00010000
00000100
00010000
00000100
00000001
00001000
00000001
00001000
,
00000010
00010000
00000010
00010000
00001000
00100000
00001000
00100000
,
01000000
00100000
00110000
00000000
00000100
00010000
00010100
00000000
,
00001000
00000001
00000101
00000000
00000010
00001000
00011000
00000000
,
00100000
10000000
10010000
00000000
01000000
00010000
00011000
00000000
,
00000100
00001000
00010000
00100000
01100000
00000000
00011000
00000000
,
00010000
00000000
00000000
00000000
00001000
00000000
00000000
00020000
00000000
00000000
00031000
00000000
00000000
00000000
00000000
00000000
,
01000000
00000000
00000000
00000000
00100000
00000000
00010000
00001000
00000000
00000100
00000000
00000000
00000101
00000000
00000000
00000000
,
00000010
00000000
00000000
00000000
00000100
00000000
00000000
00002000
00000000
00000000
00013000
00000000
00110000
00000000
00000000
00000000
,
10000000
00000000
00000000
00000000
01000000
00000000
00100000
00010000
00000000
00000100
00000000
00000000
00001001
00000000
00000000
00000000
,
00000100
00000000
00010000
00000000
00001000
00000000
00100000
00010000
00000000
00010000
00100000
00000000
01000000
00000000
10000000
00000000
,
00100000
00000000
01000000
00000000
00010000
00000000
00000100
00010000
00000000
00001000
00000000
00000000
00001010
00000000
00000000
00000000
,
00000001
00000000
00000100
00000000
00000010
00000000
00010000
00001000
00000000
00001000
00100000
00000000
00010000
00000000
10000000
00000000
,
01000000
00000000
00100000
00000000
00010000
00000000
00000100
00001000
00000000
00010000
00000000
00000000
00101000
00000000
00000000
00000000
,
10000000
00000000
01000000
00010000
00000000
00010000
00000000
00001100
00000000
00000000
00000000
00000000
00000000
00000000
00000000
00000000
,
00000010
00000000
00000100
00001000
00000000
00010000
00000000
00110000
00000000
00000000
00000000
00000000
10010000
00000000
00000000
00000000
,
10000000
00000000
00100000
00001000
00000000
00010000
00000000
00001100
00000000
00000000
00000000
00000000
00000110
00000000
00000000
00000000
,
00000011
00000000
00000100
00010000
00000000
00001000
00000000
01000000
00000000
00000000
00000000
00000000
01100000
00000000
00000000
00000000
,
10000000
00100000
10000000
00100000
00010000
00000100
00010000
00000100
,
00000001
00001000
00000001
00001000
00000010
00010000
00000010
00010000
,
00000100
00010000
00100000
10000000
01000000
00010000
00000100
00000010
,
00000001
00000100
00010000
00100000
01000000
00000000
00001000
00000000
,
00022000
00000000
00000000
00033000
;

//---------------dance-double - ----------------
#NOTES:
     dance-double:
     :
     Medium:
     7:
     0.267,0.259,0.113,0.144,0.000:
00000000
00000000
00000000
00000000
,
00000000
00000000
00000000
00000000
,
00000000
00000000
00000000
00000000
,
00000000
00000000
00000000
00000000
,
00000000
00100000
00000000
00000000
00010000
00000000
00000000
00000000
,
00100000
00000000
00001000
00000000
00010000
00001000
00010000
00000000
,
00000100
00000000
00001000
00000000
00000010
00001000
00000010
00000000
,
00000100
00000000
00010000
00000000
00001000
00010000
00001000
00000000
,
00100000
00000000
00010000
00000000
00100000
01000000
00100000
00000000
,
10000000
00000000
00010000
00000000
00100000
00001000
00100000
00000000
,
00010000
00000000
00000100
00000000
00001000
00000010
00001000
00000000
,
00000001
00000000
00000100
00000000
00000010
00001000
00000010
00000000
,
00000100
00000000
00010000
00000000
00001000
00100000
00001000
00000000
,
10000000
00100000
01000000
00010000
,
00000100
00000000
00001000
00000000
00000010
00000100
00000010
00000000
,
00000001
00000100
00000010
00010000
,
00001000
00000000
01000000
00000000
00010000
10000000
00010000
00000000
,
10000000
00100000
00001000
00010000
,
00000100
00000000
00000001
00000000
00000010
00001000
00000010
00000000
,
00000001
00000100
00010000
00001000
,
00100000
00000000
10000000
00000000
01000000
00100000
01000000
00000000
,
00010000
00011000
00000000
00000110
,
00000000
00001100
00000000
00011000
,
01000000
00110000
00000000
10100000
,
00000000
00011000
00000000
00001100
,
00000010
00000000
00001000
00000000
00010000
00001000
00010000
00000000
,
00100000
00000000
00001000
00000000
00010000
00000100
00010000
00000000
,
00000010
00000000
00001000
00000000
00010000
00001000
00010000
00000000
,
00100000
01000000
10000000
10010000
,
20000000
00000000
30200000
00300000
,
00001000
00000000
00010000
00000000
00001000
00001000
00001000
00000000
,
00020000
00000000
00030200
00000300
,
00000010
00000000
00001000
00000000
00000001
00000001
00000001
00000000
,
00000200
00000000
00020300
00030000
,
00100000
00000000
00001000
00000000
01000000
01000000
01000000
00000000
,
00200000
00000000
20300000
30000000
,
10000000
00100000
00001000
00010000
,
00002000
00000000
00003000
00000000
,
00200000
00000000
00300000
00000000
,
02000000
00000000
03000000
00000000
,
00020000
00030000
00001000
00011000
,
00000100
00000010
00000001
00000100
,
00001000
00100000
01000000
10000000
,
00100000
00010000
00000100
00000001
,
00000010
00001000
00010000
00000000
,
00022000
00000000
00000000
00033000
;

//---------------dance-double - ----------------
#NOTES:
     dance-double:
     :
     Easy:
     4:
     0.212,0.212,0.031,0.144,0.000:
00000000
00000000
00000000
00000000
,
00000000
00000000
00000000
00000000
,
00000000
00000000
00000000
00000000
,
00000000
00000000
00000000
00000000
,
00000000
00000000
10010000
00000000
,
01000000
00100000
01000000
00100000
,
00001000
00010000
00001000
00010000
,
00000010
00000100
00000010
00000100
,
00000001
00001000
00000001
00001000
,
00000100
00010000
00000100
00010000
,
00100000
00001000
00100000
00001000
,
10000000
00010000
10000000
00010000
,
01000000
00001000
01000000
00001000
,
00010000
00000100
00010000
00000100
,
00001000
00000001
00001000
00000001
,
00000100
00000010
00001000
00000010
,
00010000
00000100
00010000
00000100
,
00100000
00001000
00100000
00001000
,
01000000
00010000
01000000
00010000
,
10000000
00100000
00010000
00100000
,
10000000
01000000
00100000
00000000
,
00001000
00010000
00000000
00010000
,
00000000
00001000
00000000
00001000
,
00000000
00000100
00000000
00000100
,
00000001
00000010
00000000
00000010
,
00000000
00001000
00000000
00001000
,
00000000
00010000
00000000
00010000
,
00000000
00100000
00000000
00100000
,
00001000
00001000
00001000
00001000
,
00020000
00000000
00001000
00031000
,
00000020
00000000
00001000
00001030
,
00000002
00000000
00000100
00000103
,
00002000
00000000
00010000
00013000
,
00200000
00000000
00001000
00301000
,
20000000
00000000
00010000
30010000
,
02000000
00000000
00010000
03010000
,
00002000
00000000
00100000
00103000
,
00000200
00000000
00000300
00000000
,
00020000
00000000
00030000
00010000
,
00002000
00000000
00003000
00000000
,
00200000
00000000
00300000
10010000
,
10000000
00010000
10000000
00000000
,
00100000
01000000
00100000
00000000
,
00001000
00010000
00001000
00000000
,
00000100
00000010
00000100
00000000
,
00002002
00000000
00000000
00003003
;

//---------------dance-single - ----------------
#NOTES:
     dance-single:
     :
     Easy:
     4:
     0.211,0.212,0.031,0.144,0.000: // measure 1
0000
0000
0000
0000
,  // measure 2
0000
0000
0000
0000
,  // measure 3
0000
0000
0000
0000
,  // measure 4
0000
0000
0000
0000
,  // measure 5
0000
0000
1001
0000
,  // measure 6
0100
0010
0100
0010
,  // measure 7
0001
1000
0001
1000
,  // measure 8
0100
0010
0100
0010
,  // measure 9
1000
0001
1000
0001
,  // measure 10
1000
0010
1000
0010
,  // measure 11
0100
0001
0100
0001
,  // measure 12
0001
1000
0001
1000
,  // measure 13
0010
0001
0010
0001
,  // measure 14
1000
0010
1000
0010
,  // measure 15
0001
1000
0001
1000
,  // measure 16
0100
0010
0001
0010
,  // measure 17
1000
0100
1000
0100
,  // measure 18
0010
0001
0010
0001
,  // measure 19
0010
0001
0010
0001
,  // measure 20
1000
0100
0001
0100
,  // measure 21
1000
0010
0100
0000
,  // measure 22
0000
1000
0000
1000
,  // measure 23
0000
0001
0000
0001
,  // measure 24
0000
0010
0000
0010
,  // measure 25
0000
0100
0000
0100
,  // measure 26
1000
0001
0000
0001
,  // measure 27
0000
1000
0000
1000
,  // measure 28
0000
0001
0000
0001
,  // measure 29
0100
0100
0100
0100
,  // measure 30
2000
0000
0001
3001
,  // measure 31
0200
0000
0001
0301
,  // measure 32
2000
0000
0010
3010
,  // measure 33
0002
0000
1000
1003
,  // measure 34
0200
0000
0001
0301
,  // measure 35
0002
0000
1000
1003
,  // measure 36
0020
0000
1000
1030
,  // measure 37
0002
0000
0100
0103
,  // measure 38
0020
0000
0030
0000
,  // measure 39
2000
0000
3000
1000
,  // measure 40
0002
0000
0003
0000
,  // measure 41
0200
0000
0300
1001
,  // measure 42
0001
1000
0001
0000
,  // measure 43
0100
0010
0100
0000
,  // measure 44
0001
1000
0001
0000
,  // measure 45
0010
0100
0010
0000
,  // measure 46
2002
0000
0000
3003
;

//---------------dance-single - ----------------
#NOTES:
     dance-single:
     :
     Medium:
     7:
     0.267,0.259,0.113,0.144,0.000: // measure 1
0000
0000
0000
0000
,  // measure 2
0000
0000
0000
0000
,  // measure 3
0000
0000
0000
0000
,  // measure 4
0000
0000
0000
0000
,  // measure 5
0000
0010
0000
0000
0001
0000
0000
0000
,  // measure 6
0010
0000
1000
0000
0001
1000
0001
0000
,  // measure 7
0100
0000
1000
0000
0010
1000
0010
0000
,  // measure 8
0100
0000
0001
0000
1000
0001
1000
0000
,  // measure 9
0010
0000
0001
0000
0010
0100
0010
0000
,  // measure 10
1000
0000
0001
0000
0010
1000
0010
0000
,  // measure 11
0001
0000
0100
0000
1000
0010
1000
0000
,  // measure 12
0001
0000
0100
0000
0010
1000
0010
0000
,  // measure 13
0100
0000
0001
0000
1000
0010
1000
0000
,  // measure 14
1000
0010
0100
0001
,  // measure 15
0100
0000
1000
0000
0010
0100
0010
0000
,  // measure 16
0001
0100
0010
0001
,  // measure 17
1000
0000
0100
0000
0001
1000
0001
0000
,  // measure 18
1000
0010
1000
0001
,  // measure 19
0100
0000
0001
0000
0010
1000
0010
0000
,  // measure 20
0001
0100
0001
1000
,  // measure 21
0010
0000
1000
0000
0100
0010
0100
0000
,  // measure 22
0001
1001
0000
0110
,  // measure 23
0000
1100
0000
1001
,  // measure 24
0100
0011
0000
1010
,  // measure 25
0000
1001
0000
1100
,  // measure 26
0010
0000
1000
0000
0001
1000
0001
0000
,  // measure 27
0010
0000
1000
0000
0001
0100
0001
0000
,  // measure 28
0010
0000
1000
0000
0001
1000
0001
0000
,  // measure 29
0010
0100
1000
1001
,  // measure 30
2000
0000
3020
0030
,  // measure 31
1000
0000
0001
0000
1000
1000
1000
0000
,  // measure 32
0002
0000
0203
0300
,  // measure 33
0010
0000
1000
0000
0001
0001
0001
0000
,  // measure 34
0200
0000
0302
0003
,  // measure 35
0010
0000
1000
0000
0100
0100
0100
0000
,  // measure 36
0020
0000
2030
3000
,  // measure 37
1000
0010
1000
0001
,  // measure 38
2000
0000
3000
0000
,  // measure 39
0020
0000
0030
0000
,  // measure 40
0200
0000
0300
0000
,  // measure 41
0002
0003
1000
1001
,  // measure 42
0100
0010
0001
0100
,  // measure 43
1000
0010
0100
1000
,  // measure 44
0010
0001
0100
0001
,  // measure 45
0010
1000
0001
0000
,  // measure 46
2002
0000
0000
3003
;

//---------------dance-single - ----------------
#NOTES:
     dance-single:
     :
     Beginner:
     2:
     0.107,0.118,0.010,0.093,0.000:
0000
0000
0000
0000
,
0000
0000
0000
0000
,
0000
0000
0000
0000
,
0000
0000
0000
0000
,
0000
0000
0000
0000
,
0000
0000
0001
0000
,
0000
0000
1000
0000
,
0000
0000
0001
0000
,
0000
0000
1000
0000
,
0000
0000
0010
0000
,
0000
0000
0100
0000
,
0000
0000
0010
0000
,
0000
0000
0100
0000
,
0001
0000
0001
0000
,
0001
0000
0001
0000
,
1000
0000
1000
0000
,
1000
0000
1000
0000
,
0010
0000
0010
0000
,
0010
0000
0010
0000
,
0100
0000
0100
0000
,
0100
0000
0100
0000
,
0020
0000
0030
0000
,
0200
0000
0300
0000
,
0020
0000
0030
0000
,
0200
0000
0300
0000
,
0000
1000
0000
1000
,
0000
0001
0000
0001
,
0000
0100
0000
0100
,
0000
0010
0010
0010
,
0010
0000
0100
0000
,
0000
0010
0010
0000
,
0000
0000
1000
0000
,
0000
0001
0001
0000
,
0000
0000
1000
0000
,
0000
0010
0010
0000
,
0000
0000
0100
0000
,
0000
0001
0001
0000
,
0020
0000
0030
0000
,
0200
0000
0300
0000
,
0020
0000
0030
0000
,
0100
0000
0100
0000
,
0001
0000
0001
0000
,
1000
0000
1000
0000
,
0001
0000
0001
0000
,
1000
0000
0000
0000
,
2002
0000
0000
3003
;
