#TITLE:We're All Gonna Die;
#SUBTITLE:;
#ARTIST:Paul Bazooka;
#TITLETRANSLIT:;
#SUBTITLETRANSLIT:;
#ARTISTTRANSLIT:;
#GENRE:;
#CREDIT:;
#BANNER:We're All Gonna Die.png;
#BACKGROUND:We're All Gonna Die-bg.png;
#LYRICSPATH:;
#CDTITLE:;
#MUSIC:We're All Gonna Die.ogg;
#OFFSET:-0.433000;
#SAMPLESTART:32.432999;
#SAMPLELENGTH:20.000000;
#SELECTABLE:YES;
#BPMS:0.000000=90.000000
,40.000000=180.000000
,179.000000=45.000000
,180.000000=90.000000
,182.000000=45.000000
,183.000000=90.000000
,185.000000=45.000000
,186.000000=90.000000
,188.000000=45.000000
,189.000000=90.000000
,203.000000=180.000000
,208.500000=179.999908
,210.000000=360.000000
;
#STOPS:47.750000=1.333332,
178.000000=0.333336
;
#BGCHANGES:0.000=We're All Gonna Die.avi=1.000=0=0=0=StretchNoLoop====,
99999=-nosongbg-=1.000=0=0=0 // don't automatically add -songbackground-
;
#KEYSOUNDS:;
#ATTACKS:;

//---------------dance-single - ----------------
#NOTES:
     dance-single:
     :
     Challenge:
     18:
     0.836964,1.136679,0.112524,0.285061,0.581374,781.000000,766.000000,15.000000,38.000000,0.000000,0.000000,0.836964,1.136679,0.112524,0.285061,0.581374,781.000000,766.000000,15.000000,38.000000,0.000000,0.000000:
// measure 0
0000
0000
0000
0000
,  // measure 1
0000
0000
0000
0000
,  // measure 2
0000
0000
0000
0000
,  // measure 3
0000
0000
0000
0000
,  // measure 4
0002
0000
0000
2003
0000
0000
3020
0000
,  // measure 5
0000
2030
0000
0000
3200
0000
0320
0000
,  // measure 6
0032
0000
0000
2003
0000
0000
3020
0000
,  // measure 7
0000
0230
0000
0000
0302
0000
2003
0000
,  // measure 8
3001
0000
0000
0010
0000
0000
0100
0000
0000
1000
0000
0000
0001
0100
0001
0100
,  // measure 9
0001
0000
0000
1000
0000
0000
0100
0000
0000
0010
0000
0000
0001
0100
0001
0100
,  // measure 10
0001
0000
0000
0010
0000
0000
0100
0000
0000
1000
0000
0000
0001
0000
0100
0000
,  // measure 11
0001
0000
0000
0010
0000
0000
1000
0000
0000
0100
0000
0000
0010
0001
0010
0001
,  // measure 12
0000
0000
0010
1001
,  // measure 13
1000
0100
0000
0000
1000
0000
0001
0100
0000
0000
0001
0000
1000
0100
0000
0000
,  // measure 14
1000
0000
0001
0100
0000
0000
0001
0000
1000
0100
1000
0100
1000
0010
1000
0010
,  // measure 15
0100
0010
0000
1000
0010
0000
0100
0010
0000
1000
0010
0000
0100
0001
0000
0010
,  // measure 16
0001
0000
0010
0001
0000
1000
0001
0000
1000
0000
0001
0000
1000
0000
0001
0000
,  // measure 17
0001
0100
0000
0000
0001
0000
1000
0100
0000
0000
1000
0000
0001
0100
0000
0000
,  // measure 18
0001
0000
1000
0100
0000
0000
1000
0000
0001
0100
0001
1000
0001
0100
0001
1000
,  // measure 19
0001
0100
0000
0001
0010
0000
0001
1000
0000
0001
0010
0000
1000
0100
0000
1000
,  // measure 20
0010
0000
1000
0001
0000
1000
0100
0000
0010
0000
0010
0000
0010
0000
0010
0000
,  // measure 21
0220
0000
0000
0000
0330
0000
0001
0100
0001
0000
1000
0000
0010
1000
0010
0000
,  // measure 22
0100
0000
0001
0100
0001
0000
1000
0000
0010
0100
0010
0000
1000
0100
1000
0000
,  // measure 23
0001
0010
0000
0001
0010
0000
0001
0100
0000
0001
0100
0000
0001
1000
0000
0001
,  // measure 24
1000
0000
0100
1000
0000
0010
0100
0000
0001
0010
0001
0000
0100
0010
0100
0000
,  // measure 25
0010
1000
0000
0000
0100
0000
0010
0100
0000
0000
0001
0000
1000
0100
0000
0000
,  // measure 26
0001
0000
1000
0100
0000
0001
0100
0000
1000
0010
0000
0001
0010
0000
0100
0000
,  // measure 27
0001
1000
0001
1000
0001
0100
0010
0100
,  // measure 28
0001
0100
0001
0100
0001
1000
0001
1000
0001
0000
0000
0000
0110
0000
0000
0000
,  // measure 29
1000
0000
0100
0010
0000
0100
0001
0000
0100
0010
0000
1000
0010
0000
0100
0000
,  // measure 30
0001
0000
0010
0100
0000
0010
1000
0000
0010
0100
0000
0001
0100
0000
0010
0000
,  // measure 31
1000
0000
0100
0010
0000
0100
0001
0000
0100
0010
0000
1000
0100
0000
0001
0000
,  // measure 32
1000
0000
0001
1000
0000
0001
1000
0000
0010
0000
0100
0010
0000
0000
1001
0000
,  // measure 33
0001
0000
0100
0001
0000
1000
0001
0000
0100
0001
0000
1000
0001
0000
0010
0000
,  // measure 34
0001
0000
1000
0001
0000
0100
0001
0000
1000
0001
0000
0010
0001
0100
0001
0010
,  // measure 35
0001
0000
1000
0100
0000
1000
0010
0000
1000
0001
0000
1000
0100
0000
0010
0000
,  // measure 36
0100
0000
0001
0100
0001
0000
1000
0000
0001
1000
0001
0100
0010
0100
0010
0100
,  // measure 37
0010
0000
0010
1000
0000
1000
0100
0000
0100
0001
0000
0001
0100
0000
1000
0000
,  // measure 38
0010
0000
0010
0001
0000
0001
0100
0000
0100
1000
0000
1000
0100
0000
0001
0000
,  // measure 39
0010
0000
0010
0100
0000
0100
0001
0000
0001
1000
0000
1000
0001
1000
0001
1000
,  // measure 40
0100
0000
0100
1000
0000
1000
0010
0000
0010
0000
0001
1000
0001
0000
1000
0001
,  // measure 41
1000
0000
0010
1000
0000
0010
1000
0000
0001
0000
1000
0001
1000
0000
0100
0000
,  // measure 42
0010
0000
0100
0001
0000
0100
0001
0000
1000
0001
0000
1000
0001
0000
0010
0000
,  // measure 43
0001
0000
0100
0001
0000
0100
0001
0000
1000
0010
0000
1000
0010
0000
0100
0000
,  // measure 44
0001
0000
1000
0000
0001
0100
0000
0001
1000
0000
0000
0000
0220
0000
0000
0000
,  // measure 45
0330
0000
0000
0000
0000
0000
0000
0000
2002
0000
0000
3003
0000
0000
0000
0000
,  // measure 46
0000
0000
0000
0000
0220
0000
0000
0330
1000
0100
0010
0001
0100
0000
0100
0000
,  // measure 47
2002
0000
0000
3003
0001
0010
0100
1000
0010
0000
0010
0000
2002
0000
3003
0000
,  // measure 48
1000
1000
0001
1000
0010
1000
0001
1000
0010
1000
0001
1000
0200
0000
0001
0300
,  // measure 49
1000
1000
0001
1000
0010
1000
0001
1000
0010
1000
0001
1000
0001
0000
0001
0000
,  // measure 50
0001
0000
0100
0000
1000
0000
1000
0000
0100
0000
0001
0000
0010
0000
0000
1000
,  // measure 51
0000
0000
0010
0000
0000
0001
0000
0000
0010
0000
1000
0000
0001
0000
0010
0000
,  // measure 52
0100
1000
0000
0000
0000
0000
0000
0000
,  // measure 53
0001
0000
0001
0000
1000
0010
1000
0010
,  // measure 54
0100
0001
0100
0001
1000
0010
0100
0001
,  // measure 55
1000
0010
1000
0010
0100
0010
0100
0010
,  // measure 56
1000
0001
1000
0010
1000
0100
1000
0010
,  // measure 57
1000
0000
0001
0000
0100
0010
0100
0010
,  // measure 58
1000
0001
1000
0001
1000
0100
1000
0100
,  // measure 59
0010
0001
0010
0001
0100
0010
0100
0010
,  // measure 60
1000
0100
0010
0001
0100
0010
1000
0001
,  // measure 61
0200
0300
0002
2003
,  // measure 62
3010
1000
0010
1000
0001
0100
0001
0100
,  // measure 63
0010
1000
0100
0010
0001
0100
0010
1000
,  // measure 64
0001
0100
0001
0010
0001
1000
0100
0000
,  // measure 65
2000
0000
3002
0000
,  // measure 66
0103
0010
1000
0001
0100
0010
1000
0100
,  // measure 67
0010
0001
0100
0010
1000
0001
0100
0010
,  // measure 68
1000
0010
0100
0001
1000
0000
0000
0000
,  // measure 69
0001
0010
0001
0010
0001
0010
0001
0010
,  // measure 70
0001
0100
2000
3000
,  // measure 71
0010
0000
1000
0010
0000
0100
0001
0100
,  // measure 72
0001
0010
1001
0100
,  // measure 73
1000
0010
1000
0010
1000
0100
1000
0100
,  // measure 74
1000
0010
0001
0100
,  // measure 75
0001
1000
0001
0100
0001
0010
0001
0100
,  // measure 76
0001
1000
0001
1000
0001
0000
0000
0000
,  // measure 77
1001
0000
1001
0000
1000
0001
1000
0001
,  // measure 78
1000
0010
1000
0010
0100
0001
0100
0001
,  // measure 79
1000
0100
1000
0100
1000
0010
0100
0001
,  // measure 80
0100
0001
0100
0010
0100
0010
1000
0010
,  // measure 81
1000
0100
0010
0001
0200
0000
0320
0000
,  // measure 82
0031
0100
0010
1000
0100
1000
0100
1000
,  // measure 83
0200
0300
0001
0001
,  // measure 84
0010
0010
1001
0000
,  // measure 85
1000
0100
1000
0100
1000
0001
0010
0001
,  // measure 86
1000
0100
0010
0100
1000
0001
0100
0001
,  // measure 87
0010
0100
0010
0100
0010
0001
0100
0001
,  // measure 88
1000
0010
1000
0010
1000
0100
0010
0100
,  // measure 89
1000
0010
0001
0010
0100
0001
1000
0100
,  // measure 90
0010
0001
0010
0100
0001
0100
1000
0001
,  // measure 91
0010
0001
0100
0010
1000
0010
0100
1000
,  // measure 92
0100
0001
1000
0001
0010
0100
0010
0001
,  // measure 93
0100
0001
1000
0010
1000
0010
1000
0001
,  // measure 94
0100
1000
0100
0001
1000
0010
0100
0001
,  // measure 95
1000
0100
1000
0100
1000
0001
0010
1000
,  // measure 96
0010
0001
0100
0010
1000
0001
0010
1000
,  // measure 97
0010
0100
0010
0100
1000
0010
0001
0010
,  // measure 98
1000
0100
0001
0100
1000
0010
0100
0001
,  // measure 99
1000
0000
0001
1000
0001
0000
1000
0000
,  // measure 100
2002
0000
0000
3003
,  // measure 101
0220
0000
0000
0000
,  // measure 102
0000
0000
0330
0000
1000
0100
0010
0001
,  // measure 103
1000
0100
0010
0001
0100
0010
1000
0100
,  // measure 104
0010
0001
1000
0001
0100
0000
0000
0000
;

//---------------dance-single - ----------------
#NOTES:
     dance-single:
     :
     Hard:
     16:
     0.675144,0.940700,0.112524,0.247553,0.446345,630.000000,615.000000,15.000000,33.000000,0.000000,0.000000,0.675144,0.940700,0.112524,0.247553,0.446345,630.000000,615.000000,15.000000,33.000000,0.000000,0.000000:
0000
0000
0000
0000
,
0000
0000
0000
0000
,
0000
0000
0000
0000
,
0000
0000
0000
0000
,
0002
0000
0000
2003
0000
0000
3020
0000
,
0000
2030
0000
0000
3200
0000
0320
0000
,
0032
0000
0000
2003
0000
0000
3020
0000
,
0000
0230
0000
0000
0302
0000
2003
0000
,
3001
0000
0000
0010
0000
0000
0100
0000
0000
1000
0000
0000
0001
0100
0001
0100
,
0001
0000
0000
1000
0000
0000
0100
0000
0000
0010
0000
0000
0001
0100
0001
0100
,
0001
0000
0000
0010
0000
0000
0100
0000
0000
1000
0000
0000
0001
0000
0100
0000
,
0001
0000
0000
0010
0000
0000
1000
0000
0000
0100
0000
0000
0010
0001
0010
0001
,
0000
0000
0010
1001
,
1000
0100
0000
0000
1000
0000
0001
0100
0000
0000
0001
0000
1000
0100
0000
0000
,
1000
0000
0001
0100
0000
0000
0001
0000
1000
0100
0000
0000
1000
0010
0000
0000
,
0100
0000
0000
1000
0000
0000
0100
0000
0000
1000
0000
0000
0100
0000
0000
0010
,
0000
0000
0001
0000
0000
1000
0001
0000
1000
0000
0001
0000
1000
0000
0001
0000
,
0001
0100
0000
0000
0001
0000
1000
0100
0000
0000
1000
0000
0001
0100
0000
0000
,
0001
0000
1000
0100
0000
0000
1000
0000
0001
0100
0000
0000
0001
0100
0000
0000
,
0001
0000
0000
0001
0000
0000
0001
0000
0000
0001
0000
0000
1000
0000
0000
1000
,
0000
0000
1000
0000
0000
1000
0100
0000
0010
0000
0010
0000
0010
0000
0010
0000
,
0220
0000
0000
0000
0330
0000
0001
0100
0000
0000
1000
0000
0010
1000
0000
0000
,
0100
0000
0001
0100
0000
0000
1000
0000
0010
0100
0000
0000
1000
0100
0000
0000
,
0001
0000
0000
0001
0000
0000
0001
0000
0000
0001
0000
0000
0001
0000
0000
0001
,
0000
0000
0100
0000
0000
0100
0000
0000
0001
0010
0001
0000
0100
0010
0100
0000
,
0010
1000
0000
0000
0100
0000
0010
0100
0000
0000
0001
0000
1000
0100
0000
0000
,
0001
0000
1000
0100
0000
0001
0100
0000
1000
0010
0000
0001
0010
0000
0100
0000
,
0001
1000
0001
1000
0001
0100
0010
0100
,
0001
0100
0001
0100
0001
0000
0110
0000
,
1000
0000
0100
0010
0000
0100
0001
0000
0100
0010
0000
1000
0010
0000
0100
0000
,
0001
0000
0010
0100
0000
0010
1000
0000
0010
0100
0000
0001
0100
0000
0010
0000
,
1000
0000
0100
0010
0000
0100
0001
0000
0100
0010
0000
1000
0100
0000
0001
0000
,
1000
0000
0001
1000
0000
0001
1000
0000
0010
0000
0100
0010
0000
0000
1001
0000
,
0001
0000
0100
0001
0000
1000
0001
0000
0100
0001
0000
1000
0001
0000
0010
0000
,
0001
0000
1000
0001
0000
0100
0001
0000
1000
0001
0000
0010
0001
0100
0001
0010
,
0001
0000
1000
0100
0000
1000
0010
0000
1000
0001
0000
1000
0100
0000
0010
0000
,
0100
0000
0001
0100
0001
0000
1000
0000
0001
1000
0001
0100
0010
0100
0010
0100
,
0010
0000
0010
1000
0000
1000
0100
0000
0100
0001
0000
0001
0100
0000
1000
0000
,
0010
0000
0010
0001
0000
0001
0100
0000
0100
1000
0000
1000
0100
0000
0001
0000
,
0010
0000
0010
0100
0000
0100
0001
0000
0001
1000
0000
1000
0001
1000
0001
1000
,
0100
0000
0100
1000
0000
1000
0010
0000
0010
0000
0001
1000
0001
0000
1000
0001
,
1000
0000
0010
1000
0000
0010
1000
0000
0001
0000
1000
0001
1000
0000
0100
0000
,
0010
0000
0100
0001
0000
0100
0001
0000
1000
0001
0000
1000
0001
0000
0010
0000
,
0001
0000
0100
0001
0000
0100
0001
0000
1000
0010
0000
1000
0010
0000
0100
0000
,
0001
0000
1000
0000
0001
0100
0000
0001
1000
0000
0000
0000
0220
0000
0000
0000
,
0330
0000
0000
0000
0000
0000
0000
0000
2002
0000
0000
3003
0000
0000
0000
0000
,
0000
0000
0000
0000
0220
0000
0000
0330
0000
0000
0000
0000
0000
0000
0000
0000
,
2002
0000
0000
3003
0000
0000
0000
0000
0000
0000
0000
0000
2002
0000
3003
0000
,
1000
0000
0001
0000
0010
0000
0001
0000
0010
0000
0001
0000
0200
0000
0001
0300
,
1000
0001
0010
0001
0010
0001
0001
0001
,
0001
0000
0100
0000
1000
0000
1000
0000
0100
0000
0001
0000
0010
0000
0000
1000
,
0000
0000
0010
0000
0000
0001
0000
0000
0010
0000
1000
0000
0001
0000
0010
0000
,
0100
1000
0000
0000
0000
0000
0000
0000
,
0001
0000
1000
0000
0010
1000
0010
1000
,
0010
1000
0010
1000
0010
0000
0100
0000
,
0001
0000
0100
0000
0001
0100
0001
0100
,
0001
0100
0001
1000
,
0001
0000
1000
0000
0001
1000
0001
1000
,
0001
0000
1000
0001
0000
1000
0001
1000
,
0001
0000
1000
0001
1000
0001
1000
0001
,
1000
0100
0010
0001
,
1000
0000
0001
0000
0100
0001
0100
0001
,
0100
0000
0001
0100
0000
0001
0100
0000
,
1000
0010
0000
1000
0010
1000
0010
1000
,
0010
0000
0100
0001
0100
0001
0100
0001
,
0200
0000
0320
0000
,
1030
0001
1000
0001
1000
0001
1000
0001
,
1000
0000
0001
0100
0001
0000
0100
0000
,
0010
1000
0010
0000
,
1000
0001
1000
0001
1000
0001
1000
0001
,
1000
0010
0100
0001
,
0100
0010
0100
0010
0100
0010
0100
0000
,
0001
0000
0100
1000
,
0001
0100
0001
0100
0001
0100
0001
0000
,
1000
0100
0001
0010
,
1000
0001
1000
0001
1000
0001
1000
0000
,
0010
0000
1001
1001
,
1001
0000
0010
1000
,
0001
0100
0001
0100
0001
0100
0001
0000
,
0010
0001
1000
0001
,
0100
0010
0100
0010
0100
0010
0100
0010
,
0100
0000
0020
0030
,
0001
1000
0001
0000
0001
1000
0001
1000
,
0200
0300
0001
0001
,
0010
0010
1001
0000
,
1000
0000
0001
1000
0001
0000
1000
0000
,
0001
0100
0010
0100
,
0010
0000
0100
0010
0100
0000
0001
0000
,
1000
0001
1000
0001
,
0100
0001
0100
0001
0100
0000
0001
0000
,
1000
0001
1000
0001
1000
0000
0001
0000
,
1000
0000
0010
1000
0010
0000
0010
1000
,
0010
0000
0100
0001
0100
0000
0100
0001
,
0100
0010
0100
0010
,
1000
0001
1000
0001
,
0100
0010
0100
0000
0010
0100
0010
0000
,
1000
0001
1000
0000
0001
1000
0001
0000
,
0100
0001
0100
0001
1000
0010
1000
0010
,
0100
0001
0100
0001
1000
0010
1000
0010
,
1000
0000
0001
1000
0001
0000
1000
0000
,
0220
0000
0000
0330
,
2002
0000
0000
0000
,
0000
0000
0000
0000
,
0000
0000
0000
0000
,
0000
0000
3003
0000
;

//---------------dance-single - ----------------
#NOTES:
     dance-single:
     :
     Medium:
     13:
     0.430806,0.509546,0.277559,0.157533,0.168786,402.000000,365.000000,37.000000,21.000000,0.000000,0.000000,0.430806,0.509546,0.277559,0.157533,0.168786,402.000000,365.000000,37.000000,21.000000,0.000000,0.000000:
0000
0000
0000
0000
,
0000
0000
0000
0000
,
0000
0000
0000
0000
,
0000
0000
0000
0000
,
1000
0000
0000
0001
0000
0000
1000
0000
,
0000
0001
0000
0000
2000
0000
3020
0000
,
0130
0000
0000
0010
0000
0000
0100
0000
,
0000
0010
0000
0000
0100
0000
0010
0000
,
0001
0000
0000
0001
0000
0000
1000
0000
0000
1000
0000
0000
0010
0000
0010
0000
,
0100
0000
0000
0100
0000
0000
0010
0000
0000
0010
0000
0000
0100
0000
0100
0000
,
0001
0000
0000
1000
0000
0000
0001
0000
,
1000
0000
0000
0001
0000
0000
1000
1000
,
0000
0000
1000
0001
,
0100
0000
0000
0100
0000
0000
0010
0000
,
0000
0010
0000
0000
1000
0000
1000
0000
,
0001
0000
0000
0001
0000
0000
0100
0000
0000
0100
0000
0000
1000
0000
0000
1000
,
0000
0000
0100
0000
0000
0100
0000
0000
0001
0000
0000
0000
0001
0000
0000
0000
,
1000
0000
0000
0010
0000
0000
0100
0000
,
0000
0001
0000
0000
1000
0000
1000
0000
,
0010
0000
0000
0010
0000
0000
1000
0000
0000
1000
0000
0000
0100
0000
0000
0100
,
0000
0000
0001
0000
0000
0001
0000
0000
0200
0000
0000
0000
0320
0000
0000
0000
,
1030
0000
0000
0001
0000
0000
0100
0000
,
0000
1000
0000
0000
0100
0000
0001
0000
,
0010
0000
0000
0010
0000
0000
0100
0000
0000
0100
0000
0000
0001
0000
0000
0001
,
0000
0000
1000
0000
0000
1000
0000
0000
0010
0000
0000
0000
0010
0000
0000
0000
,
0100
0000
0000
0001
0000
0000
0010
0000
,
0000
1000
0000
0000
0100
0000
0010
0000
,
1000
0000
0000
0001
0000
0000
1000
0000
,
0010
0100
0010
0100
0010
0000
0000
0000
,
0001
0000
0000
0010
0000
0000
0100
0000
0000
1000
0000
0000
0010
0000
0000
0000
,
1000
0000
0000
0100
0000
0000
0010
0000
0000
0001
0000
0000
0100
0000
0000
0000
,
0001
0000
0000
0010
0000
0000
0100
0000
0000
1000
0000
0000
0010
0000
0000
0000
,
0100
0000
0000
0010
0000
0000
1000
0000
0001
0000
0000
1000
0000
0000
0010
0000
,
1000
0000
0000
0100
0000
0000
0001
0000
0000
0010
0000
0000
0100
0000
0000
0000
,
0001
0000
0000
0100
0000
0000
1000
0000
0000
0010
0000
0000
0100
0000
0000
0000
,
0010
0000
0000
1000
0000
0000
0100
0000
0000
0010
0000
0000
0001
0000
0100
0000
,
1000
0000
0000
0100
0000
0000
0010
0000
0000
0100
0000
0000
0010
0000
0001
0000
,
1000
0000
0000
0001
0000
0000
0100
0000
0000
0010
0000
0000
1000
0000
0001
0000
,
0000
0000
1000
0000
0000
1000
0000
0000
0001
0000
0000
0001
0000
0000
0100
0000
,
0001
0000
0000
0010
0000
0000
0100
0000
0000
1000
0000
0000
0010
0000
0100
0000
,
0000
0000
0001
0000
0000
0001
0000
0000
1000
0000
1000
0000
0000
0000
0010
0000
,
1000
0000
0000
0100
0000
0000
0010
0000
0001
0000
1000
0000
0000
0000
0001
0000
,
1000
0000
0000
0100
0000
0000
0010
0000
0000
0001
0000
0000
0100
0000
0010
0000
,
0001
0000
0000
0100
0000
0000
0010
0000
0000
1000
0000
0000
0100
0000
0010
0000
,
0000
0000
0001
0000
0000
0010
0000
0000
0100
0000
0000
0000
2002
0000
0000
0000
,
3003
0000
2002
3003
,
0000
2002
3003
0000
,
2002
3003
0000
0010
,
0000
0001
0000
0001
0000
0001
0010
0000
,
0000
0001
0000
0001
0000
0001
1000
0001
,
1000
0001
1000
0001
1000
0001
1000
0000
,
0000
0100
0000
0000
0001
0000
0010
0000
,
1000
0000
0000
0000
,
0010
0000
1000
0000
,
0001
0100
0001
0100
,
0010
1000
0010
0000
1000
0000
0010
0000
,
0010
0000
0110
0110
,
0110
0000
1000
0000
,
0010
0100
0010
0100
,
0001
0000
0000
1001
0000
0000
1000
0000
,
0010
0000
0101
0000
,
1000
0000
0001
1000
0001
0000
1000
0000
,
0001
0000
0010
0010
,
0100
0100
0001
0001
,
1000
0000
0001
0001
,
0100
0000
0010
0000
,
1000
1000
0001
0000
,
1001
1001
1001
0000
,
1001
0000
0110
0000
,
0100
0010
0100
0010
0100
0010
0100
0000
,
0001
0001
1000
1000
,
0010
0100
0010
0000
0100
0010
0100
0000
,
0001
0000
1000
1000
,
0001
0000
0100
0000
,
0010
1000
0010
0000
1000
0010
1000
0000
,
0001
0000
0000
1001
0000
0000
1000
0000
,
0010
0000
0110
0110
,
0110
0000
1001
0000
,
1000
0100
1000
0000
0100
1000
0100
0000
,
1000
0010
1000
0000
0010
1000
0010
0000
,
1000
0000
0001
1000
,
0001
0000
0200
0320
,
1030
0000
0002
0203
,
0320
0000
0030
0010
,
1000
1000
1000
0000
,
1000
0000
1001
0000
,
1000
1000
1001
0000
,
0001
0000
1001
0000
,
0001
0001
1001
0000
,
0100
0000
0110
0000
,
0010
0010
0110
0000
,
0100
0000
0110
0000
,
0001
0100
1001
0000
,
1100
0000
0101
0000
,
1100
0000
0101
0000
,
1010
0000
0011
0000
,
1010
0000
0011
0000
,
1000
0000
0001
1000
0001
0000
1000
0001
,
1000
0000
0001
1000
0001
0000
1000
0001
,
1000
0000
0001
1000
0001
0000
1000
0000
,
2002
0000
0000
3003
,
2002
0000
0000
0000
,
0000
0000
0000
0000
,
0000
0000
0000
0000
,
0000
0000
3003
0000
;

//---------------dance-single - ----------------
#NOTES:
     dance-single:
     :
     Easy:
     8:
     0.295777,0.509546,0.067514,0.105022,0.000000,276.000000,267.000000,9.000000,14.000000,0.000000,0.000000,0.295777,0.509546,0.067514,0.105022,0.000000,276.000000,267.000000,9.000000,14.000000,0.000000,0.000000:
0000
0000
0000
0000
,
0000
0000
0000
0000
,
0000
0000
0000
0000
,
0000
0000
0000
0000
,
0010
0000
0000
0001
0000
0000
0100
0000
,
0000
1000
0000
0000
0010
0000
0010
0000
,
0010
0000
0000
1000
0000
0000
0100
0000
,
0000
0001
0000
0000
0010
0000
0010
0000
,
0010
0001
0100
1000
,
0010
1000
0100
0001
,
0010
0001
0100
1000
,
0010
1000
0100
0001
,
0000
0000
0100
0100
,
0010
0000
0000
1000
0000
0000
0001
0000
,
0000
1000
0000
0000
0001
0000
1000
0000
,
0010
0000
0000
0010
0000
0000
0100
0000
,
0000
0100
0000
0000
0010
0000
0010
0000
,
1000
0000
0000
0100
0000
0000
0001
0000
,
0000
0100
0000
0000
1000
0000
1000
0000
,
0001
0000
0000
0100
0000
0000
1000
0000
,
0000
0100
0000
0000
0001
0000
0001
0000
,
1000
0000
0000
0010
0000
0000
0100
0000
,
0000
0001
0000
0000
0010
0000
0100
0000
,
1000
0000
0000
0100
0000
0000
0010
0000
,
0000
0001
0000
0000
1000
0000
1000
0000
,
0001
0000
0000
0010
0000
0000
0100
0000
,
0000
1000
0000
0000
0001
0000
0001
0000
,
1000
1000
0001
0001
,
0100
0100
0100
0000
,
0010
0000
0000
0001
0000
0000
0100
0000
,
0010
0000
0000
1000
0000
0000
0100
0000
,
0010
0000
0000
1001
0000
0000
0100
0000
,
1000
1000
0001
0001
,
0100
0000
0000
1000
0000
0000
0010
0000
,
0100
0000
0000
0001
0000
0000
0010
0000
,
0100
0000
0000
1001
0000
0000
0010
0000
,
1000
0100
0001
0000
,
1000
0000
0000
1000
0000
0000
1000
0000
,
0000
0001
0000
0000
0001
0000
0001
0000
,
0010
0000
0000
0010
0000
0000
0010
0000
,
0000
0100
0000
0000
0100
0000
0100
0000
,
0001
0000
0000
0001
0000
0000
0001
0000
,
0000
1000
0000
0000
1000
0000
1000
0000
,
0010
0000
0000
0010
0000
0000
0100
0000
,
0001
1000
0100
2002
,
3003
0000
2002
3003
,
0000
2002
3003
0000
,
2002
0000
3003
0000
0000
0000
0000
0100
,
0000
0010
0000
0100
0000
0010
0000
1000
,
0000
0001
0000
1000
0000
0001
0100
0010
,
0100
0010
0100
0100
0010
0010
0100
0000
,
0000
0001
0000
0000
0010
0000
1000
0000
,
1000
0000
0000
0000
,
0100
0000
0001
0000
,
1000
0000
0000
1000
0000
0000
1000
0000
,
0100
0100
0100
0000
,
0010
0000
0010
0010
,
0100
0000
0001
0000
,
1000
0000
0001
0000
,
0100
0000
0000
0100
0000
0000
0100
0000
,
0100
0000
1001
0000
,
0010
0000
1000
0000
,
0001
1000
0001
0000
,
0100
0000
0100
0000
,
0010
0000
0010
0010
,
0010
0000
1000
0000
,
0100
0000
0001
0000
,
0010
0100
0010
0100
,
1001
0000
0000
0000
,
2000
0000
0000
0000
,
3001
0000
0001
0000
,
0100
0000
0100
0000
,
0010
0000
0100
0010
,
0100
0000
0100
0000
,
0001
0000
1000
0000
,
0001
0000
0000
1000
0000
0000
1000
0000
,
0001
0000
0100
0000
,
0010
0000
1000
0000
,
0100
0000
0001
0000
,
0010
0010
0010
0000
,
0100
0000
0001
0100
,
0001
0000
1000
0000
,
0020
0000
0000
0000
,
0230
0000
0000
0000
,
0301
0000
0001
0000
,
1000
0000
1000
0000
,
1000
0000
1000
0000
,
0010
0000
0010
0000
,
0010
0000
0010
0000
,
0100
0000
0100
0000
,
0100
0000
0100
0000
,
0001
0000
0001
0000
,
0001
0000
0001
0000
,
1000
1000
1000
0000
,
0010
0010
0010
0000
,
0100
0100
0100
0000
,
0001
0001
0001
0000
,
1000
1000
0010
0010
,
0100
0100
0001
0001
,
1000
0000
0000
0001
1000
0000
0000
0001
,
2000
0000
0000
3000
,
2002
0000
0000
0000
,
0000
0000
0000
0000
,
0000
0000
0000
0000
,
0000
0000
3003
0000
;

//---------------dance-single - ----------------
#NOTES:
     dance-single:
     :
     Beginner:
     5:
     0.170393,0.313567,0.015003,0.075016,0.000000,159.000000,157.000000,2.000000,10.000000,0.000000,0.000000,0.170393,0.313567,0.015003,0.075016,0.000000,159.000000,157.000000,2.000000,10.000000,0.000000,0.000000:
0000
0000
0000
0000
,
0000
0000
0000
0000
,
0000
0000
0000
0000
,
0000
0000
0000
0000
,
0010
0000
0000
0000
,
0000
0000
0000
0000
,
0010
0000
0000
0000
,
0000
0000
0000
0000
,
0010
0000
0000
0000
,
0010
0000
0000
0000
,
0010
0000
0000
0000
,
0010
0000
0000
0000
,
0000
0000
0000
0000
,
0001
0000
1000
0000
,
0001
0000
1000
0000
,
0001
0001
0001
0001
,
0001
0001
0001
0000
,
1000
0000
0001
0000
,
1000
0000
0001
0000
,
1000
1000
1000
1000
,
1000
1000
1000
0000
,
0010
0000
0100
0000
,
0010
0000
0100
0000
,
0010
0010
0010
0000
,
0100
0100
0100
0000
,
1000
0000
0100
0000
,
0001
0000
0100
0000
,
1000
0000
0001
0000
,
1000
1000
1000
0000
,
0010
0010
0010
0000
,
0010
0010
0010
0000
,
0100
0100
0100
0000
,
1000
1000
1000
0000
,
0100
0100
0100
0000
,
0100
0100
0100
0000
,
0010
0010
0010
0000
,
0001
0001
0001
0000
,
2000
0000
3000
0000
,
0200
0000
0300
0000
,
0020
0000
0030
0000
,
0002
0000
0003
0000
,
2000
0000
3000
0000
,
0002
0000
0003
0000
,
0200
0000
0300
0000
,
0010
0000
0000
0010
,
0000
0000
0010
0000
,
0000
0010
0000
0000
,
0010
0000
0000
0010
,
0000
0000
0000
0010
,
0000
0000
0000
1001
,
0000
0000
0000
0000
,
0000
0000
0000
0000
,
0000
0000
0000
0000
,
0000
0000
0001
0000
,
0000
0000
0001
0000
,
0000
0000
1000
0000
,
1000
0000
1000
0000
,
0000
0000
0100
0000
,
0000
0000
0100
0000
,
0000
0000
0010
0000
,
0010
0000
0000
0000
,
0000
0000
0100
0000
,
0000
0000
0100
0000
,
0000
0000
0001
0000
,
0001
0000
0001
0000
,
0000
0000
1000
0000
,
0000
0000
0000
0000
,
0010
0000
0010
0000
,
0010
0000
0000
0000
,
0100
0000
0000
0000
,
0100
0000
0000
0000
,
0001
0000
0000
0000
,
1000
0000
1000
1000
,
1000
0000
0000
0000
,
0001
0000
0000
0000
,
0100
0000
0100
0100
,
0100
0000
0000
0000
,
0010
0000
0000
0000
,
0100
0000
0000
0000
,
0001
0000
0000
0000
,
1000
0000
1000
1000
,
1000
0000
0000
0000
,
0100
0000
0100
0000
,
0200
0000
0000
0000
,
0300
0000
0000
0000
,
0001
0000
0001
0000
,
0001
0000
0001
0000
,
0001
0000
0001
0000
,
0001
0000
0001
0000
,
0001
0000
0001
0000
,
0001
0000
0001
0000
,
0001
0000
0001
0000
,
0001
0000
0000
0000
,
1000
0000
1000
0000
,
1000
0000
0000
0000
,
0100
0000
0100
0000
,
0100
0000
0000
0000
,
0010
0000
0010
0000
,
0010
0000
0010
0000
,
0010
0010
0010
0010
,
0010
0000
0000
0000
,
2002
0000
0000
0000
,
0000
0000
0000
0000
,
0000
0000
0000
0000
,
0000
0000
3003
0000
;
