#TITLE:Warrior;
#SUBTITLE:;
#ARTIST:DJ CHUCKY feat. Jonjo;
#TITLETRANSLIT:;
#SUBTITLETRANSLIT:;
#ARTISTTRANSLIT:;
#GENRE:;
#CREDIT:;
#BANNER:Warrior.png;
#BACKGROUND:Warrior-bg.png;
#LYRICSPATH:;
#CDTITLE:;
#MUSIC:Warrior.ogg;
#OFFSET:-0.100000;
#SAMPLESTART:76.899994;
#SAMPLELENGTH:10.971428;
#SELECTABLE:YES;
#BPMS:0.000000=175.000000
;
#STOPS:
;
#BGCHANGES:0.000=Warrior.avi=1.000=0=0=0=StretchNoLoop====,
99999=-nosongbg-=1.000=0=0=0 // don't automatically add -songbackground-
;
#KEYSOUNDS:;
#ATTACKS:;

//---------------dance-single - ----------------
#NOTES:
     dance-single:
     :
     Hard:
     12:
     0.571819,0.629900,0.298829,0.283101,0.035388,509.000000,471.000000,38.000000,36.000000,0.000000,0.000000,0.571819,0.629900,0.298829,0.283101,0.035388,509.000000,471.000000,38.000000,36.000000,0.000000,0.000000:
0000
0000
0000
0000
,
0000
0000
0000
0000
,
0000
0000
0000
0000
,
0000
0000
0000
0000
,
0000
0000
0000
0000
,
0000
0000
0000
0000
,
0000
0000
0000
0000
,
0000
0000
0000
0000
,
0000
0000
0000
0000
,
0000
1000
0001
1000
0001
1000
0100
1000
,
0100
1000
0001
1000
0100
1000
0100
0010
,
0000
0001
0100
0001
0100
0001
1000
0001
,
1000
0001
0100
0001
0100
0010
1000
0001
,
0000
1000
0100
0010
0001
0100
0010
0100
,
0001
0010
0100
1000
0010
0100
0010
0100
,
0000
1000
0100
0001
0100
1000
0010
0100
,
0000
0001
0100
0010
1001
0000
0110
0000
,
1000
0001
0100
0010
0002
0000
1003
0001
,
1000
0001
0100
0010
0002
0000
1003
0001
,
1000
0100
0010
0100
0002
0000
1003
0001
,
1000
0000
0100
0000
0010
0000
0100
0000
0001
0000
1000
0000
0001
0000
1000
0001
,
1000
0100
0001
0100
0020
0000
1030
0100
,
0010
0000
0100
0000
0001
0000
0100
0000
0010
1000
0010
0000
1000
0000
0100
0000
,
0001
0100
0010
0100
0002
0000
0103
0010
,
2000
0000
3002
0000
,
0103
0010
1000
0001
,
0100
0010
1000
0100
,
0001
0010
0100
1000
,
0001
0100
0010
1000
,
0100
0001
0100
0001
,
1000
0100
1000
0100
,
0001
0010
0001
0010
,
1000
0100
0010
0001
,
1000
0100
1000
0001
,
1000
0100
1000
0001
,
0010
0001
0100
0001
,
0010
0001
0100
0001
,
1000
0100
0001
0100
,
1000
0100
0001
0100
,
1000
0010
0001
0010
,
1000
0100
0001
0100
,
1001
0000
1000
0100
0000
0100
0001
0000
,
1001
0000
0100
0010
0001
0010
0100
0000
,
0010
0001
0010
0001
1000
0010
1000
0000
,
1000
0000
0001
0100
1000
0010
0100
0000
,
1000
0000
1000
0100
0000
0010
0100
0000
,
0001
0000
0001
0010
0100
1000
0010
0000
,
0100
0001
1000
0001
0100
0001
0010
0000
,
1000
0000
0100
0001
1000
0001
0100
0000
,
0001
0000
0010
0001
0000
1000
0100
0000
,
0001
0000
0010
0001
0100
1000
0000
0000
,
0010
0001
0100
0001
1000
0010
0100
0000
,
1000
0100
0010
0001
0100
1000
0000
0000
,
0101
0000
0000
1100
0000
0000
0101
0000
,
1010
0000
0001
0100
0010
1000
0100
0000
,
1100
0101
1100
0101
,
0110
0000
0110
0000
0002
2000
0000
3003
,
0001
0100
0010
2000
0000
3001
0100
0010
,
1000
0100
0010
0002
0000
0103
0010
1000
,
0001
1000
0010
0200
0000
0301
1000
0010
,
0100
0001
1000
0200
0000
0301
0100
1000
,
0100
0001
0100
0002
0000
1003
0100
1000
,
0001
0100
0001
0200
0000
1300
0100
1000
,
0010
0100
0010
0200
0000
1300
0001
1000
,
0010
0100
0010
0000
0100
0000
0100
0000
0100
0000
0000
0000
1001
0000
0000
0000
,
0100
0001
0200
0002
0300
1003
0100
2000
,
3100
0001
0020
0002
0033
0100
1000
0002
,
1003
0010
0200
0020
0330
0001
0100
0020
,
1030
0100
0002
0020
0033
0001
0100
0010
,
1000
0100
0002
0020
0033
1000
0100
0002
,
0103
0010
2000
0200
3300
0010
0100
1000
,
0001
1000
0020
0200
0030
0301
1000
0100
,
2002
3003
1100
0101
,
1001
0000
1100
0000
0001
0010
0100
0000
,
1001
0000
0101
0000
1000
0100
0010
0001
,
1001
0000
0110
0000
1000
0010
0100
0000
,
1001
0000
0000
0000
0110
0000
0000
0100
0001
0000
0000
0100
0001
0000
0100
0000
,
0100
0001
0100
0000
1000
0100
0001
0000
,
1001
0000
0000
0000
0100
0000
0010
0000
0001
0000
0000
0000
1000
0001
1000
0000
,
0110
0000
0000
0000
1001
0000
0000
0000
1000
0000
0000
0010
0001
0000
0000
0000
,
0110
1001
0110
1001
,
1000
0001
1001
0000
1100
0000
0001
0100
,
1000
0000
0100
0000
0001
0000
0100
0000
1000
0000
0000
0000
1100
0000
0000
1000
,
0001
0010
0100
0010
0001
0000
1100
0000
,
0001
0000
0100
0000
0010
0000
1000
0000
0100
0010
0000
0000
0001
0000
0100
0000
,
1000
0010
1000
0010
0100
0001
0100
0000
,
0010
0100
0001
0100
0010
0100
1000
0000
,
0001
0100
0010
1000
0100
0010
0001
0000
,
0100
0000
0001
0100
0010
1000
0000
0000
,
1001
0000
0000
0000
;

//---------------dance-double - ----------------
#NOTES:
     dance-double:
     :
     Hard:
     11:
     0.503291,0.559911,0.180870,0.015728,0.000000,448.000000,425.000000,23.000000,2.000000,0.000000,0.000000,0.503291,0.559911,0.180870,0.015728,0.000000,448.000000,425.000000,23.000000,2.000000,0.000000,0.000000:
00000000
00000000
00000000
00000000
,
00000000
00000000
00000000
00000000
,
00000000
00000000
00000000
00000000
,
00000000
00000000
00000000
00000000
,
00000000
00000000
00000000
00000000
,
00000000
00000000
00000000
00000000
,
00000000
00000000
00000000
00000000
,
00000000
00000000
00000000
00000000
,
00000000
00000000
00000000
00000000
,
00000000
01000000
00100000
01000000
00100000
01000000
00100000
00000000
,
00001000
00010000
00001000
00000000
00000100
00001000
00000100
00001000
,
00000000
00000001
00000100
00000001
00000100
00000010
00000100
00000000
,
00001000
00010000
00001000
00000000
00100000
00010000
00100000
00010000
,
00000000
01000000
00100000
10000000
01000000
00100000
00010000
00000000
,
00001000
00010000
00001000
00000000
00000100
00001000
00000010
00000001
,
00000000
00000010
00000100
00000010
00001000
00000100
00001000
00010000
,
00000000
00001000
00100000
00010000
01000000
00000000
10010000
00000000
,
10000000
00100000
01000000
00000000
00010000
00000000
00001000
00000000
,
00000100
00000010
00000001
00000000
00000010
00000000
00000100
00000000
,
00001000
00100000
00010000
00000000
01000000
00000000
10000000
00000000
,
00100000
01000000
00010000
00000000
00001000
00000000
00000100
00000000
,
00000010
00000001
00000100
00000000
00001010
00000000
00000101
00000000
,
00000010
00000100
00001000
00000000
00011000
00000000
00110000
00000000
,
00010000
01000000
10000000
00000000
10000000
01000000
00010000
00000000
,
00022000
00000000
00000000
00033000
,
00000100
00001000
00000010
00000001
,
00000010
00001000
00000100
00010000
,
00001000
00100000
00010000
01000000
,
10000000
01000000
00010000
00100000
,
00001000
00010000
00000010
00001000
,
00000100
00000001
00000100
00001000
,
00000010
00010000
00001000
00100000
,
00010000
01000000
00100000
10000000
,
01000000
00010000
00100000
00001000
,
00010000
00000010
00000100
00001000
,
00010000
00100000
01000000
10000000
,
00100000
01000000
00010000
00100000
,
00001000
00010000
00000100
00000010
,
00000001
00000010
00000100
00001000
,
00100000
00010000
01000000
10000000
,
01000000
00001000
00010000
00000100
,
00001001
00000000
00000010
00000100
00000000
00001000
00000100
00000000
,
00000010
00000000
00001000
00000100
00001000
00000100
00000000
00000000
,
00001000
00000000
00010000
00000000
00100000
01000000
00100000
00000000
,
10000000
00000000
01000000
00010000
01000000
00010000
00000000
00000000
,
00100000
00000000
00000000
00001000
00000000
00000000
00010000
00000000
,
00000100
00000000
00001000
00000010
00001000
00000010
00001000
00000000
,
00000001
00000000
00000100
00000000
00000100
00000010
00001000
00000000
,
00010000
00000000
00001000
00100000
00001000
00100000
00000000
00000000
,
01010000
00000000
00000000
10100000
00000000
00000000
11000000
00000000
,
00110000
00000000
01000000
00100000
00010000
00001000
00000000
00000000
,
00010000
00000100
00010000
00000100
00010000
00001000
00010000
00000000
,
00001000
00000000
00000100
00000000
00000010
00000001
00000000
00000000
,
00000110
00000000
00000000
00001001
00000000
00000000
00001010
00000000
,
00000100
00000000
00010000
00001000
00010000
00001000
00000000
00000000
,
00010000
00001000
00100000
00000000
00010000
01000000
00100000
00000000
,
10010000
00000000
11000000
00000000
01000000
00010000
00000000
00000000
,
00100000
00000000
00010000
00001000
00000000
00010000
00000100
00000000
,
00001000
00000000
00000010
00000100
00000000
00000001
00000100
00000000
,
00000010
00000000
00001000
00000100
00000000
00010000
00001000
00000000
,
00100000
00000000
00010000
01000000
00000000
00100000
10000000
00000000
,
10000000
01000000
00100000
00010000
01000000
01000000
00010000
00000000
,
00100000
00010000
00001000
00000010
00000100
00000100
00001000
00000000
,
00010000
00000010
00010000
00000100
00000000
00010000
00001000
00010000
,
00100000
00010000
01000000
00100000
01000000
00000000
10010000
00000000
,
10000000
01000000
00100000
00000000
01000000
00100000
00010000
00001000
,
00000100
00000000
00000010
00000000
00000001
00000010
00000100
00001000
,
00010000
00000000
00100000
00000000
00010000
01000000
00100000
10000000
,
01000000
00000000
00100000
00000000
00010000
00000100
00001000
00000010
,
00000100
00000000
00001001
00000000
00000010
00000100
00001000
00100000
,
00010000
00000000
01000000
00000000
01000000
10000000
00100000
00010000
,
01000000
00000000
01000000
00000000
00010000
00001000
00100000
00000000
,
00001000
00010000
00101000
01010000
,
00100000
10000000
01000000
10000000
00100000
01000000
00010000
00000000
,
00010000
00001000
00010000
00000100
00010000
00001000
00000010
00000000
,
00000100
00000001
00000100
00000000
00000010
00001000
00000100
00000000
,
00000100
00010000
00001000
00100000
00010000
01000000
10000000
00000000
,
10000000
01000000
01000000
00000000
00100000
00010000
00010000
00000000
,
00010000
00000100
00001000
00000000
00001000
00000010
00000100
00000000
,
00000001
00000010
00000100
00000000
00000100
00001000
00010000
00000000
,
00100000
00010000
01000000
00100000
10000000
01000000
00010000
00000000
,
10000000
00100000
10000000
00100000
10000000
00010000
01000000
00000000
,
01000000
00001000
00010000
00001000
00010000
00000100
00010000
00000000
,
00001000
00000001
00001000
00000010
00001000
00000100
00001000
00000000
,
00000100
00010000
00001000
00000000
00001000
01000000
00010000
00000000
,
00010000
01000000
00100000
10000000
01000000
00100000
00010000
00000000
,
00010000
00001000
00000100
00000010
00000100
00001000
00000010
00000000
,
00000010
00000000
00001000
00000100
00001000
00000100
00001000
00000000
,
00011000
00000000
00110000
00000000
01000000
00100000
00000000
00000000
,
10010000
00000000
00000000
00000000
;

//---------------dance-double - ----------------
#NOTES:
     dance-double:
     :
     Medium:
     9:
     0.417911,0.489922,0.157278,0.015728,0.000000,372.000000,352.000000,20.000000,2.000000,0.000000,0.000000,0.417911,0.489922,0.157278,0.015728,0.000000,372.000000,352.000000,20.000000,2.000000,0.000000,0.000000:
00000000
00000000
00000000
00000000
,
00000000
00000000
00000000
00000000
,
00000000
00000000
00000000
00000000
,
00000000
00000000
00000000
00000000
,
00000000
00000000
00000000
00000000
,
00000000
00000000
00000000
00000000
,
00000000
00000000
00000000
00000000
,
00000000
00000000
00000000
00000000
,
00000000
00000000
00000000
00000000
,
00000000
00100000
10000000
01000000
,
00100000
00000000
00010000
00000000
00001000
00000100
00000010
00000001
,
00000000
00000010
00001000
00000100
,
00010000
00000000
00001000
00000000
00100000
00010000
00100000
00010000
,
00000000
01000000
00100000
00000000
10000000
01000000
00100000
00000000
,
00100000
00000000
00001000
00000000
00010000
00001000
00010000
00000000
,
00000100
00000000
00001000
00000000
00000010
00000000
00000100
00000001
,
00000000
00000001
00001000
00000000
00000110
00000000
00001001
00000000
,
00000001
00000100
00001000
00010000
,
00100000
10000000
00100000
00000000
01000000
00000000
00010000
00000000
,
00001000
00000010
00001000
00000000
00000001
00000000
00000100
00000000
,
00001000
00010000
00001000
00000000
00100000
00000000
10010000
00000000
,
10000000
01000000
10000000
00000000
01010000
00000000
11000000
00000000
,
00100000
00010000
00100000
00000000
00001000
00000000
00010000
00000000
,
00000100
00001000
00000010
00000000
00000100
00000001
00000010
00000000
,
00002002
00000000
00000000
00003003
,
00000010
00001000
00000010
00001000
,
00000100
00001000
00000100
00010000
,
00001000
00010000
00001000
01000000
,
00010000
10000000
00010000
10000000
,
00100000
10000000
00100000
01000000
,
00010000
00100000
00010000
00100000
,
00010000
00000010
00010000
00000010
,
00001000
00000001
00000100
00000001
,
00000010
00000100
00001000
00000100
,
00000001
00000100
00001000
00000100
,
00000010
00001000
00010000
00001000
,
00000010
00010000
00001000
00100000
,
00010000
01000000
10000000
01000000
,
00010000
00100000
00001000
00010000
,
00000100
00001000
00000100
00000010
,
00000001
00000100
00000010
00001000
,
00000001
00000000
00000000
00000001
00000000
00000000
00000001
00000000
,
00000010
00000000
00000100
00000000
00001000
00001000
00000000
00000000
,
00001000
00010000
00100000
01000000
,
10000000
00000000
00010000
00000000
00100000
00100000
00000000
00000000
,
10000000
00000000
00000000
01000000
00000000
00000000
00100000
00000000
,
00001000
00000000
00010000
00000000
00000100
00000100
00000000
00000000
,
00001000
00000010
00000100
00000001
,
00001000
00000000
00000010
00000000
00000100
00000100
00000000
00000000
,
00001010
00000000
00000000
00000010
00000000
00000000
00001000
00000000
,
00000100
00000000
00010000
00000000
00001000
00100000
00000000
00000000
,
00010000
00000000
01000000
00100000
01000000
00100000
01000000
00000000
,
10000000
00000000
00010000
00000000
01000000
00010000
00000000
00000000
,
00100000
00000000
00000000
00001000
00000000
00000000
00010000
00000000
,
00000010
00000000
00001000
00000000
00000001
00000100
00000000
00000000
,
00000010
00000100
00000010
00000000
00001000
00000001
00001000
00000000
,
00000110
00001001
00000110
00000000
,
00001000
00000000
00010000
00000000
00100000
00000000
01000000
10000000
,
01000000
00000000
00100000
00000000
00010000
00000000
00000100
00000010
,
00000100
00000000
00000001
00000000
00000100
00000000
00000010
00001000
,
00000010
00000000
00000100
00000000
00001000
00000000
00100000
00010000
,
01000000
00000000
00100000
00000000
10000000
00000000
01000000
00100000
,
00010000
00000000
00001000
00000000
00000100
00000000
00000010
00000100
,
00001000
00000001
00000100
00000010
,
00001000
00000000
00000001
00000000
,
00000010
00000000
00000100
00000000
00001000
00000000
00100000
00010000
,
00100000
00000000
01000000
00000000
10000000
00000000
00100000
00010000
,
00100000
00000000
00001000
00000000
00000010
00000000
00000001
00000100
,
00000001
00000000
00001000
00000000
00010000
00000000
00100000
00010000
,
00100000
00000000
01000000
00000000
10010000
00000000
01000000
00100000
,
01000000
00000000
00010000
00000000
00001000
00000000
00000100
00001000
,
00000100
00000010
00000001
00000100
,
00001001
00000000
00001100
00000011
,
00000001
00000100
00001000
00000000
00101000
00000000
00100000
00000000
,
00010000
01000000
10000000
00000000
00100000
00000000
00100000
00000000
,
01000000
00100000
00010000
00000000
00010100
00000000
00000100
00000000
,
00001000
00000100
00000010
00000000
00000001
00000000
00000100
00000000
,
00000010
00000100
00001000
00000000
00101000
00000000
00010000
00000000
,
01000000
00100000
00010000
00000000
00000100
00000000
00001000
00000000
,
00000001
00000100
00001000
00000000
00100000
00000000
01000000
00000000
,
10000000
00000000
01010000
11000000
,
01000000
00010000
00001000
00010000
00000000
00000000
00100000
00000000
,
00010000
00001000
00000100
00001000
00000000
00000000
00000010
00000000
,
00000100
00000001
00000010
00000001
00000000
00000000
00000100
00000000
,
00010000
00001000
00010000
00100000
00000000
00000000
00010000
00000000
,
01000000
00010000
01000000
00100000
00000000
10000000
00100000
01000000
,
00010000
01000000
00100000
01000000
00000000
00000000
00000000
00000000
,
10000000
01000000
00100000
00010000
,
00001000
00000000
00000100
00000010
00000001
00000100
00000000
00000000
,
00001001
00000000
00000000
00000000
;

//---------------dance-double - ----------------
#NOTES:
     dance-double:
     :
     Easy:
     5:
     0.303323,0.419933,0.133687,0.031456,0.000000,270.000000,253.000000,17.000000,4.000000,0.000000,0.000000,0.303323,0.419933,0.133687,0.031456,0.000000,270.000000,253.000000,17.000000,4.000000,0.000000,0.000000:
00000000
00000000
00000000
00000000
,
00000000
00000000
00000000
00000000
,
00000000
00000000
00000000
00000000
,
00000000
00000000
00000000
00000000
,
00000000
00000000
00000000
00000000
,
00000000
00000000
00000000
00000000
,
00000000
00000000
00000000
00000000
,
00000000
00000000
00000000
00000000
,
00000000
00000000
00000000
00000000
,
00010000
10000000
00010000
10000000
,
10000000
01000000
00010000
00000100
,
00001000
00000001
00001000
00000001
,
00000100
00001000
00010000
01000000
,
10000000
00100000
10000000
00100000
,
00010000
00001000
00000010
00000001
,
00000110
00000000
00001001
00000000
,
00001001
00000000
00000000
00000000
,
00100000
00010000
00100000
00010000
,
00100000
00000000
01000000
00000000
10000000
00000000
01000000
10000000
,
01000000
01000000
00010000
00001000
,
00000100
00000000
00000001
00001000
00000001
00001000
00000001
00000000
,
00000010
00000100
00001000
00010000
,
00100000
00000000
01000000
00000000
20000000
30010000
10000000
00000000
,
00010000
00100000
00001000
00010000
,
00000002
00000000
00000000
00000003
,
00000010
00000000
00001000
00000000
,
00000100
00000000
00001000
00000000
,
00100000
00000000
00010000
00000000
,
01000000
00000000
00010000
00000000
,
00000100
00000000
00001000
00000000
,
00000001
00000000
00001000
00000000
,
00010000
00000000
01000000
00000000
,
10000000
00000000
01000000
00000000
,
00010000
00000000
00000100
00000000
,
00001000
00000000
00000010
00000000
,
00001000
00000000
00100000
00000000
,
00010000
00000000
10000000
00000000
,
01000000
00000000
00001000
00000000
,
00010000
00000000
00000100
00000000
,
00000001
00000000
00000100
00000000
,
00010000
00000000
01000000
00000000
,
10000000
00000000
00100000
00000000
,
10000000
00100000
00010000
00000000
,
00001000
00000000
00000010
00000000
,
00001000
00000010
00000001
00000000
,
00000001
00000000
00000100
00000000
,
00000001
00000100
00001000
00000000
,
00010000
00000000
01000000
00000000
,
00010000
01000000
10000000
00000000
,
10000000
00000000
00010000
00000000
,
00001000
00000100
00000001
00000000
,
00000001
00000000
00001000
00000000
,
00010000
01000000
10000000
00000000
,
10000000
00000000
00010000
00000000
,
00001000
00000010
00000001
00000000
,
00000001
00000100
00001000
00000000
,
00010000
00100000
10000000
00000000
,
00100000
00100000
00100000
00010000
,
00000100
00000100
00000100
00000001
,
00001000
00001000
00001000
01000000
,
10000000
10000000
00100000
00010000
,
00001000
00001000
00001000
00000100
,
00000001
00000001
00000001
00000010
,
00010000
00010000
00010000
00001000
,
00100000
00010000
10010000
01100000
,
10000000
01000000
00100000
00010000
,
00000100
00010000
00000100
00000001
,
00000001
00000010
00000100
00001000
,
00010000
01000000
10000000
01000000
,
00100000
00001000
00010000
00000010
,
00001000
00000001
00000100
00000010
,
00001000
00010000
00100000
01000000
,
00000000
00000000
01100000
10010000
,
10000000
00100000
01000000
01000000
,
00010000
00100000
00001000
00001000
,
00010000
00000100
00001000
00001000
,
00000010
00000100
00000001
00000001
,
00000100
00000010
00010000
00010000
,
00001000
01000000
00100000
00100000
,
10000000
01000000
00001000
00001000
,
00010000
00000100
00002002
00003003
,
00000010
00001000
00001000
00001100
,
00000100
00010000
00010000
00011000
,
00001000
01000000
01000000
01100000
,
00100000
10000000
10000000
11000000
,
10010000
00000000
00110000
00000000
,
00001100
00000000
00001001
00000000
,
00000001
00000100
00001000
00000000
,
00010000
00100000
10000000
00000000
,
10010000
00000000
00000000
00000000
;

//---------------dance-single - ----------------
#NOTES:
     dance-single:
     :
     Easy:
     5:
     0.303323,0.419933,0.133687,0.031456,0.000000,270.000000,253.000000,17.000000,4.000000,0.000000,0.000000,0.303323,0.419933,0.133687,0.031456,0.000000,270.000000,253.000000,17.000000,4.000000,0.000000,0.000000:
0000
0000
0000
0000
,
0000
0000
0000
0000
,
0000
0000
0000
0000
,
0000
0000
0000
0000
,
0000
0000
0000
0000
,
0000
0000
0000
0000
,
0000
0000
0000
0000
,
0000
0000
0000
0000
,
0000
0000
0000
0000
,
0001
1000
0001
1000
,
1000
0100
0001
0100
,
1000
0001
1000
0001
,
0100
1000
0100
0001
,
1000
0010
1000
0010
,
0001
0010
1000
0010
,
0110
0000
1001
0000
,
1001
0000
0000
0000
,
0010
0001
0010
0001
,
0010
0000
0100
0000
1000
0000
0100
1000
,
0100
0100
0001
0100
,
1000
0000
0001
1000
0001
1000
0001
0000
,
0010
0100
1000
0100
,
0010
0000
0001
0000
2000
3001
1000
0000
,
0001
0010
0100
1000
,
0002
0000
0000
0003
,
0010
0000
1000
0000
,
0100
0000
1000
0000
,
0010
0000
0001
0000
,
0100
0000
0001
0000
,
0100
0000
1000
0000
,
0001
0000
1000
0000
,
0100
0000
0001
0000
,
1000
0000
0001
0000
,
0010
0000
0001
0000
,
0100
0000
1000
0000
,
0010
0000
1000
0000
,
0100
0000
0001
0000
,
0010
0000
1000
0000
,
0001
0000
1000
0000
,
0100
0000
0001
0000
,
1000
0000
0001
0000
,
1000
0000
0010
0000
,
1000
0010
0001
0000
,
0001
0000
0010
0000
,
0001
0010
1000
0000
,
1000
0000
0100
0000
,
1000
0100
0001
0000
,
0001
0000
0100
0000
,
0001
0100
1000
0000
,
1000
0000
0001
0000
,
1000
0100
0001
0000
,
0001
0000
1000
0000
,
0001
0100
1000
0000
,
1000
0000
0001
0000
,
1000
0010
0001
0000
,
0001
0100
1000
0000
,
1000
0010
0001
0000
,
0010
0010
0010
0001
,
0100
0100
0100
1000
,
0010
0010
0010
1000
,
0100
0100
0001
0010
,
1000
1000
1000
0001
,
0100
0100
0100
0010
,
0001
0001
0001
0010
,
0100
0000
1001
0110
,
1000
0100
0010
0001
,
1000
0100
0010
1000
,
0001
0010
0100
1000
,
0001
0010
0100
0001
,
0010
0001
0100
1000
,
0010
0001
1000
0100
,
0010
1000
0100
0001
,
0010
0000
0110
1001
,
0010
0010
0100
0100
,
0001
1000
0001
1000
,
0100
0100
0010
0010
,
1000
0001
1000
0001
,
1000
0100
0001
0100
,
0010
1000
0100
0001
,
0001
0100
1000
0100
,
0010
0001
0220
0330
,
1000
0100
0100
0110
,
0001
0010
0010
0110
,
0001
0100
0100
0110
,
1000
0100
0100
0110
,
1001
0000
0110
0000
,
1001
0000
0110
0000
,
0001
0010
0100
0000
,
1000
0010
0001
0000
,
1001
0000
0000
0000
;

//---------------dance-single - ----------------
#NOTES:
     dance-single:
     :
     Medium:
     9:
     0.448244,0.559911,0.165142,0.062911,0.000000,399.000000,378.000000,21.000000,8.000000,0.000000,0.000000,0.448244,0.559911,0.165142,0.062911,0.000000,399.000000,378.000000,21.000000,8.000000,0.000000,0.000000:
0000
0000
0000
0000
,
0000
0000
0000
0000
,
0000
0000
0000
0000
,
0000
0000
0000
0000
,
0000
0000
0000
0000
,
0000
0000
0000
0000
,
0000
0000
0000
0000
,
0000
0000
0000
0000
,
0000
0000
0000
0000
,
0000
0001
1000
0000
0100
0001
0100
0001
,
0010
0100
0010
0000
0010
0100
0010
0100
,
0000
1000
0010
0000
0100
0010
0100
0000
,
0001
1000
0001
0000
0010
0100
0010
0100
,
0000
0001
0010
0000
1000
0010
1000
0000
,
0100
0010
0100
0000
0100
0010
0100
0010
,
0000
0001
0010
0000
0010
0100
0010
0100
,
0000
1000
0010
0100
0001
0000
0110
0000
,
1000
0000
0100
0000
0001
0000
1000
0100
,
0001
0000
0100
0000
1000
0000
0001
0100
,
1000
0000
0001
0000
0100
0000
1000
0010
,
0100
0000
0001
1000
0001
1000
0001
0000
,
0100
0010
0100
0000
0001
0000
0100
1000
,
0100
0000
0001
0000
0100
0001
0100
0001
,
0100
0010
0001
0100
,
0020
0000
0000
0030
,
1000
0100
0001
0100
,
1000
0100
0010
0100
,
0001
0100
0010
0100
,
0001
0100
0010
0100
,
1000
0100
1000
0010
,
1000
0001
1000
0010
,
1000
0100
0001
0100
,
0010
0100
0001
0100
,
0001
1000
0100
1000
,
0010
1000
0001
1000
,
0010
1000
0100
1000
,
0010
1000
0001
0100
,
0001
0010
0001
0100
,
0001
1000
0001
0010
,
0001
0100
1000
0100
,
0001
0010
1000
0100
,
1001
0000
0010
0100
0000
0001
1000
0000
,
0010
0000
0010
0000
0010
0010
0000
0000
,
1000
0100
0010
0001
,
0100
0000
0110
0000
0001
1000
0000
0000
,
0010
0000
0000
1010
0000
0000
0100
0000
,
0001
0000
1000
0000
0001
1000
0000
0000
,
0010
0000
0010
0000
1000
0001
1000
0000
,
0100
0000
0100
0000
0001
1000
0000
0000
,
0100
0000
0000
0001
0000
0000
0100
0000
,
1000
0000
0010
0000
0001
1000
0000
0000
,
0100
0000
0001
0000
1000
0001
1000
0000
,
0010
0000
0010
0000
1000
0001
0000
0000
,
1000
0000
0000
0001
0000
0000
0100
0000
,
0100
0000
0010
0000
1000
0001
0000
0000
,
0100
0001
0100
0000
0010
1000
0010
0000
,
0100
0100
0200
0300
,
0001
1000
0001
2000
0000
3000
0010
0000
,
0100
0001
0100
0002
0000
0003
1000
0000
,
0010
0100
0010
0200
0000
0300
0001
0000
,
1000
0010
1000
0010
0100
0000
0001
0000
,
0100
0001
0100
0002
0000
0003
1000
0000
,
0010
0100
0010
0200
0000
0300
0001
0000
,
1000
0010
1000
0200
0000
1300
0001
0000
,
1000
0000
0010
1000
0001
0000
1001
0000
,
1000
0100
1000
0100
0000
0000
1001
0000
,
0001
0100
0001
0100
0000
0000
1001
0000
,
0010
0100
0010
0100
0000
0000
1001
0000
,
1000
0100
1000
0100
0000
0000
0011
0000
,
0100
0001
0100
0001
0000
1000
0100
0000
,
1000
0100
1000
0100
0000
0001
0100
0000
,
0010
0100
0010
0100
0000
0001
1000
0000
,
0001
0000
0110
1001
,
1000
0100
1000
0000
0001
0000
0100
0000
,
0001
0100
0001
0000
1000
0000
0100
1000
,
0100
1000
0100
0000
0010
0000
0100
0000
,
0001
0000
1000
0100
1000
0001
1000
0000
,
0010
0100
0010
0000
1000
0000
0100
0000
,
0001
0100
0001
0000
1000
0000
0100
0000
,
0001
0010
0001
0000
1000
0000
0100
0000
,
0010
0001
0100
1001
,
0010
1000
0010
1000
0000
0001
0100
0000
,
0010
1000
0010
1000
0000
0001
0100
0000
,
1000
0100
1000
0100
0000
0010
0001
0000
,
1000
0100
1000
0100
0000
0010
0001
0000
,
1010
0000
0101
0000
,
1010
0000
0101
0000
,
1010
1010
0101
0101
,
0100
0000
0010
1000
0100
0010
0001
0000
,
1001
0000
0000
0000
;

//---------------dance-single - ----------------
#NOTES:
     dance-single:
     :
     Beginner:
     4:
     0.180870,0.279956,0.023592,0.007864,0.000000,161.000000,158.000000,3.000000,1.000000,0.000000,0.000000,0.180870,0.279956,0.023592,0.007864,0.000000,161.000000,158.000000,3.000000,1.000000,0.000000,0.000000:
0000
0000
0000
0000
,
0000
0000
0000
0000
,
0000
0000
0000
0000
,
0000
0000
0000
0000
,
0000
0000
0000
0000
,
0000
0000
0000
0000
,
0000
0000
0000
0000
,
0000
0000
0000
0000
,
0000
0000
0000
0000
,
0010
0000
0010
0000
,
0010
0000
0010
0000
,
0100
0000
0100
0000
,
0100
0000
0100
0000
,
0001
0000
1000
0000
,
0001
0000
1000
0000
,
0010
0010
0010
0010
,
0010
0000
0000
0000
,
1000
0000
0001
0000
,
1000
0000
0001
0000
,
1000
0000
0100
0000
,
0010
0000
0001
0000
,
0001
0000
1000
0000
,
0001
0000
1000
0000
,
0001
0000
0010
0000
,
0100
0000
0000
0000
,
0010
0000
0000
0000
,
0000
0000
0000
0000
,
0100
0000
0000
0000
,
0000
0000
0000
0000
,
0001
0000
0000
0000
,
0000
0000
0000
0000
,
1000
0000
0000
0000
,
0000
0000
0000
0000
,
0010
0000
0001
0000
,
0100
0000
0100
0000
,
0010
0000
1000
0000
,
0100
0000
0100
0000
,
0001
0000
1000
0000
,
0010
0000
0010
0000
,
1000
0000
0001
0000
,
0010
0000
0010
0000
,
0100
0000
1000
0000
,
0010
0000
0010
0000
,
0100
0000
0001
0000
,
0010
0000
0010
0000
,
1000
0000
0001
0000
,
0100
0000
0100
0000
,
0001
0000
1000
0000
,
0100
0000
0000
0000
,
0001
0000
0001
0000
,
1000
0000
1000
0000
,
0001
0000
0001
0000
,
1000
0000
1000
0000
,
0010
0000
0010
0000
,
0100
0000
0100
0000
,
0010
0000
0010
0000
,
0200
0000
0300
0000
,
0001
0000
0001
0000
,
1000
0000
1000
0000
,
0010
0000
0010
0000
,
0100
0000
0100
0000
,
1000
0000
1000
0000
,
0001
0000
0001
0000
,
0100
0000
0100
0000
,
0010
0000
0010
0000
,
0001
0001
0001
0000
,
1000
1000
1000
0000
,
0001
0001
0001
0000
,
0100
0000
0100
0000
,
0010
0010
0010
0000
,
1000
1000
1000
0000
,
0001
0001
0001
0000
,
1001
0000
0010
0010
,
0010
0000
1000
0000
,
0001
0000
1000
0000
,
0100
0000
0001
0000
,
1000
0000
0001
0001
,
0001
0000
0100
0000
,
0010
0000
0100
0000
,
0001
0000
1000
0000
,
0100
0000
0000
1001
,
0000
0000
0100
0000
,
1000
0000
0001
0001
,
0001
0000
1000
0000
,
0001
0000
0100
0100
,
0100
0000
0010
0000
,
0100
0000
0010
0000
,
1000
1000
1000
0000
,
0001
0001
0001
0000
,
1001
0000
0000
0000
;

//---------------dance-single - ----------------
#NOTES:
     dance-single:
     :
     Challenge:
     15:
     0.684161,0.874861,0.660569,0.062911,0.208394,609.000000,525.000000,84.000000,8.000000,0.000000,0.000000,0.684161,0.874861,0.660569,0.062911,0.208394,609.000000,525.000000,84.000000,8.000000,0.000000,0.000000:
0000
0000
0000
0000
,
0000
0000
0000
0000
,
0000
0000
0000
0000
,
0000
0000
0000
0000
,
0000
0000
0000
0000
,
0000
0000
0000
0000
,
0000
0000
0000
0000
,
0000
0000
0000
0000
,
0000
0000
0000
0000
,
1000
0000
0001
0100
0010
0000
0001
0100
0010
0000
0001
0100
0010
0000
0001
0100
,
0010
0000
0001
1000
0100
0000
0001
1000
0100
0000
0001
1000
0100
0000
0010
0000
,
0001
0000
1000
0001
0100
0000
1000
0001
0100
0000
1000
0001
0100
0000
1000
0010
,
0100
0000
1000
0010
0100
0000
1000
0010
1000
0010
1000
0000
0100
0000
0010
0000
,
0000
0000
0001
0000
1000
0000
0100
0000
1000
0001
1000
0000
0100
1000
0010
0000
,
1000
0000
0001
0100
0001
0000
1000
0000
0001
0100
0001
0000
0010
0000
0100
0000
,
0000
0000
1000
0000
0001
0000
0100
0010
0100
0000
0001
0000
1000
0000
0100
0000
,
0000
0001
0010
0100
1000
0000
1001
0000
,
1010
0010
1010
0000
0101
0000
1100
0000
,
0101
0100
0101
0000
0110
0000
1001
0000
,
0110
1000
1100
0000
1001
0000
0110
0000
,
0110
0001
0011
0000
1001
0000
1100
0010
,
0100
0110
0010
0000
1001
0000
1000
1100
,
0100
0000
0001
0000
0100
0000
0000
0000
0001
1000
0001
1000
0001
0000
0001
0010
,
0100
1000
0010
0000
0100
0001
0010
0000
,
2002
0000
0000
3003
,
1000
0001
1000
0001
,
1000
0001
1000
0010
,
0001
1000
0001
1000
,
0001
1000
0001
0100
,
0010
1000
0100
1000
,
0010
0001
0100
0001
,
0010
0100
1000
0100
,
0010
0100
0001
0100
,
1000
0001
0010
0100
,
0001
1000
0100
0010
,
1000
0001
0100
0010
,
0001
1000
0010
0100
,
1000
0001
0010
0100
,
0001
1000
0100
0010
,
0001
0010
0100
1000
,
1000
0100
0010
0001
,
1100
0000
0000
0000
0100
0000
0001
0000
0100
0010
0100
0000
0001
0000
1000
0000
,
0100
0000
0000
0000
0001
0000
1000
0000
0001
0100
0001
0000
1000
0000
0010
0000
,
0100
0000
0001
0000
0100
0000
0010
0000
1000
0010
1000
0000
0100
0000
0010
0000
,
1000
0000
0100
0000
0001
0000
0100
0000
0010
0100
0010
0000
1001
0000
0000
0000
,
1000
0000
0100
0000
0001
0000
0100
0000
0010
1000
0010
0000
0100
0000
0001
0000
,
1000
0000
0100
0000
0010
0000
0001
0000
0100
0001
0100
0000
0010
0000
1000
0000
,
0001
0000
0100
0000
0010
0000
1000
0000
0100
1000
0100
0000
1000
0000
0010
0000
,
0100
0000
0001
0000
1000
0000
0001
1000
0001
1000
0001
0000
0100
0000
0010
0000
,
1000
0000
1001
0000
0110
0000
0001
0010
,
1000
0000
0110
0000
1001
0000
1000
0010
,
1010
0000
0101
0000
1010
0000
0001
0100
,
0101
1010
0101
1100
,
0001
0100
0010
1000
0001
1000
0010
0100
,
0001
1000
0100
0010
0001
0100
0010
1000
,
0001
0100
0001
0000
1000
0100
1000
0000
0010
0100
0010
0000
0001
1000
0001
0000
,
1000
0000
0100
0010
0002
2000
0000
3003
,
0010
0000
0001
0000
0100
0010
0001
0000
1000
0000
0010
0000
0100
0000
0001
0000
,
1000
0000
0010
0000
0100
0001
1000
0000
0010
0000
0100
0000
0001
0000
1000
0000
,
0010
0000
0100
0000
1000
0001
0100
0000
0010
0000
1000
0000
0100
0000
0010
0000
,
0001
0000
0100
0000
0001
1000
0001
0000
0100
0010
0100
0010
0100
0000
0001
1000
,
0001
0000
0100
0000
0010
0000
1000
0000
0001
0000
0010
0000
0100
0000
1000
0001
,
0100
0000
0010
0000
1000
0000
0100
0000
0010
0000
0001
0000
0100
0000
0010
1000
,
0010
0000
0001
0000
0100
0000
0010
0000
1000
0000
0100
0000
0010
0000
0001
0100
,
0001
1000
0001
0000
0100
0000
1000
0100
1000
0000
0000
0000
0010
0000
0000
0000
,
1100
0100
0100
0000
0101
0000
1100
0010
,
0011
0010
0010
0000
0101
0000
1000
1000
,
1100
1000
1000
0000
0101
0000
0010
0100
,
0110
0100
0010
0000
1001
1000
0100
0001
,
1001
0010
0100
2000
0000
3001
0100
0010
,
1000
0100
0010
0002
0000
1003
0100
0010
,
1000
0001
0100
0010
0000
1000
0001
0100
,
2002
3003
1100
0101
,
1001
0000
0010
1010
0010
0000
0101
0000
,
1000
0000
1100
0000
1000
0000
0000
0000
0101
0000
0000
0000
0110
0000
0010
1000
,
0010
0000
1000
1100
1000
0000
0101
0000
,
0010
0000
0011
0000
0010
0000
0000
0000
0101
0000
0010
0000
1000
0000
0100
1000
,
0100
0010
1000
1001
1000
0000
0110
0000
,
0001
0000
1001
0000
0001
0000
0000
0000
0110
0000
1000
0000
0001
0100
0010
1000
,
0100
0000
0000
0000
1010
0000
0000
0000
0101
0000
1000
0001
0100
0000
0001
1000
,
0100
0000
0010
1001
,
1100
0100
0100
0000
0101
0000
1100
0000
,
0011
0010
0010
0000
1010
0000
0011
0000
,
0110
0010
0010
0000
1001
0000
0110
0000
,
1100
0100
0100
0000
0101
0100
0100
0000
,
1001
0010
1001
0010
,
1001
0100
1001
0100
,
0001
0010
0100
1000
0100
0010
0001
0000
,
1100
0000
0011
0100
1010
0100
0011
0000
,
1001
0000
0000
0000
;

//---------------dance-double - ----------------
#NOTES:
     dance-double:
     :
     Challenge:
     14:
     0.594288,0.699889,0.440380,0.086503,0.066843,529.000000,473.000000,56.000000,11.000000,0.000000,0.000000,0.594288,0.699889,0.440380,0.086503,0.066843,529.000000,473.000000,56.000000,11.000000,0.000000,0.000000:
// measure 0
00000000
00000000
00000000
00000000
,  // measure 1
00000000
00000000
00000000
00000000
,  // measure 2
00000000
00000000
00000000
00000000
,  // measure 3
00000000
00000000
00000000
00000000
,  // measure 4
00000000
00000000
00000000
00000000
,  // measure 5
00000000
00000000
00000000
00000000
,  // measure 6
00000000
00000000
00000000
00000000
,  // measure 7
00000000
00000000
00000000
00000000
,  // measure 8
00000000
00000000
00000000
00000000
,  // measure 9
00000000
10000000
00010000
00100000
00001000
00010000
00000100
00001000
,  // measure 10
00000010
00000100
00000001
00001000
00000010
00000100
00001000
00010000
,  // measure 11
00000000
00010000
01000000
00100000
10000000
01000000
00010000
00100000
,  // measure 12
00001000
00010000
00000100
00001000
00000010
00000001
00000100
00001000
,  // measure 13
00000000
00000010
00001000
00000100
00010000
00001000
01000000
00100000
,  // measure 14
10000000
01000000
00010000
00100000
00001000
00000100
00000010
00000001
,  // measure 15
00001000
00000000
00000100
00000000
00010000
00000000
00001000
01000000
00001000
01000000
00001000
00000000
01000000
00000000
00100000
00000000
,  // measure 16
00000000
10000000
00010000
00100000
00001000
00000000
00000110
00000000
,  // measure 17
00000001
00000000
00001100
00000000
00010000
00100000
10000000
00000000
,  // measure 18
01000000
00000000
00110000
00000000
00001000
00000100
00000001
00000000
,  // measure 19
00000010
00000000
00001100
00000000
00010000
00100000
10000000
00000000
,  // measure 20
01000000
00000000
00000000
00000000
00100000
00000000
00010000
00000000
00000100
00000000
00001000
00000000
00000100
00000010
00001000
00000001
,  // measure 21
00000100
00000010
00001000
00000000
00000100
00000000
00010000
00001000
,  // measure 22
00010000
00100000
01000000
10000000
00100000
01000000
00001000
00010000
,  // measure 23
00000100
00000011
00001100
00011000
,  // measure 24
00220000
00000000
00000000
00330000
,  // measure 25
10000000
00010000
10000000
00010000
,  // measure 26
01000000
00001000
00010000
00000100
,  // measure 27
00001000
00000001
00001000
00000001
,  // measure 28
00000100
00010000
00001000
01000000
,  // measure 29
00100000
10000000
00100000
10000000
,  // measure 30
00010000
00100000
00010000
00000010
,  // measure 31
00001000
00000100
00001000
00000001
,  // measure 32
00000010
00010000
00001000
00100000
,  // measure 33
10000000
01000000
00010000
00100000
,  // measure 34
00001000
00000100
00000001
00000010
,  // measure 35
00000001
00000100
00001000
01000000
,  // measure 36
00100000
00010000
01000000
10000000
,  // measure 37
00100000
00010000
00001000
00000100
,  // measure 38
00000001
00000010
00001000
00010000
,  // measure 39
00100000
01000000
10000000
00100000
,  // measure 40
00010000
00001000
00000100
00000001
,  // measure 41
00000110
00000000
00001001
00000000
00000001
00000100
00001000
00000000
,  // measure 42
00001100
00000000
00000101
00000000
00000100
00010000
00001000
00000000
,  // measure 43
00100000
00000000
10010000
00000000
01000000
10000000
00110000
00000000
,  // measure 44
01000000
00000000
00001000
00000000
00010000
00000000
00000100
00001000
00000100
00001000
00000100
00000000
00001000
00000000
00000010
00000000
,  // measure 45
00000100
00000000
00001001
00000000
00000100
00001000
00010000
00000000
,  // measure 46
00100000
00000000
10010000
00000000
01000000
00100000
00010000
00000000
,  // measure 47
00001000
00000000
00000110
00000000
00000001
00000100
00001000
00000000
,  // measure 48
00010000
00000000
01000000
00000000
00100000
00000000
10000000
01000000
00100000
01000000
10000000
00000000
00010000
00000000
01000000
00000000
,  // measure 49
00100000
00000000
10100000
00000000
00110000
00000000
00100000
00001000
,  // measure 50
00010000
00000000
00001100
00000000
00000110
00000000
00000001
00000100
,  // measure 51
00001000
00000000
00001100
00000000
00110000
00000000
00010000
01000000
,  // measure 52
10100000
00000000
01000000
00100000
00010000
00000100
00001000
00000010
,  // measure 53
00000100
00000100
00000100
00000100
00010000
00010000
00010000
00010000
,  // measure 54
00001000
00001000
00001000
00001000
01000000
01000000
01000000
00010000
,  // measure 55
10000000
00000000
01000000
00100000
00001000
00010000
00000100
00000000
,  // measure 56
00001010
00000000
00000100
00001000
00000100
00000020
00000000
00000000
,  // measure 57
00000130
00001000
00100000
00020000
00000000
01030000
00100000
10000000
,  // measure 58
01000000
00010000
00100000
00002000
00000000
00013000
00000010
00000100
,  // measure 59
00000001
00001000
00000100
00020000
00000000
00031000
00100000
00010000
,  // measure 60
01000000
00000000
00100000
00000000
10000000
00000000
01000000
00000000
00001000
00010000
00001000
00010000
00001000
00000000
00010000
00000000
,  // measure 61
00000100
00001000
00000001
00000020
00000000
00000031
00001000
00000100
,  // measure 62
00010000
00001000
01000000
00020000
00000000
10030000
00100000
01000000
,  // measure 63
00001000
00010000
00000100
00002000
00000000
00003010
00000100
00000001
,  // measure 64
00001000
00000010
00000100
00001000
00100000
01000000
10000000
00100000
,  // measure 65
01000000
00000000
10010000
00000000
01000000
00000000
00001000
00010000
,  // measure 66
00000100
00000000
00000010
00000000
00001001
00000000
00000100
00010000
,  // measure 67
00001000
00000000
01000000
00000000
10010000
00000000
00100000
00001000
,  // measure 68
00010000
00000000
00000100
00000000
00001001
00000000
00000010
00001000
,  // measure 69
00000100
00010000
00001000
01000000
00010000
10000000
01000000
00010000
,  // measure 70
00100000
00001000
00010000
00000010
00000100
00001000
00000001
00000010
,  // measure 71
00010000
00000000
00001000
00000000
01000000
00000000
00100000
00000000
10000000
00000000
01000000
00000000
00100000
00001000
00010000
00000100
,  // measure 72
00001000
00000000
00000011
00000110
,  // measure 73
00001010
00001010
00001010
00000100
00001000
00000000
00001100
00000000
,  // measure 74
00010000
00001000
00100000
00000000
00110000
00010000
10010000
00000000
,  // measure 75
11000000
01000000
01000000
00010000
00100000
00000000
00101000
00000000
,  // measure 76
00010000
00000100
00001000
00000000
00000010
00000010
00001000
00001000
,  // measure 77
00000001
00000010
00000100
00001000
00000000
00000100
00001100
00000000
,  // measure 78
00010000
00011000
00000000
00001000
01000000
00100000
10000000
01000000
,  // measure 79
00010000
00100000
00001000
00001100
00000000
00000010
00000011
00000000
,  // measure 80
00000001
00000100
00000010
00001000
00000100
00010000
00001000
01000000
,  // measure 81
00100000
11000000
01010000
11000000
,  // measure 82
00110000
00000000
00000000
00000000
00011000
00000000
00000000
00000000
00001010
00000000
00000000
00000000
00000001
00001000
00000100
00000010
,  // measure 83
00000001
00001100
00000101
00001100
,  // measure 84
00011000
00000000
00000000
00000000
00110000
00000000
00000000
00000000
00010000
10000000
00100000
01000000
00010000
00000000
10000000
00100000
,  // measure 85
01000000
00000100
00010000
00000001
,  // measure 86
01000000
00000100
10000000
00001000
,  // measure 87
01000000
00010000
00100000
00001000
00010000
00000010
00000001
00000000
,  // measure 88
00001010
00000000
00001000
00100000
00010000
02000000
00200000
03300000
,  // measure 89
10010000
00000000
00000000
00000000
;
