#TITLE:Wake Me Up!;
#SUBTITLE:;
#ARTIST:Enuoh (feat. Narae);
#TITLETRANSLIT:;
#SUBTITLETRANSLIT:;
#ARTISTTRANSLIT:;
#GENRE:;
#CREDIT:;
#MENUCOLOR:;
#METERTYPE:DDR X;
#BANNER:Wake Me Up!.png;
#BACKGROUND:Wake Me Up!-bg.png;
#LYRICSPATH:;
#CDTITLE:;
#MUSIC:Wake Me Up!.ogg;
#OFFSET:-0.003;
#SAMPLESTART:60.660;
#SAMPLELENGTH:12.430;
#SELECTABLE:YES;
#LISTSORT:;
#DISPLAYBPM:95.000;
#BPMS:0.000=95.000;
#STOPS:;
#BGCHANGES:;
#ATTACKS:;

//---------------dance-double - ----------------
#NOTES:
     dance-double:
     :
     Hard:
     12:
     0.467,0.600,0.422,0.383,0.242:
00000000
00000000
00000000
00000000
,
00000000
00000000
00000000
00000000
,
00000000
00000000
00000000
00000000
,
00000000
00000000
00000000
00000000
,
00100000
00001000
00100000
00001000
00010000
00000100
00010000
00000100
,
00001000
00000001
00001000
00000001
00010000
00000100
00010000
00001000
,
01000000
00010000
01000000
00010000
10000000
01000000
10000000
01000000
,
00100000
00001000
00100000
00001000
00010000
00001000
00010000
00000100
,
00002000
00000000
00000000
00000010
00000000
00000000
00003010
00000000
00000000
00000001
00000000
00000100
00000000
00000000
00000000
00001000
00000000
00000000
00001001
00000000
00000000
00000100
00000000
00000000
,
00010000
00000000
00000000
00000000
00000000
00001000
00000000
00000000
00010000
00000000
00000000
00001000
00000000
00000000
00000000
00010000
00000000
00000000
00001000
00000000
00000000
00100000
00000000
00000000
,
01000000
00000000
00000000
00000000
00000000
00000000
10000000
00000000
00000000
00000000
00000000
01000000
00000000
00000000
00000000
00100000
00000000
00000000
01000000
00000000
00000000
00001000
00000000
00000000
,
00010000
00000000
00000000
00000000
00000000
00000100
00000000
00000000
00000000
00001000
00000000
00000000
00000010
00000000
00000000
00000010
00000000
00000000
00001001
00000000
00000000
00001001
00000000
00000000
,
00001000
00000000
00000000
00000000
00000000
00000000
00001000
00000000
00000000
00000000
00000000
00100000
00000000
00000000
00000000
00010000
00000000
00000000
01000000
00000000
00000000
10000000
00000000
00000000
,
00100000
00000000
00000000
00000000
00000000
01000000
00000000
00000000
00010000
00000000
00000000
01000000
00000000
00000000
00000000
00100000
00000000
00000000
00001000
00000000
00000000
00020000
00000000
00000000
,
00000000
00000000
00000000
00030010
00000000
00000000
00000100
00000000
00000000
00000020
00000000
00000000
00000000
00000000
00000000
00010030
00000000
00000000
00000000
00000000
00000000
00010000
00000000
00001000
,
00200000
00000000
00302000
00000000
01003000
00100000
10000000
00010000
,
01000000
00000000
00100000
01000000
00000000
00100000
01000000
00000000
00000000
10000000
00000000
00010000
00000000
00000000
00000000
01000000
00000000
00000000
00100000
00000000
00000000
00001000
00000000
00000000
,
00010000
00000000
00001000
00010000
00000000
00001000
00010000
00000000
00000000
00000100
00000000
00001000
00000000
00000000
00000000
00000010
00000000
00000000
00000100
00000000
00000000
00001001
00000000
00000000
,
00000001
00000000
00000010
00000001
00000000
00000010
00000001
00000000
00000000
00001000
00000000
00000100
00000000
00000000
00000000
00010000
00000000
00000000
00001000
00000000
00000000
01000000
00000000
00000000
,
00100000
00000000
10000000
00100000
00000000
02000000
00000000
00000000
00000000
03010000
00000000
00000000
10000000
00000000
00000000
01000000
00000000
00000000
00010000
00000000
00000000
00100000
00000000
00000000
,
00001000
00000000
00010000
00000100
00000000
00010000
00000100
00000000
00000000
00001000
00000000
00000010
00000000
00000000
00000000
00000001
00000000
00000000
00001000
00000000
00000000
00001100
00000000
00000000
,
00000100
00000000
00010000
00000100
00000000
00010000
00001000
00000000
00000000
00100000
00000000
00001000
00000000
00000000
00010000
00000000
00000000
00001000
00000000
00000000
00100000
00000000
00000000
00000000
,
00020000
00000000
02030000
00000000
03000000
00010000
10000000
00100000
,
00000000
00000000
00000000
00100000
00000000
00000000
00010000
00000000
00002000
00000000
00000000
00020000
00000000
00000000
00000000
00000000
00000000
00000000
00033000
00000000
00000000
00000000
00000000
00000000
,
00010100
00000000
00000000
00000000
00000000
00001100
00000000
00000000
00000000
00000000
00000000
00000000
00000011
00000000
00000000
00000000
00000000
00000000
00001100
00000000
00000000
00000000
00000000
00000000
,
00010010
00000000
00000000
00000000
00000000
00010100
00000000
00000000
00000000
00011000
00000000
00000000
00000000
00000000
00101000
00000000
00000000
00000000
00110000
00000000
00000000
00000000
00000000
00000000
,
10010000
00000000
00000000
00000000
00000000
10100000
00000000
00000000
00000000
00000000
00000000
00000000
10010000
00000000
00000000
00000000
00000000
00000000
00101000
00000000
00000000
00000000
00000000
00000000
,
00011000
00000000
00000000
00000000
00000000
00010100
00000000
00000000
00000000
00001010
00000000
00000000
00000100
00000000
00000000
00000001
00000000
00000000
00001000
00000000
00000000
00001001
00000000
00000000
,
00000110
00000000
00000000
00000000
00000000
00001010
00000000
00000000
00000000
00000000
00000000
00000000
00001100
00000000
00000000
00000000
00000000
00000000
00010100
00000000
00000000
00000000
00000000
00000000
,
00101000
00000000
00000000
00000000
00000000
00110000
00000000
00000000
00000000
01010000
00000000
00000000
00000000
00000000
10010000
00000000
00000000
00000000
11000000
00000000
00000000
00000000
00000000
00000000
,
10000000
00100000
01000000
00001000
00010000
00000100
00001000
00000010
,
00000001
00000000
00000000
00000000
00000000
00000000
00000100
00000000
00000000
00000000
00000000
00000000
00000010
00000000
00000000
00000000
00000000
00000000
00020000
00000000
00000000
00000000
00000000
00000000
00002000
00000000
00000000
00000000
00000000
00000000
00000000
00000000
00000000
00030000
00000000
00000000
00013000
00000000
00000000
00000000
00001000
00000000
00010000
00000000
00000000
00000000
00000000
00000000
,
00202000
00303000
00110000
01000000
20200000
30300000
00220000
00330000
,
00202000
00000000
00000000
00303000
00000000
00010100
00000000
00000000
00000000
00020200
00000000
00000000
00030300
00000000
00000110
00000000
00000000
00000000
00001001
00000000
00000000
00000100
00000000
00000000
,
00002200
00003300
00000100
00010000
00022000
00033000
00202000
00303000
,
00220000
00000000
00000000
00330000
00000000
01100000
00000000
00000000
00000000
22000000
00000000
00000000
33000000
00000000
01100000
00000000
00000000
00000000
00101000
00000000
00000000
00010000
00000000
00000000
,
00002020
00003030
00000100
00000001
00002020
00003030
00022000
00033000
,
00202000
00000000
00000000
00303000
00000000
00110000
00000000
00000000
00000000
22000000
00000000
00000000
33000000
00000000
00000000
00100000
00000000
00000000
01000000
00000000
00000000
00001000
00000000
00000000
,
00020000
00000000
00000000
00000000
00000000
00031000
00000000
00000000
00000000
00010000
00001000
00010000
00002000
00000000
00000000
00013000
00000000
00000000
00020000
00000000
00000000
00030010
00000000
00000000
,
00000200
00000001
00000001
00000302
00001000
00001000
00001003
00000000
,
00000010
00000000
00000000
00001000
00000000
00000000
00000010
00000000
00000000
00001000
00000000
00000000
00000100
00000000
00000000
00001000
00000000
00000000
00000100
00000000
00010000
00001000
00000000
00010000
,
00001000
00000000
00000000
00010000
00000000
00000000
00001000
00000000
00000000
00010000
00000000
00000000
00001000
00000000
00000000
01000000
00000000
00000000
00010000
00000000
01000000
00010000
00000000
01000000
,
00010000
00000000
00000000
01000000
00000000
00000000
00100000
00000000
00000000
01000000
00000000
00000000
00100000
00000000
00000000
10000000
00000000
00000000
01000000
00000000
10000000
00100000
00000000
10000000
,
00100000
00000000
00000000
01000000
00000000
00000000
00010000
00000000
00000000
01000000
00000000
00000000
00001000
00000000
00000000
00010000
00000000
00000000
00001000
00000000
00100000
00001000
00000000
00010000
,
00001000
00000000
00000000
00010000
00000000
00000000
00000100
00000000
00000000
00010000
00000000
00000000
00000100
00000000
00000000
00001000
00000000
00000000
00000010
00000000
00001000
00000010
00000000
00001000
,
00000010
00000000
00000000
00000100
00000000
00000000
00000001
00000000
00000000
00000010
00000000
00000000
00000100
00000000
00000000
00001000
00000000
00000000
00000010
00000000
00001000
00000010
00000000
00001000
,
00000010
00001000
00000100
00010000
00001000
00010000
00001000
00020000
,
00002000
00000000
00000000
00000000
,
00033000
00000000
00000000
00000000
;

//---------------dance-single - ----------------
#NOTES:
     dance-single:
     :
     Hard:
     12:
     0.472,0.600,0.430,0.375,0.269:
0000
0000
0000
0000
,
0000
0000
0000
0000
,
0000
0000
0000
0000
,
0000
0000
0000
0000
,
0001
1000
0001
1000
0001
0100
0001
0100
,
0001
1000
0001
1000
0001
0010
0001
0100
,
0010
1000
0010
1000
0001
1000
0001
1000
,
0100
1000
0100
1000
0010
1000
0001
0010
,
0002
0000
0000
0000
0000
0000
0013
0000
0000
0001
0000
0100
0000
0000
0000
1000
0000
0000
1001
0000
0000
0100
0000
0000
,
0010
0000
0000
0000
0000
1000
0000
0000
0001
0000
0000
1000
0000
0000
0000
0010
0000
0000
1000
0000
0000
0010
0000
0000
,
1001
0000
0000
0000
0000
0000
0010
0000
0000
0010
0000
0100
0000
0000
0000
1000
0000
0000
0100
0000
0000
0010
0000
0000
,
0001
0000
0000
0000
0000
0100
0000
0000
0000
1000
0000
0000
0010
0000
0000
0010
0000
0000
1001
0000
0000
1001
0000
0000
,
0100
0000
0000
0000
0000
0000
0001
0000
0000
1000
0000
0001
0000
0000
0000
1000
0000
0000
0001
0000
0000
0100
0000
0000
,
0010
0000
0000
0000
0000
0001
0000
0000
0100
0000
0000
0001
0000
0000
0000
0010
0000
0000
1000
0000
0000
0200
0000
0000
,
0010
0000
0000
0310
0000
0000
0001
0000
0000
0020
0000
0000
0100
0000
0000
0130
0000
0000
0000
0000
0000
1000
0000
0001
,
2000
0000
0000
0000
0000
0000
0000
0000
0000
3001
0000
0001
0000
0000
2000
0000
0000
0000
3001
0000
0000
0100
0000
0000
,
0001
0000
0010
0001
0000
0010
0001
0000
0000
1000
0000
0100
0000
0000
0000
0001
0000
0000
0010
0000
0000
1000
0000
0000
,
0100
0000
1000
0100
0000
1000
0100
0000
0000
0001
0000
1000
0000
0000
0001
0000
0000
1000
0000
0000
0001
0000
0000
0000
,
0010
0000
0001
0010
0000
0001
0010
0000
0000
0001
0000
1000
0000
0000
0000
0001
0000
0000
0100
0000
0000
0010
0000
0000
,
1000
0000
0010
1000
0000
0020
0000
0000
0000
1030
0000
0000
0100
0000
0000
0001
0000
0000
0100
0000
0000
0010
0000
0000
,
1000
0000
0001
1000
0000
0001
1000
0000
0000
0001
0000
0100
0000
0000
0000
0010
0000
0000
0100
0000
0000
1001
0000
0000
,
0001
0000
0010
0001
0000
0010
0001
0000
0000
0100
0000
0001
0000
0000
0100
0000
0000
0001
0000
0000
1000
0000
0000
0000
,
2000
0000
3002
0000
0003
0100
1000
0010
,
0000
0000
0000
0010
0000
0000
0100
0000
2000
0000
0000
0200
0000
0000
0000
0000
0000
0000
3300
0000
0000
0000
0000
0000
,
0101
0000
0000
0000
0000
1001
0000
0000
0000
0000
0000
0000
0110
0000
0000
0000
0000
0000
1001
0000
0000
0000
0000
0000
,
0110
0000
0000
0000
0000
1001
0000
0000
0000
1100
0000
0000
0000
0000
1001
0000
0000
0000
0011
0000
0000
0000
0000
0000
,
0101
0000
0000
0000
0000
1010
0000
0000
0000
0000
0000
0000
0110
0000
0000
0000
0000
0000
1001
0000
0000
0000
0000
0000
,
1010
0000
0000
0000
0000
0101
0000
0000
0000
1001
0000
0000
0010
0000
0000
0100
0000
0000
0110
0000
0000
1001
0000
0000
,
0110
0000
0000
0000
0000
1001
0000
0000
0000
0000
0000
0000
1100
0000
0000
0000
0000
0000
0011
0000
0000
0000
0000
0000
,
1100
0000
0000
0000
0000
0110
0000
0000
0000
0011
0000
0000
0000
0000
0101
0000
0000
0000
1010
0000
0000
0000
0000
0000
,
1000
0010
0001
1000
0100
0001
1000
0010
,
0100
0000
0000
0001
0000
0000
0010
0000
0000
1000
0000
0001
0000
0000
2000
0000
0000
0000
3001
0000
0001
1000
0000
0000
,
2020
3030
0110
0001
2020
3030
0220
0330
,
2020
0000
0000
3030
0000
0101
0000
0000
0000
0202
0000
0000
0303
0000
0011
0000
0000
0000
1100
0000
0000
0001
0000
0000
,
2002
3003
0001
0100
2200
3300
2020
3030
,
0220
0000
0000
0330
0000
0011
0000
0000
0000
2002
0000
0000
3003
0000
0011
0000
0000
0000
1010
0000
0000
0100
0000
0000
,
2020
3030
0001
0100
2020
3030
2200
3300
,
2020
0000
0000
3030
0000
0110
0000
0000
0000
2002
0000
0000
3003
0000
0000
0010
0000
0000
0001
0000
0000
1000
0000
0000
,
0200
0000
0000
0000
0000
1300
0000
0000
0000
0100
1000
0100
2000
0000
0000
3001
0000
0000
0002
0000
0000
0013
0000
0000
,
0002
0100
0100
0203
0010
0010
0310
0000
,
0010
0000
0000
1000
0000
0000
0010
0000
0000
1000
0000
0000
0001
0000
0000
1000
0000
0000
0001
0000
1000
0001
0000
1000
,
0001
0000
0000
0010
0000
0000
0001
0000
0000
0100
0000
0000
0001
0000
0000
1000
0000
0000
0001
0000
1000
0001
0000
1000
,
0001
0000
0000
0100
0000
0000
0001
0000
0000
0010
0000
0000
0001
0000
0000
0100
0000
0000
0001
0000
0100
0001
0000
0100
,
0001
0000
0000
0100
0000
0000
0010
0000
0000
1000
0000
0000
0100
0000
0000
1000
0000
0000
0010
0000
1000
0010
0000
1000
,
0010
0000
0000
0100
0000
0000
0001
0000
0000
0100
0000
0000
0001
0000
0000
1000
0000
0000
0010
0000
1000
0010
0000
1000
,
0010
0000
0000
0100
0000
0000
0001
0000
0000
1000
0000
0000
0001
0000
0000
1000
0000
0000
0010
0000
1000
0010
0000
1000
,
0010
1000
0001
0100
0010
0100
0010
2000
,
0002
0000
0000
0000
,
3003
0000
0000
0000
;

//---------------dance-single - ----------------
#NOTES:
     dance-single:
     :
     Medium:
     7:
     0.261,0.281,0.203,0.211,0.000:
0000
0000
0000
0000
,
0000
0000
0000
0000
,
0000
0000
0000
0000
,
0000
0000
0000
0000
,
0010
0010
0010
0001
,
0100
0100
0100
0001
,
0010
0010
0010
1000
,
0100
0100
0100
1001
,
0010
0000
1010
0000
0100
0001
0100
0000
,
0010
0000
0011
0000
0100
1000
0100
0000
,
0001
0000
0101
0000
0010
1000
0010
0000
,
1000
0000
1010
0000
0001
0100
0001
0000
,
1000
0000
1001
0000
1000
0001
0100
0000
,
0001
0000
1001
0000
0001
1000
0100
1000
,
0000
0001
1000
0001
0000
0010
0000
0100
,
0020
0000
0000
0000
0130
0010
0000
0000
,
1000
0100
1000
0000
1000
0000
1010
0000
,
0001
0010
0001
0000
0001
0000
0101
0000
,
0010
0100
0010
0000
0100
0000
0110
0000
,
0001
1000
0001
0000
1000
0000
1001
0000
,
1000
1000
1000
0000
0001
0000
0101
0000
,
0001
0001
0001
0000
1000
0000
1100
0000
,
0010
0010
0010
0000
0100
0000
1001
0000
,
0100
0010
0100
0010
0200
0000
0300
0000
,
0002
0103
1100
0101
,
2000
0000
0000
3000
0000
0000
0002
0000
0000
0003
0000
0000
1000
0000
0000
0000
,
0020
0130
1010
0101
,
0002
0000
0000
0003
0000
0000
2000
0000
0000
3000
0000
0000
0001
0000
0000
0000
,
0200
1300
1001
1100
,
0002
0000
0000
0003
0000
0000
0200
0000
0000
0300
0000
0000
0010
0000
0000
0000
,
0100
0010
0100
0010
,
1000
0000
0001
0000
1000
0001
0100
0100
,
0010
1010
2000
3002
,
0103
0101
0002
2003
,
3010
0110
2000
3002
,
0103
0110
0002
0023
,
1030
1100
2000
3200
,
0310
0011
0002
0023
,
1030
0100
0010
0002
,
2000
0000
3003
0010
,
1000
1000
1000
0100
,
0001
0001
0001
0100
,
1000
1000
1000
0010
,
0001
0001
0001
0010
,
1000
1000
1000
0000
,
0001
0001
0001
0000
,
0100
0000
0020
0000
,
0200
0000
0000
0000
,
0330
0000
0000
0000
;

//---------------dance-double - Copied from----------------
#NOTES:
     dance-double:
     Copied from:
     Medium:
     7:
     0.264,0.281,0.203,0.203,0.000:
00000000
00000000
00000000
00000000
,
00000000
00000000
00000000
00000000
,
00000000
00000000
00000000
00000000
,
00000000
00000000
00000000
00000000
,
00001000
00001000
00010000
00100000
,
00010000
01000000
01000000
00010000
,
00100000
00100000
00001000
00010000
,
00000010
00000010
00000010
00010000
,
00011000
00000000
00110000
00000000
01000000
00010000
01000000
00000000
,
10000000
00000000
11000000
00000000
01000000
10000000
01000000
00000000
,
00010000
00000000
00110000
00000000
00001000
00100000
00001000
00000000
,
00010000
00000000
00011000
00000000
00010000
00000010
00010000
00000000
,
00001000
00000000
00001010
00000000
00000001
00000100
00000001
00000000
,
00001000
00000000
00001100
00000000
00000100
00010000
00000100
00000000
,
00011000
00000000
00011000
00000000
00001000
00100000
00010000
01000000
,
00200000
00000000
00000000
00000000
01300000
00100000
00000000
00000000
,
10000000
01000000
10000000
00000000
10000000
00000000
10100000
00000000
,
00010000
00100000
00010000
00000000
00010000
00000000
00110000
00000000
,
00001000
00100000
00001000
00000000
00010000
00000000
00010100
00000000
,
00001000
00000001
00001000
00000000
00000100
00000000
00000110
00000000
,
00000100
00000100
00000100
00000000
00010000
00000000
00001000
00000000
,
01000000
01000000
01000000
00000000
00001000
00000000
00010000
00000000
,
00000010
00000010
00000010
00000000
00010000
00000000
00011000
00000000
,
00001000
00010000
00001000
00010000
00002000
00000000
00003000
00000000
,
00020000
00030100
00001100
00000101
,
00002000
00000000
00000000
00003000
00000000
00000000
00000002
00000000
00000000
00000003
00000000
00000000
00001000
00000000
00000000
00000000
,
00000200
00010300
00011000
00110000
,
00020000
00000000
00000000
00030000
00000000
00000000
20000000
00000000
00000000
30000000
00000000
00000000
00010000
00000000
00000000
00000000
,
02000000
03010000
10010000
00110000
,
00200000
00000000
00000000
00000000
00000000
00300000
00000000
00000000
00000000
00002000
00000000
00000000
00000000
00000000
00003000
00000000
00000000
00000000
00010000
00000000
00000000
00000000
00000000
00000000
,
00001000
00010000
00000100
00001000
,
00000010
00000010
00000010
00000000
00000001
00000000
00001000
00001000
,
00000010
00001010
00002000
00003100
,
00010000
00011000
00002000
00203000
,
00310000
01100000
20000000
30020000
,
01030000
01010000
00002000
00023000
,
00030100
00001100
00002000
00003200
,
00000310
00000011
00000002
00000023
,
00001030
00000100
00010000
00002000
,
00020000
00000000
00033000
00100000
,
00010000
00010000
00010000
01000000
,
10000000
10000000
10000000
01000000
,
00010000
00010000
00010000
00100000
,
00001000
00001000
00001000
00010000
,
00000100
00000100
00000100
00010000
,
00000010
00000010
00000010
00001000
,
00000001
00000010
00001000
00020000
,
00002000
00000000
00000000
00000000
,
00033000
00000000
00000000
00000000
;

//---------------dance-double - ----------------
#NOTES:
     dance-double:
     :
     Easy:
     2:
     0.110,0.131,0.023,0.023,0.000:
00000000
00000000
00000000
00000000
,
00000000
00000000
00000000
00000000
,
00000000
00000000
00000000
00000000
,
00000000
00000000
00000000
00000000
,
00010000
00000000
00000000
00000000
,
00001000
00000000
00000000
00000000
,
00010000
00000000
00000000
00000000
,
00001000
00000000
00000000
00000000
,
00100000
00000000
00100000
00000000
,
01000000
00000000
01000000
00000000
,
10000000
00000000
10000000
00000000
,
00010000
00000000
00010000
00000000
,
00001000
00000000
00001000
00000000
,
00000010
00000000
00000010
00000000
,
00000100
00000000
00000100
00000000
,
00000001
00000000
00000001
00000000
,
00000010
00000000
00001000
00000000
,
00000010
00000000
00000001
00000000
,
00000100
00000000
00000001
00000000
,
00000100
00000000
00001000
00000000
,
00010000
00000000
00100000
00000000
,
00010000
00000000
01000000
00000000
,
10000000
00000000
00100000
00000000
,
10000000
00000000
01000000
00000000
,
00010000
00000000
00100000
00100000
,
00100000
00000000
10010000
00000000
,
10000000
00000000
01000000
01000000
,
01000000
00000000
00010000
00000000
,
00001000
00000000
00000100
00000100
,
00000100
00000000
00001001
00000000
,
00000100
00000000
00010000
00010000
,
00010000
00000000
00011000
00000000
,
00100000
00000000
10000000
01000000
,
10000000
00000000
00100000
00000000
,
00001000
00000000
00010000
00001000
,
00010000
00000000
00001000
00000000
,
00000010
00000000
00000100
00000010
,
00000100
00000000
00000010
00000000
,
00010000
00000000
00001000
00000000
,
00020000
00000000
00000000
00030000
,
00001000
00001000
00001000
00000000
,
00000100
00000100
00000100
00000000
,
00000001
00000001
00000001
00000000
,
00000100
00000100
00000100
00000000
,
00010000
00010000
00010000
00000000
,
00001000
00000000
00001000
00000000
,
00002000
00000000
00000000
00000000
,
00020000
00000000
00000000
00000000
,
00033000
00000000
00000000
00000000
;

//---------------dance-single - ----------------
#NOTES:
     dance-single:
     :
     Beginner:
     1:
     0.069,0.094,0.047,0.008,0.000:
0000
0000
0000
0000
,
0000
0000
0000
0000
,
0000
0000
0000
0000
,
0000
0000
0000
0000
,
0001
0000
0000
0000
,
0000
0000
0000
0000
,
1000
0000
0000
0000
,
0000
0000
0000
0000
,
0010
0000
0000
0000
,
0100
0000
0000
0000
,
0001
0000
0000
0000
,
1000
0000
0000
0000
,
0010
0000
0000
0000
,
1000
0000
0000
0000
,
0100
0000
0000
0000
,
0001
0000
0000
0000
,
0010
0000
0010
0000
,
0100
0000
0000
0000
,
0100
0000
0100
0000
,
0010
0000
0000
0000
,
1000
0000
1000
0000
,
0010
0000
0000
0000
,
0001
0000
0001
0000
,
0010
0000
0000
0000
,
1000
0000
1000
0000
,
1001
0000
0000
0000
,
0001
0000
0001
0000
,
1001
0000
0000
0000
,
0010
0000
0010
0000
,
0110
0000
0000
0000
,
0100
0000
0100
0000
,
0110
0000
0000
0000
,
1000
0000
1000
0000
,
0001
0000
0001
0000
,
1000
0000
1000
0000
,
1001
0000
0000
0000
,
0001
0000
0001
0000
,
1000
0000
1000
0000
,
0001
0000
0001
0000
,
1001
0000
0000
0000
,
0010
0000
0000
0000
,
0001
0000
0000
0000
,
0100
0000
0000
0000
,
1000
0000
0000
0000
,
0010
0000
0000
0000
,
0001
0000
0000
0000
,
0200
0000
0000
0000
,
0000
0000
0000
0000
,
0300
0000
0000
0000
;

//---------------dance-single - ----------------
#NOTES:
     dance-single:
     :
     Easy:
     2:
     0.110,0.131,0.023,0.023,0.000: // measure 1
0000
0000
0000
0000
,  // measure 2
0000
0000
0000
0000
,  // measure 3
0000
0000
0000
0000
,  // measure 4
0000
0000
0000
0000
,  // measure 5
0001
0000
0000
0000
,  // measure 6
1000
0000
0000
0000
,  // measure 7
0001
0000
0000
0000
,  // measure 8
1000
0000
0000
0000
,  // measure 9
0010
0000
0010
0000
,  // measure 10
0100
0000
0100
0000
,  // measure 11
1000
0000
1000
0000
,  // measure 12
0001
0000
0001
0000
,  // measure 13
1000
0000
1000
0000
,  // measure 14
0010
0000
0010
0000
,  // measure 15
0100
0000
0100
0000
,  // measure 16
0001
0000
0001
0000
,  // measure 17
0010
0000
1000
0000
,  // measure 18
0010
0000
0001
0000
,  // measure 19
0100
0000
0001
0000
,  // measure 20
0100
0000
1000
0000
,  // measure 21
0001
0000
0010
0000
,  // measure 22
0001
0000
0100
0000
,  // measure 23
1000
0000
0010
0000
,  // measure 24
1000
0000
0100
0000
,  // measure 25
0001
0000
0010
0010
,  // measure 26
0010
0000
1001
0000
,  // measure 27
0010
0000
0100
0100
,  // measure 28
0100
0000
0010
0000
,  // measure 29
0100
0000
0010
0010
,  // measure 30
0010
0000
1001
0000
,  // measure 31
0100
0000
1000
1000
,  // measure 32
1000
0000
1001
0000
,  // measure 33
0010
0000
0100
0100
,  // measure 34
0100
0000
0010
0000
,  // measure 35
1000
0000
0001
1000
,  // measure 36
0001
0000
1000
0000
,  // measure 37
0010
0000
0010
0010
,  // measure 38
0010
0000
0010
0000
,  // measure 39
0001
0000
1000
0000
,  // measure 40
0002
0000
0000
0003
,  // measure 41
1000
1000
1000
0000
,  // measure 42
0100
0100
0100
0000
,  // measure 43
0001
0001
0001
0000
,  // measure 44
0100
0100
0100
0000
,  // measure 45
0001
0001
0001
0000
,  // measure 46
1000
0000
1000
0000
,  // measure 47
2000
0000
0000
0000
,  // measure 48
0002
0000
0000
0000
,  // measure 49
3003
0000
0000
0000
;
