#TITLE:Vulcanquiem -The Final Invasion-;
#SUBTITLE:;
#ARTIST:Max & Memme vs dBattleZ;
#TITLETRANSLIT:;
#SUBTITLETRANSLIT:;
#ARTISTTRANSLIT:;
#GENRE:;
#CREDIT:Toxsa;
#BANNER:Vulcanquiem -The Final Invasion-.png;
#BACKGROUND:Vulcanquiem -The Final Invasion--jacket.png;
#LYRICSPATH:;
#CDTITLE:;
#MUSIC:Vulcanquiem -The Final Invasion-.ogg;
#OFFSET:-0.090000;
#SAMPLESTART:107.893692;
#SAMPLELENGTH:11.542862;
#SELECTABLE:YES;
#DISPLAYBPM:88.000000:350.000000;
#BPMS:0.000000=175.000000
,8.000000=350.000000
,12.000000=87.500000
,24.000000=175.000000
,59.000000=169.000000
,60.000000=175.000000
,134.000000=350.000000
,150.000000=175.000000
,157.000000=169.000000
,158.000000=175.000000
,169.000000=173.000000
,170.000000=175.000000
,214.000000=350.000000
,218.000000=352.000000
,236.000000=350.000000
,336.000000=87.500000
,349.000000=175.000000
,350.000000=180.000000
,354.000000=350.000000
,394.500000=175.000000
,398.000000=87.500000
,398.500000=174.990005
,399.500000=175.500000
,405.500000=91.000000
,406.000000=175.000000
,418.000000=350.000000
,439.000000=370.000000
,443.000000=350.000000
,460.000000=175.000000
,462.000000=350.000000
,466.000000=175.000000
,468.000000=350.000000
;
#STOPS:8.000000=0.514286,
9.000000=0.514286,
10.000000=0.514286,
11.000000=0.514286,
178.000000=0.685715
;
#BGCHANGES:;
#KEYSOUNDS:;
#ATTACKS:;

//---------------dance-single - ----------------
#NOTES:
     dance-single:
     :
     Hard:
     14:
     0.761130,1.668707,0.583082,0.459177,0.382647,731.000000,651.000000,80.000000,63.000000,0.000000,0.000000,0.761130,1.668707,0.583082,0.459177,0.382647,731.000000,651.000000,80.000000,63.000000,0.000000,0.000000:
0000
0000
0000
0000
,
0000
0000
0000
0000
,
1001
0110
1001
0110
,
1001
0000
1000
0100
0001
0100
1000
0000
0001
0010
0100
0010
0001
0000
1000
0010
,
0100
0010
1000
0000
0002
0000
0103
0000
1001
0000
1000
0100
0010
0100
1000
0000
,
0001
0100
1000
0100
0001
0000
0010
0100
1000
0100
0001
0000
0010
1000
0100
0000
,
2200
0000
0000
0000
3300
0000
0001
0100
,
0010
0100
0010
0100
1001
0000
1200
0000
,
0301
0201
1300
0120
,
1030
0000
0000
0000
0101
0000
0000
0000
1001
0000
0010
0000
1000
0000
0000
1000
,
0000
0000
0100
0000
1000
0000
0001
0000
0100
0000
0001
0000
0010
0000
0000
0100
,
0000
0000
0001
0000
0010
0000
1000
0000
0002
0000
0000
0103
0000
0000
0010
0000
,
2000
0000
0000
3010
0000
0000
0100
0000
2002
0000
0000
0000
0000
0000
0000
0000
,
0000
3003
1002
0023
,
0230
2300
3002
0023
,
0230
0300
1001
0000
,
0000
0000
0000
0000
,
0000
0000
0110
0100
,
0100
0100
0100
0100
,
0100
0100
1001
0001
,
0001
0001
1010
0010
,
0010
0000
1000
0100
0011
0000
0010
0000
,
0010
0010
0010
0010
,
0010
0000
0000
0000
0010
0000
0000
0000
1100
0000
0000
0001
1000
0000
0100
0000
,
1000
0000
0000
0001
1000
0000
0000
0000
0001
0000
0000
1000
0001
0000
0100
0000
,
0001
0000
0000
1000
0001
0000
0000
0000
0011
0000
0000
0100
0010
0000
0001
0000
,
0010
0000
0000
0100
0010
0000
0000
0000
0100
0000
0000
0010
0100
0000
1000
0000
,
0100
0000
0000
0010
0100
0000
0010
0000
0220
0000
0000
0000
0330
0000
0100
0000
,
0110
0100
0010
0001
0220
0000
0330
0010
,
0110
0010
0100
1000
1001
0000
0110
0000
,
1001
0000
0110
0000
1001
1000
1001
0001
,
1001
1001
1001
0000
1000
0000
0001
0100
,
1000
0000
1001
0000
0001
0000
1000
0100
,
0001
1001
1001
0000
,
0011
1010
0000
1001
,
0010
0101
0000
0101
,
0001
0101
0000
2002
,
0000
0000
3003
0000
0100
0000
0001
0010
,
0100
1001
0110
2002
,
3003
0000
0000
0000
1001
0000
1001
0000
2000
0000
0000
0000
3010
0100
0010
0100
,
0010
0000
0000
0000
0002
0000
0000
0000
0013
0100
0010
0100
0010
0000
0000
0000
,
0020
0000
0000
0000
0130
0001
0100
0001
0100
0000
0000
0000
0002
0000
0000
0000
,
0013
1000
0010
1000
0010
0000
0000
0000
1000
0100
1000
0100
1000
0000
0000
0000
,
0100
0001
0100
0001
0100
0000
0000
0000
0001
0000
0100
0001
1000
0000
0100
1000
,
0001
0000
0000
0000
0000
0000
0001
0000
0000
0000
0000
0000
0010
0000
0000
0100
0000
0000
0010
0000
0000
0100
0000
0000
0020
0000
0000
0000
0000
0000
0000
0000
0030
0000
0000
0000
1001
0000
0000
0000
0000
0000
0000
0000
0000
0000
0000
0000
,
0001
0000
0000
0001
0100
0000
0000
0100
1000
0000
0000
1000
0010
0000
0000
0010
,
0100
0000
0000
0100
0001
1000
0001
1000
0001
0000
0000
0001
0100
0000
0000
0100
,
0010
0100
1000
0100
1000
0100
1000
0010
,
0001
0100
0001
0100
0001
0010
1000
0100
,
1000
0100
1000
0001
0100
0010
0100
0010
,
0100
0001
1000
0010
1000
0010
0100
0001
,
0010
0001
0010
0001
1000
0100
1001
0000
,
0010
1000
0010
1000
0010
0000
0000
0000
0100
0001
0100
0001
0100
0000
0000
0000
,
0010
0100
0010
0100
0010
0000
0000
0000
1001
0000
0000
0000
0000
0000
0000
0000
,
0001
0000
0010
1000
0000
1000
0010
0000
,
0001
0000
0100
0001
0000
0001
0010
0000
,
0001
0000
0100
1000
0000
1000
0100
0000
,
0001
0000
0010
0100
0000
0100
1000
0000
,
2000
0000
3000
0010
,
1000
0100
0001
0100
,
1000
0010
0001
0010
,
1000
0010
0001
0010
,
1000
0010
0100
0000
0001
0000
0010
0000
,
1000
0010
0100
0000
0001
0000
0010
0000
,
1000
0000
0000
1000
0010
0000
0100
0000
,
0001
0010
0001
0000
1000
0001
1000
0000
,
0001
0010
1000
0010
,
0001
0010
1000
0100
,
0001
0000
0100
0000
1000
0010
0100
0001
,
0100
0000
0010
0000
1000
0010
0100
0001
,
0100
0000
0000
0001
0100
0000
0010
0000
,
1000
0100
0001
0010
,
1000
0010
1000
0010
,
0100
0001
0100
0001
,
1000
0100
0001
0100
,
1000
0100
0001
0100
,
1000
0000
0001
0000
0001
0000
0000
0100
,
0010
1000
1000
1000
,
0001
0000
1000
0000
1000
0000
0010
0100
,
0010
0001
1000
0001
,
1000
0100
1000
0000
0001
0000
1000
0001
,
0100
0001
0100
0000
1000
0000
0001
0000
,
0010
0100
0010
0100
0020
0000
0130
0000
,
0020
0130
2002
3003
,
1001
0000
0100
0010
0001
0000
1001
0000
0010
0100
1000
0000
0101
0000
0010
0100
,
1000
0000
0000
0000
0101
0000
0000
0000
1000
0000
0010
0000
0001
0000
0000
0000
1000
0000
0100
0000
0010
0100
0010
0100
0010
0000
0000
0000
0100
0000
0001
0000
,
0010
0100
0010
0100
0010
0000
0000
0000
0100
0000
1000
0000
0001
1000
0001
1000
0001
0000
0000
0000
0100
0000
0010
0000
1000
0001
1000
0001
1000
0000
0000
0000
,
0100
0010
0000
0000
0001
1000
0001
1000
0001
0000
0000
0000
0000
0000
0000
0000
2002
0000
0000
0000
0000
0000
0000
0000
0000
0000
0000
0000
0000
0000
0000
0000
,
3003
1001
1200
0301
,
0120
0000
0000
0000
0000
0000
0130
0000
0010
0000
0100
0000
,
0020
0000
2030
0000
3200
0000
0302
0003
,
0020
0000
2030
0000
,
3001
0000
0010
0000
0100
0000
1000
0000
0010
0000
0100
0000
,
0001
0010
0100
1000
,
0001
1000
0001
0100
0002
0000
0003
0000
,
1000
0000
0001
0000
1000
0000
0002
0000
0003
0000
0000
0000
,
0220
0000
0000
0000
0330
0000
0000
0010
,
0100
0010
0100
0010
0000
0100
0000
0010
,
0100
0000
0010
0000
0100
0000
0010
0000
0000
0000
0000
0000
0010
0000
0001
0010
,
0001
0000
0000
0010
0000
0000
0001
0000
0000
0010
0000
0000
0001
0000
0000
0000
0000
0000
0000
0000
0000
0000
0000
0000
2002
0000
0000
0000
0003
0000
3100
0000
0000
0000
0000
0000
1000
0000
0000
0100
0000
0000
1000
0000
0000
0100
0000
0000
,
1000
0100
1000
0000
0100
0000
0001
0000
0100
0000
0000
0000
0001
1000
0001
1000
,
0001
1000
0001
0000
0010
0000
0100
0000
1000
0000
0000
0000
1000
0000
0000
0000
,
1000
0000
0100
0000
0001
0000
0000
0000
0001
0000
0000
0000
0001
0010
0001
0010
,
0001
0000
0000
0100
0000
0000
0010
0100
0010
0000
1000
0010
1000
0000
0000
0101
,
0000
1000
0010
1000
0020
0000
0000
0030
0110
0000
0000
0000
1000
0000
0001
0000
,
1000
0001
1000
0001
1000
0000
0100
0001
,
0000
0010
1000
0010
1000
0000
0100
0001
,
0100
0001
0000
0101
0000
0101
0000
0100
,
0001
1000
0010
0100
0001
0000
0010
0100
,
0020
0200
0330
0000
0001
0100
2000
0000
,
3020
0030
0020
0030
1100
0000
1000
0000
,
0101
0001
0110
0100
,
1001
0001
0110
0100
,
1100
0100
0101
0100
,
0110
0010
1010
1000
,
2002
0000
0000
3003
0220
0000
0000
0000
,
0000
0000
0000
0000
0000
0000
0000
0330
,
2002
0000
0000
0000
,
0000
0000
0000
0000
,
0000
0000
0000
0000
,
0000
0000
3003
0000
;

//---------------dance-double - ----------------
#NOTES:
     dance-double:
     :
     Hard:
     14:
     0.742388,1.364138,0.706987,0.255098,0.236877,713.000000,616.000000,97.000000,35.000000,0.000000,0.000000,0.742388,1.364138,0.706987,0.255098,0.236877,713.000000,616.000000,97.000000,35.000000,0.000000,0.000000:
00000000
00000000
00000000
00000000
,
00000000
00000000
00000000
00000000
,
11000000
00011000
00001100
00011000
,
10010000
00000000
01000000
00100000
00001000
00000000
00011000
00000000
00010000
00000100
00001000
00000000
00001100
00000000
00000001
00000010
,
00000100
00000000
00000101
00000000
00001000
00000100
00000001
00000000
00001001
00000000
00000010
00000100
00010000
00000000
00011000
00000000
,
00001000
00100000
00010000
00000000
00110000
00000000
10000000
01000000
00100000
00000000
10100000
00000000
10000000
01000000
00100000
00000000
,
20020000
00000000
30030000
02200000
,
00000000
03300000
10010000
11000000
,
10000000
01000000
00010000
00000000
00100000
00000000
00001000
00000000
,
00010000
00000000
00000100
00000000
00001000
00000000
00000000
00000000
00000010
00000000
00000000
00000000
00001001
00000000
00000000
00000100
,
00000000
00000000
00000100
00000000
00000010
00000000
00000000
00000000
00001000
00000000
00000000
00000000
00001100
00000000
00000000
00010000
,
00000000
00000000
00001000
00000000
01000000
00000000
00000000
00000000
00010000
00000000
00000000
00010000
00000000
00000000
01000000
00000000
,
10000000
00000000
00000000
10000000
00000000
00000000
00100000
00000000
00002000
00000000
00000000
00000000
00010000
00000000
00000000
00000000
,
00010000
00013000
00022000
00000000
,
00000000
00000000
00000000
00000000
,
00000000
00033000
00011000
00000000
,
00000000
00000000
00000100
00000000
,
00000000
00000000
00000011
00000010
,
00000010
00000010
00000010
00000010
,
00000010
00000010
00010100
00010000
,
00010000
00010000
01001000
01000000
,
01000000
00000000
01000000
00100000
10010000
00000000
10000000
00000000
,
10000000
10000000
10000000
10000000
,
10000000
00000000
10000000
00000000
10100000
00000000
00100000
01000000
,
00100000
00000000
10100000
00000000
00100000
00000000
00100000
00010000
,
00100000
00000000
00100000
00000000
00110000
00000000
00010000
00001000
,
00010000
00000000
00011000
00000000
00010000
00000000
00010000
00000100
,
00010000
00000000
00010000
00000000
00001010
00000000
00000000
00000010
,
00000110
00000000
00000000
00000100
00000101
00000000
00000000
00000001
,
00001001
00000000
00000000
00001000
00001100
00000000
00001100
00000000
,
00010100
00000000
00010100
00000000
00000100
00010000
00001000
01000000
,
00100000
01000000
00010000
10000000
11000000
00000000
00000000
00000000
,
00011000
00001010
00001001
00000000
,
00001100
00010100
00011000
00000000
,
00100000
10010000
00000000
11000000
,
01010000
10010000
00000000
00101000
,
00100000
00101000
00000000
00022000
,
00000000
00033000
00011000
00000000
,
00001100
00000000
00000110
00000000
00001001
00000000
00000220
00000330
,
00001100
00000000
00000000
00000000
00011000
00000000
00011000
00000000
00010000
00000000
00000000
00000000
00010000
00100000
01000000
00000000
,
10010000
00000000
00000000
00000000
00100000
00000000
00000000
00000000
00010000
01000000
00001000
00000000
00010000
00000000
00000000
00000000
,
00000100
00000000
00001000
00000000
00000001
00000010
00000001
00000100
00000001
00000000
00000000
00000000
00002000
00000000
00000000
00000000
,
00003001
00000100
00000010
00001000
00000100
00000000
00000000
00000000
00001000
00000000
00010000
00000000
00100000
00000000
00000000
00000000
,
00100000
01000000
10000000
00000000
10000000
00100000
01000000
00001000
,
00010000
00000100
00001000
00000010
00000200
00000000
00000301
00000000
,
00001001
00000000
00000000
00001000
00000010
00000000
00000000
00000010
00010000
00000000
00000000
00010000
00001000
00000000
00000000
00001000
,
00010000
00000000
00000000
00001000
00010000
00001000
00010000
00001000
00010000
00000000
00000000
00010000
00000100
00000000
00000000
00000100
,
00001000
00001000
00001000
00000010
00001000
00000010
00000100
00000001
,
00001000
00000100
00001000
00000100
00010000
00001000
01000000
00010000
,
01000000
00010000
10000000
01000000
00100000
00001000
00100000
00001000
,
00010000
00000010
00000100
00000001
00000100
00000001
00000100
00000010
,
00010000
00001000
00010000
00001000
01000000
00100000
10000000
01000000
,
00100000
00010000
00001000
00000100
00000010
00000001
00000010
00000100
,
00001000
00010000
00011000
00000000
00100000
00000000
00000000
00000000
,
00100000
10000000
01000000
00100000
,
00001000
00010000
00100000
10000000
,
01000000
00010000
00001000
00000100
,
00000010
00001000
00000100
00010000
,
00001000
00100000
01000000
00000000
00100000
00000000
10000000
00000000
,
01000000
00100000
00010000
00000000
00001000
00000000
01000000
00000000
,
00100000
01000000
10000000
00000000
01000000
00000000
00010000
00000000
,
00001000
00000100
00000010
00000000
00000001
00000000
00001000
00000000
,
00000010
00000001
00000100
00000000
00001000
00000000
00000010
00001000
,
00000100
00000000
00000010
00000000
00000001
00000010
00001000
00000000
,
00000010
00000000
00000000
00000010
00001000
00000000
00000001
00000000
,
00000100
00000000
00000001
00000000
00000010
00000000
00000001
00000010
,
00000100
00000000
00000001
00000000
00000010
00000000
00000001
00001000
,
00000100
00000000
00000001
00000000
00000010
00000100
00001000
00000000
,
00000010
00001000
00010000
00001000
,
00000010
00001000
00010000
01000000
,
00100000
00000000
00000000
00100000
00010000
00000000
10000000
00000000
,
01000000
00000000
10000000
00000000
00100000
01000000
10000000
00000000
,
01000000
00000000
00010000
00000000
00100000
01000000
00010000
00000000
,
01000000
00000000
00010000
00000000
00100000
01000000
00001000
00000000
,
00010000
00000100
00010000
00000100
00010000
00000100
00010000
00000000
,
00001000
00100000
00001000
00100000
00001000
00100000
00001000
00000000
,
00110000
00000000
00000000
01000000
,
01100000
00000000
10010000
00000000
,
00110000
00000000
00000000
00000000
00100000
00000000
00001000
00100000
,
00001000
00100000
00000000
00000000
00001000
00100000
00000000
00000000
,
00010000
00000000
00001000
00000000
00000100
00000000
00000001
00000010
,
00000000
00000010
00000100
00000000
00010000
00000000
00001000
00000000
,
00022000
00000000
00033000
00000000
00020000
00002000
00033000
00000000
,
00020000
00002000
00033000
00000000
00022000
00033000
00000000
00000000
,
00011000
00000000
00100000
01000000
10000000
00000000
01000000
00000000
00100000
00000000
00001000
00000000
00010000
00000000
00001000
00000100
,
00000010
00000000
00000001
00000000
00000100
00000000
00000010
00000100
00001000
00010000
00001000
00100000
00010000
10000000
00100000
01000000
,
00100000
10000000
00010000
01000000
00001000
00010000
00001000
00010000
00000010
00000100
00000001
00000010
00000100
00000001
00001000
00000000
,
00000010
00001000
00000100
00010000
00001000
00000000
00000000
00000000
00021000
00000000
00000000
00000000
00000000
00000000
00000000
00000000
,
00030000
00000000
00011000
00000000
00110000
00000000
10000000
01000000
,
00010000
00000000
01000000
00001000
00010000
00000000
00000100
00000000
,
00001000
00000010
00000001
00001001
,
00000110
00001001
00001001
00000100
,
00000001
00000100
00001000
00000000
00000100
00010000
00001000
00000000
,
00100000
00010000
01000000
10000000
,
10100000
00000000
10000000
00000000
11000000
00000000
01000000
00001000
,
00010000
00000000
00001000
00000000
00010000
00000000
00022000
00000000
00033000
00000000
00000000
00000000
,
00000020
00000000
00000000
00000000
00000000
00000000
00000000
00000130
,
00000001
00000010
00000001
00000100
00000010
00001000
00000100
00100000
,
00001000
00000000
01000000
00000000
00010000
00000000
10000000
00000000
00000000
00000000
00000000
00000000
10010000
00000000
10000000
01000000
,
10000000
00100000
01000000
00010000
00100000
00000000
00001000
00000000
00020000
00000000
00031000
00000000
00000100
00000010
00000100
00000001
,
00000010
00000001
00001000
00000000
00000100
00000000
00010000
00000000
00001000
00000000
01000000
00000000
00100000
10000000
01000000
10000000
,
00010000
01000000
00100000
00000000
01010000
00000000
12000000
00000000
03100000
00000000
00000000
10000000
00100000
00000000
00000000
10000000
,
00100000
00000000
01000000
00000000
00001000
00000000
00000000
01000000
00001000
00000000
00000000
00010000
00001000
00010000
00001000
00010000
,
00001000
00000000
00010000
00000010
00000000
00001000
00000001
00001000
00000100
00000000
00001001
00000000
00001010
00000000
00000010
00010000
,
00000000
00001000
00010000
00000000
00120000
00000000
00000000
00000000
01030000
00000000
00000000
00000000
00100000
00000000
10000000
00000000
,
01000000
00000000
01000000
00001000
00010000
00000100
00000000
00000100
,
00001000
00000010
00001000
00000001
00000100
00000000
00000010
00001000
,
00000100
00000000
00000100
00010000
00000000
00001000
01000000
00000000
,
00010000
10000000
01000000
00010000
00100000
00001000
00010000
00000010
,
00001000
00000002
00000200
00000003
00001300
00000100
00020000
00000000
,
00031000
01000000
00001000
01000000
00100000
00000000
01000000
00000000
,
01010000
00010000
00011000
00001000
,
00001100
00000100
00000101
00000001
,
00000011
00000010
00001010
00001000
,
00101000
00101000
01010000
01010000
,
10010000
00000000
00002002
00000000
,
00000000
00000000
00000000
00003003
,
00022000
00000000
00000000
00000000
,
00000000
00000000
00000000
00000000
,
00000000
00000000
00000000
00000000
,
00000000
00000000
00000000
00033000
;

//---------------dance-single - ----------------
#NOTES:
     dance-single:
     :
     Beginner:
     6:
     0.235315,0.341103,0.182213,0.109328,0.000000,226.000000,201.000000,25.000000,15.000000,0.000000,0.000000,0.235315,0.341103,0.182213,0.109328,0.000000,226.000000,201.000000,25.000000,15.000000,0.000000,0.000000:
0000
0000
0000
0000
,
0000
0000
0000
0000
,
0010
0010
0010
0010
,
0010
0000
0000
1000
0000
0000
0100
0000
,
0000
0001
0000
0000
0010
0000
0000
0001
,
0000
0000
0100
0000
0000
1000
0000
0000
,
0020
0000
0000
0030
,
0000
0000
1001
0000
,
0010
0000
0010
0000
,
0010
0000
2000
0000
,
0000
0000
0000
0000
,
3000
0000
1000
0000
,
1000
0000
2000
0000
,
3000
0000
0020
0000
,
0000
0000
0000
0030
,
0000
0000
1001
0000
,
0000
0000
0000
0000
,
0000
0000
0010
0000
,
0010
0000
0001
0000
,
0001
0000
1000
0000
,
1000
0000
1000
0000
,
1000
0000
0100
0000
,
0100
0000
0100
0000
,
0100
0000
0010
0010
,
0010
0000
0010
0010
,
0010
0000
0100
0100
,
0100
0000
0100
0100
,
0100
0000
0001
0001
,
0001
0000
1000
1000
,
1000
0000
0010
0010
,
0010
0000
0010
0010
,
0010
0000
1001
0000
,
0000
0000
1001
0000
,
0000
0000
0010
0000
,
0000
0001
0000
0000
,
0000
1000
0000
0000
,
0000
0001
0000
1000
,
0000
0000
1001
0000
,
0000
0010
0010
0000
,
0010
0010
0000
0000
,
1001
0000
0000
1001
,
0000
0000
1001
0000
,
0000
1000
1000
0000
,
0001
0000
1000
1000
,
1000
0000
0001
0000
,
0010
0010
0000
1000
,
1000
0000
0001
0001
,
0000
0100
0100
0000
,
0010
0010
0000
1000
,
1000
0000
0001
0001
,
0000
1000
1000
0000
,
0010
0010
0000
1000
,
0000
0001
0000
1000
,
0000
1001
0000
0000
,
1001
0000
0000
0000
,
0010
0000
0000
0000
,
0100
0000
0000
0000
,
0001
0000
0000
0000
,
0010
0000
0000
0000
,
1000
0000
1000
0000
,
1000
0000
1000
0000
,
0001
0000
0001
0000
,
0002
0000
0003
0000
,
2000
0000
3000
0000
,
0010
0000
0000
0000
,
0100
0000
0100
0000
,
0001
0000
0001
0000
,
1000
0000
1000
0000
,
0020
0000
0030
0000
,
0200
0000
0300
0000
,
2002
0000
3003
0000
,
0010
0000
0010
0000
,
1000
0000
1000
0000
,
0001
0000
0001
0000
,
0200
0000
0300
0000
,
0020
0000
0030
0000
,
1001
0000
0000
1000
,
1000
0000
0000
0000
,
1001
0000
0000
0001
,
0001
0000
0001
0000
,
0010
0010
0010
0000
,
0100
0100
0100
0000
,
1001
0000
0010
0000
,
0010
0000
0020
0030
,
0010
0000
0000
0000
,
0000
0000
0000
0000
,
0000
0000
0000
0000
,
0000
0000
0200
0000
,
0300
1001
1001
0000
,
0000
0000
0000
0000
,
0110
0000
0000
0000
,
0000
0000
1001
0000
,
0000
0000
0000
0000
,
0110
0000
0000
0000
,
0000
0000
1001
0000
,
1000
1000
1000
0000
,
0200
0000
0000
0000
0000
0000
0000
0300
,
0000
0000
0000
0100
0000
0000
0000
0100
,
0000
0000
0000
0100
0000
0000
1001
0000
,
0000
0000
0000
0000
0000
0010
0000
0000
,
0000
0000
0000
0000
0000
0100
0000
0000
,
0000
0000
1000
0000
,
1000
1000
0000
0010
,
0010
0000
0100
0100
,
0000
0001
0001
0000
,
0000
0000
1000
1000
,
1000
0000
0001
0000
,
0000
0000
1000
1000
,
1000
0000
0001
0000
,
1000
0000
0001
0000
,
1000
0000
1001
0000
,
1000
0000
1000
0000
,
0010
0000
0010
0000
,
0010
0000
0100
0000
,
0100
0000
0100
0000
,
1001
0000
1001
0000
,
0000
0000
0000
0000
,
1001
0000
0000
0000
;

//---------------dance-single - ----------------
#NOTES:
     dance-single:
     :
     Easy:
     9:
     0.413363,0.792080,0.400869,0.451888,0.000000,397.000000,342.000000,55.000000,62.000000,0.000000,0.000000,0.413363,0.792080,0.400869,0.451888,0.000000,397.000000,342.000000,55.000000,62.000000,0.000000,0.000000:
0000
0000
0000
0000
,
0000
0000
0000
0000
,
1010
1010
1010
1010
,
2000
0000
3010
0200
0000
0301
0020
0000
,
1030
0002
0000
0103
0020
0000
0130
0002
,
0000
1003
0200
0000
0310
2000
0000
3001
,
0220
0000
0330
1001
,
0100
0010
2001
3000
,
1002
0003
2001
3000
,
1002
0003
0200
0010
,
0000
0310
0002
1000
,
0000
1003
0020
2030
,
3200
0302
2000
0000
,
0000
3003
0220
0000
,
0000
0000
0000
0000
,
0000
0330
1001
0000
,
0000
0000
0000
0000
,
0000
0000
0010
0000
,
0010
0000
0001
0001
,
0001
0001
1000
1000
,
1000
1000
1000
1000
,
1000
1000
0100
0100
,
0100
0100
0100
0100
,
0100
0100
1001
0000
,
1000
0010
1001
0000
,
0001
0010
1001
0000
,
0100
0010
0110
0110
,
0110
0000
1100
0000
,
0101
0000
1100
0000
,
0101
0000
0110
0110
,
1001
0000
1001
0000
1000
0001
1000
0001
,
1000
0001
1000
0001
2002
0000
3003
0000
,
0020
0130
2002
3003
,
0200
0310
1000
0000
,
0100
0100
0000
0100
,
0100
0100
0000
0100
,
0100
0100
0000
0200
,
0000
0300
0100
0002
,
0100
1003
0020
0130
,
2000
0000
3100
0100
0200
0000
0000
0000
,
0310
0002
0000
0103
,
2000
0000
3010
0200
,
0000
0000
0310
0000
1000
0100
1000
0000
,
0001
0100
0001
0000
0010
0000
0010
0000
,
0010
0010
0010
0010
0020
0000
0130
0000
,
0010
0010
0010
1000
,
1000
0000
1000
0001
0100
0000
0100
0000
,
0100
0001
1000
0000
1000
0000
1000
0000
,
0010
0010
0010
0001
,
0001
0001
0100
0100
,
0100
0010
0010
0010
,
1000
1000
1000
0001
,
0000
1000
0000
1000
,
0010
1001
0000
0000
,
0100
0000
1001
0000
,
0010
0000
1001
0000
,
0100
0000
1001
0000
,
0010
0000
1001
0000
,
0200
0000
0300
0001
,
1000
0001
1000
0000
,
0010
1000
0010
0000
,
1000
0100
0010
0000
,
0100
0010
0001
0000
,
0100
0010
0100
0000
,
2002
0000
3003
0000
,
0010
1000
0010
0000
,
0100
0001
0100
0000
,
0010
1000
0010
0000
,
0002
0000
0023
0000
,
0230
0000
2300
0000
,
0002
0000
3003
0000
,
1000
0100
1000
0000
,
0001
0100
0001
0000
,
0010
0100
0010
0000
,
2000
0000
3200
0000
,
0320
0000
0032
0000
,
0103
0000
0100
0100
,
1001
0000
0000
0000
,
1001
0000
0010
0010
,
1001
0000
1001
0000
,
1000
0100
1000
0000
,
0001
0100
0001
0000
,
0020
0000
0100
0000
,
0100
0000
0130
0000
,
1001
0000
0000
0000
,
0000
0000
0000
0000
,
0000
0000
0000
0000
,
0000
0000
0220
0000
,
0330
0110
1001
0000
,
1000
1000
1000
0000
,
1001
0000
0010
0010
,
0010
0000
1001
0000
,
0100
0100
0100
0000
,
1001
0000
0001
0001
,
0001
0000
1100
0000
,
0010
0001
0100
0000
,
2002
0000
0000
3003
,
0000
0000
0000
0001
0000
1000
0000
0100
,
0000
0010
0000
1001
0000
0000
1100
0000
,
0010
0000
0100
0100
0200
0301
0000
0001
,
0000
1000
1000
1000
0000
0010
0000
0010
,
0000
0100
0100
0200
0310
0000
0010
0000
,
0010
1000
0100
0000
0100
0000
0100
0001
,
0010
0000
0010
0000
0010
1000
0001
0000
,
0110
1001
0110
0000
,
1001
0000
0000
0000
1000
0000
0000
0001
,
0000
0100
0010
0000
,
1000
0000
0000
0100
0000
0100
0000
0000
,
0001
0100
1000
0000
,
0001
1000
0001
0000
0100
0000
0200
0000
,
0300
0010
1000
0100
,
1000
0100
0001
0100
,
0001
0100
1000
0100
,
1000
0100
0001
0100
,
0001
0100
0010
0100
,
0010
0000
2002
0000
,
0000
0000
3003
0000
,
0220
0000
0000
0000
,
0000
0000
0000
0000
,
0000
0000
0000
0000
,
0000
0000
0000
0330
;

//---------------dance-double - ----------------
#NOTES:
     dance-double:
     :
     Easy:
     9:
     0.363385,0.792080,0.327984,0.393580,0.000000,349.000000,304.000000,45.000000,54.000000,0.000000,0.000000,0.363385,0.792080,0.327984,0.393580,0.000000,349.000000,304.000000,45.000000,54.000000,0.000000,0.000000:
00000000
00000000
00000000
00000000
,
00000000
00000000
00000000
00000000
,
00011000
00011000
00011000
00011000
,
00020000
00000000
00030000
00002000
00000000
00003000
00000002
00000000
,
00000003
00002000
00000000
00003000
00020000
00000000
00030000
20000000
,
00000000
30000000
00020000
00000000
00030000
00002000
00000000
00003000
,
00020000
00000000
00030000
00022000
,
00000000
00033000
00002000
00003010
,
00000002
00000103
00000020
00001030
,
00000200
00001300
00000001
00000010
,
00000100
00001000
00010000
01000000
,
00100000
10000000
01000000
00100000
,
00010000
00001000
00022000
00000000
,
00033000
00000000
00022000
00000000
,
00000000
00000000
00000000
00000000
,
00033000
00000000
00011000
00000000
,
00000000
00000000
00000000
00000000
,
00000000
00000000
00100000
00000000
,
01000000
00000000
10000000
10000000
,
10000000
10000000
00010000
00010000
,
00010000
00010000
00100000
00100000
,
00100000
00100000
00001000
00001000
,
00001000
00001000
00000010
00000010
,
00000010
00000010
00000001
00000010
,
00001000
00010000
10000000
01000000
,
00010000
00001000
00000001
00000100
,
00001000
00010000
10000000
01000000
,
00010000
00001000
00011000
00000000
,
00011000
00000000
00011000
00000000
,
00011000
00000000
00001010
00001010
,
00000101
00000101
00001001
00001010
,
00001100
00011000
01010000
00000000
,
20000000
30020000
01030000
00000000
,
00020000
20030000
31000000
00000000
,
01000000
00100000
00000000
00100000
,
00001000
00010000
00000000
00010000
,
00000100
00001000
00000000
00002002
,
00000000
00003003
00001001
00000000
,
00000200
00020300
00031000
00002000
,
00103000
00000000
00100000
00100000
00100000
00000000
00000000
00000000
,
10010000
02000000
03000000
10010000
,
00020000
00030000
00011000
00002000
,
00003000
00011000
00010000
00000010
,
00000001
00000010
00010000
01000000
,
10000000
01000000
00011000
00000000
,
10000000
01000000
00100000
10000000
,
01000000
00010000
00100000
00100000
,
00001000
00010000
00010000
00000010
,
00000100
00000100
00000001
00001000
,
00001000
00001000
00000010
00000010
,
00000010
00000001
00000001
00000100
,
00010000
00010000
01000000
10000000
,
01000000
00100000
00010000
00000100
,
00000010
00000001
00001001
00000000
,
00011000
00000000
00010000
00000000
,
00001000
00000000
00000100
00000000
,
00000010
00000000
00000001
00000000
,
00000100
00000000
00001000
00000000
,
00020000
00000000
00030000
00000000
,
00001000
00000000
00001000
00000000
,
00010000
00000000
00010000
00000000
,
00001000
00000000
00001000
00000000
,
00010000
00100000
00010000
00000000
,
10000000
01000000
10000000
00000000
,
00200000
00000000
01300000
00000000
,
00010000
00000000
00010000
00000000
,
00001000
00000000
00001000
00000000
,
00010000
00000000
00010000
00000000
,
00000010
00000100
00000010
00000000
,
00000001
00001000
00000001
00000000
,
00000200
00000000
00000300
00000000
,
00010000
00000000
00010000
00000000
,
00001000
00000000
00001000
00000000
,
00010000
00000000
00010000
00000000
,
00001000
00100000
00001000
00000000
,
00100000
00010000
00100000
00000000
,
10010000
00000000
10000000
01000000
,
00010000
00000000
00100000
00000000
,
00011000
00000000
00010000
00000100
,
00001000
00000000
00001001
00000000
,
00000010
00000100
00001000
00000000
,
00010000
00100000
01000000
00000000
,
20000000
00000000
00010000
00000000
,
00010000
00000000
30010000
00000000
,
10010000
00000000
00000000
00000000
,
00000000
00000000
00000000
00000000
,
00000000
00000000
00000000
00000000
,
00000000
00000000
00022000
00000000
,
00033000
00011000
00010000
00000000
,
20000000
00000000
32000000
00000000
,
03010000
00000000
00100000
00000000
,
00001000
00000000
00010000
00000000
,
00000200
00000000
00002300
00000000
,
00003010
00000000
00000100
00000000
,
00000001
00000000
00002000
00000000
,
00003020
00000000
00020030
00000000
,
00032000
00000000
00000000
00000000
00000000
00000000
00000000
00020000
,
00000000
00000000
00030000
00013000
00000000
00000000
00000000
00100000
,
00000000
00000000
00000000
10000000
00000000
00000000
10010000
00000000
,
00000000
00000000
10000000
01000000
00020000
01030000
00000000
00000000
,
00000000
10000000
00100000
00010000
00000000
00020000
00000000
00000000
,
00000000
00031000
00000100
00000002
00000013
00000000
00000010
00000000
,
00001000
00010000
00010000
01000000
,
10000000
10000000
00100000
00001000
,
00001000
00000200
00000301
00000000
,
00001001
00000000
00000010
00001000
,
00000100
00000000
00010000
00000000
,
00011000
00000000
00001000
01000000
,
00100000
00000000
10010000
00000000
,
01100000
00000000
00011000
00000000
,
00011000
00000000
00010000
00000000
,
00001000
00000000
00000100
00000000
,
00000010
00000000
00000001
00000000
,
00000010
00000000
00000100
00000000
,
00001000
00000000
00010000
00000000
,
00100000
00000000
20020000
00000000
,
00000000
00000000
30030000
00000000
,
00022000
00000000
00000000
00000000
,
00000000
00000000
00000000
00000000
,
00000000
00000000
00000000
00000000
,
00000000
00000000
00000000
00033000
;

//---------------dance-double - ----------------
#NOTES:
     dance-double:
     :
     Medium:
     13:
     0.574752,1.232125,0.488331,0.247810,0.069241,552.000000,485.000000,67.000000,34.000000,0.000000,0.000000,0.574752,1.232125,0.488331,0.247810,0.069241,552.000000,485.000000,67.000000,34.000000,0.000000,0.000000:
// measure 0
00000000
00000000
00000000
00000000
,  // measure 1
00000000
00000000
00000000
00000000
,  // measure 2
00110000
00001100
00110000
00001100
,  // measure 3
00100000
00010000
00001000
00000010
00000100
00001000
00100000
01000000
,  // measure 4
10000000
00010000
00001000
00011000
00001000
00000010
00000100
00000001
,  // measure 5
00000100
00000010
00001000
00000100
00010000
00001000
01000000
10000000
,  // measure 6
20020000
00000000
00000000
00000000
30030000
00000000
01000000
00001000
,  // measure 7
01000000
00001000
01000000
00000000
00011000
00000000
00010000
00000000
,  // measure 8
00000100
00000010
00000001
00000010
,  // measure 9
00000100
00010000
00002000
00100000
,  // measure 10
00100000
00103000
00020000
10000000
,  // measure 11
10000000
10030000
02000000
03100000
,  // measure 12
00200000
01300000
20020000
00000000
,  // measure 13
00000000
30030000
22000000
00000000
,  // measure 14
00000000
33000000
01000000
00100000
,  // measure 15
00001000
00000100
00001001
00000000
,  // measure 16
00000000
00000000
00000000
00000000
,  // measure 17
00000000
00000000
00000001
00000000
,  // measure 18
00000100
00000000
00001000
00001000
,  // measure 19
00001000
00001000
00010000
00010000
,  // measure 20
00010000
00010000
00000010
00000010
,  // measure 21
00000010
00000010
00000001
00000001
,  // measure 22
00000001
00000001
00001000
00001000
,  // measure 23
00001000
00001000
00000100
00010000
,  // measure 24
00001000
01000000
10000000
00100000
,  // measure 25
01000000
00001000
00010000
00000010
,  // measure 26
00000100
00000010
00010000
00001000
,  // measure 27
01000000
00000000
00100000
00000000
10010000
00000000
00000000
01000000
,  // measure 28
01010000
00000000
00000000
00010000
00011000
00000000
00000000
00001000
,  // measure 29
00001100
00000000
00000000
00000010
00000110
00000000
00000110
00000000
,  // measure 30
00000110
00000000
00000110
00000000
00000001
00000100
00001000
00010000
,  // measure 31
00100000
01000000
10010000
00000000
11000000
00000000
00100000
00010000
,  // measure 32
00001000
00000000
00011000
00000000
00001100
00000000
00001000
00000100
,  // measure 33
00000010
00001001
00000110
00000000
,  // measure 34
00001000
00001100
00000000
00000100
,  // measure 35
00010000
00011000
00000000
00001000
,  // measure 36
01000000
00100000
00000000
02020000
,  // measure 37
00000000
00000000
03030000
00000000
10000000
00000000
01000000
00100000
,  // measure 38
00010000
00000000
00001000
00000000
00000010
00000010
00000100
00000000
,  // measure 39
00000001
00000001
00001000
00001000
00000002
00000000
00000103
00000010
,  // measure 40
00001001
00000000
00002000
00000000
00003010
00000100
00001001
00000000
,  // measure 41
00000200
00000000
00010300
00001000
00011000
00000000
00200000
00000000
,  // measure 42
00301000
00010000
00011000
00000000
00001000
00010000
00100000
00000000
,  // measure 43
00010000
01000000
10000000
00000000
00100000
00010000
00001000
00000000
,  // measure 44
00001000
00000010
00000100
00000000
00022000
00033000
00010000
00000000
,  // measure 45
00001000
00000100
00001000
00010000
,  // measure 46
01000000
00000000
00000000
00000000
10000000
00010000
10000000
00000000
01000000
00000000
00000000
00000000
00100000
00000000
00000000
00000000
,  // measure 47
00001000
00010000
00000100
00000000
00000010
00000000
00000001
00000000
,  // measure 48
00001000
00000100
00000010
00010000
,  // measure 49
00001000
00000100
00100000
00010000
,  // measure 50
00001000
00010000
00100000
00000000
00010000
00000000
01000000
00100000
,  // measure 51
10000000
00000000
01000000
00000000
00100000
00000000
00001000
00010000
,  // measure 52
00001000
00000000
00010000
00000100
00010000
00000000
00001000
00100000
,  // measure 53
00010000
00001000
00000100
00000000
00011000
00000000
00000000
00000000
,  // measure 54
00010000
00000000
00001000
00000000
,  // measure 55
00010000
00000000
00001000
00000000
,  // measure 56
01000000
00000000
00100000
00000000
,  // measure 57
01000000
00000000
00100000
00000000
,  // measure 58
20020000
00000000
30030000
00000000
,  // measure 59
10000000
01000000
10000000
00000000
,  // measure 60
00010000
01000000
00010000
00000000
,  // measure 61
00100000
00001000
00100000
00000000
,  // measure 62
00010000
00001000
00000100
00000000
,  // measure 63
00000010
00000001
00000100
00000000
,  // measure 64
00002002
00000000
00003003
00000000
,  // measure 65
00000010
00001000
00000100
00010000
,  // measure 66
00000100
00010000
00001000
00100000
,  // measure 67
01000000
00010000
10000000
01000000
,  // measure 68
10000000
01000000
00100000
00010000
,  // measure 69
00001000
00000100
00000010
00000001
,  // measure 70
00001001
00000000
00001100
00000010
,  // measure 71
00000001
00000010
00000100
00010000
,  // measure 72
00001000
00010000
00100000
01000000
,  // measure 73
10000000
01000000
00100000
00010000
,  // measure 74
01000000
00010000
00001000
00000100
,  // measure 75
00000001
00000100
00001000
00010000
,  // measure 76
01000000
00100000
10000000
01000000
,  // measure 77
10010000
00000000
00110000
00000000
,  // measure 78
00001000
00000000
00000100
00000001
,  // measure 79
00001000
00000001
00000000
00000000
00001000
00000001
00000000
00000000
,  // measure 80
00000010
00001000
00000100
00000000
00010000
00000000
00001000
00010000
,  // measure 81
00000000
00010000
00001000
00000000
00100000
00010000
01000000
00000000
,  // measure 82
00100000
10000000
00100000
10000000
00010000
01000000
00010000
01000000
,  // measure 83
00001000
00010000
00001000
00010000
00002000
00000000
00000000
00000000
,  // measure 84
00013000
00000000
00000000
00000000
00000000
00000000
00001000
00000100
00000010
00000001
00000100
00000000
00000010
00001000
00000100
00010000
,  // measure 85
00001000
00000000
00100000
00010000
01000000
00100000
10000000
00000000
10000000
01000000
00100000
00010000
01000000
00000000
00100000
00001000
,  // measure 86
00010000
00000100
00001000
00000000
00000010
00001000
00000001
00000100
00000010
00000000
00000010
00001000
00000100
00010000
00001000
00000000
,  // measure 87
00100000
00010000
01000000
00001000
00010000
00000000
00000000
00000000
00020200
00000000
00000000
00000000
00000000
00000000
00000000
00000000
,  // measure 88
00030300
00010100
00000110
00000000
,  // measure 89
00000001
00000010
00000100
00010000
,  // measure 90
00011000
00100000
00010000
01000000
,  // measure 91
10010000
00000000
11000000
00000000
,  // measure 92
01000000
00100000
00001000
00010000
,  // measure 93
00011000
00000100
00001000
00000010
,  // measure 94
00001001
00000000
00000110
00000000
,  // measure 95
00000001
00000000
00001000
00000000
00000001
00000000
00002000
00000000
00003000
00000000
00000000
00000000
,  // measure 96
00002002
00000000
00000000
00000000
00000000
00000000
00003003
00000010
,  // measure 97
00000100
00000010
00000100
00000010
00000000
00001000
00000000
00000100
,  // measure 98
00000000
00010000
00000000
00001000
00000000
00000000
01000000
00000000
,  // measure 99
00100000
10000000
01000000
00000000
20000000
30010000
00000000
00100000
,  // measure 100
00001000
00010000
00000000
00011000
00000000
00001100
00000000
00001000
,  // measure 101
00000010
00000100
00000000
00000020
00001030
00000000
00001000
00000000
,  // measure 102
00001000
00000100
00000001
00000000
00000001
00000000
00000001
00000010
,  // measure 103
00001000
00000000
00001000
00000000
00001000
00010000
01000000
00000000
,  // measure 104
01000000
10010000
10000000
01000000
,  // measure 105
00100000
00000000
00010000
00000000
00001000
00000000
00000000
00001100
,  // measure 106
00000000
00000010
00000001
00000100
,  // measure 107
00000010
00000000
00001000
00000100
00000000
00000100
00010000
00000000
,  // measure 108
00001000
00000000
00100000
00000000
00010000
01000000
00010000
00000000
,  // measure 109
10000000
00100000
10000000
00000000
00100000
01000000
00100000
00000000
,  // measure 110
01100000
01100000
11000000
01000000
,  // measure 111
01010000
00010000
00011000
00001000
,  // measure 112
00001100
00000100
00000101
00000001
,  // measure 113
00000011
00000010
00001010
00001000
,  // measure 114
00011000
00010000
00110000
00100000
,  // measure 115
10100000
00000000
00022000
00000000
,  // measure 116
00000000
00000000
00033000
00000000
,  // measure 117
00002002
00000000
00000000
00000000
,  // measure 118
00000000
00000000
00000000
00000000
,  // measure 119
00000000
00000000
00000000
00000000
,  // measure 120
00000000
00000000
00000000
00003003
;

//---------------dance-single - ----------------
#NOTES:
     dance-single:
     :
     Medium:
     13:
     0.547680,1.188120,0.459177,0.240521,0.047375,526.000000,463.000000,63.000000,33.000000,0.000000,0.000000,0.547680,1.188120,0.459177,0.240521,0.047375,526.000000,463.000000,63.000000,33.000000,0.000000,0.000000:
0000
0000
0000
0000
,
0000
0000
0000
0000
,
1001
1001
1001
1001
,
0010
1000
0001
0100
0010
1000
0010
0100
,
1000
0100
0001
0100
1000
0100
0010
1000
,
0010
0100
0001
0010
0001
0001
0100
1000
,
2002
0000
0000
0000
3003
0000
0100
0001
,
0100
0001
0100
0000
0001
0000
0001
0000
,
0010
0100
1000
0100
,
0010
0001
0002
0010
,
0010
0013
0002
1000
,
1000
1003
2000
3010
,
0002
0103
2002
0000
,
0000
3003
2200
0000
,
0000
3300
0010
1000
,
0001
0100
1001
0000
,
0000
0000
0000
0000
,
0000
0000
1000
0000
,
0010
0000
0001
0001
,
0001
0001
0001
0001
,
0001
0001
0100
0100
,
0100
0100
1000
1000
,
1000
1000
0001
0001
,
0001
0001
0010
0001
,
0001
0100
1000
0010
,
0100
0001
1000
0010
,
0100
0010
0001
0100
,
1000
0000
0010
0000
1001
0000
0000
0100
,
1001
0000
0000
0001
1001
0000
0000
0010
,
1001
0000
0000
0100
0110
0000
0110
0000
,
0110
0000
0110
0000
1000
0100
0010
0001
,
0010
0100
1001
0000
1100
0000
0010
0001
,
0001
0000
1001
0000
0011
0000
0100
1000
,
1000
1001
1100
0000
,
0001
0011
0000
0010
,
0001
1001
0000
0010
,
1000
1001
0000
0220
,
0000
0000
0330
0000
1001
0000
0100
0010
,
0001
0000
0001
0000
0100
0100
0010
0000
,
1000
1000
0001
0001
2000
0000
3010
0100
,
1001
0000
0002
0000
0103
0010
1001
0000
,
0020
0000
0031
0001
1001
0000
0020
0000
,
1030
1000
1001
0000
1000
0100
0001
0000
,
0001
0100
1000
0000
0010
0001
0001
0000
,
0010
1000
1000
0000
2002
3003
1001
0000
,
1000
0010
0001
0001
,
0100
0000
0000
0000
1000
0001
1000
0000
0100
0000
0000
0000
0010
0000
0000
0000
,
0001
0001
0010
0000
0100
0000
1000
0000
,
0001
0010
0100
0001
,
1000
0100
0010
0001
,
1000
0001
0010
0000
0001
0000
0100
0010
,
0001
0000
0100
0000
0010
0000
1000
0001
,
1000
0000
0001
0010
0001
0000
1000
0010
,
1000
0001
1000
0000
0110
0000
0000
0000
,
0001
0000
0001
0000
,
0001
0000
0001
0000
,
0100
0000
0010
0000
,
0100
0000
0010
0000
,
2002
0000
3003
0000
,
1000
0100
1000
0000
,
0001
0100
0001
0000
,
0010
0001
0010
0000
,
0001
0001
0010
0000
,
0100
1000
0010
0000
,
2002
0000
3003
0000
,
0100
0001
0010
0000
,
0010
0001
0001
0000
,
0100
0001
1000
0000
,
1000
0100
0010
0001
,
0001
0010
0100
1000
,
1001
0000
0011
0000
,
1000
0100
0010
0000
,
0001
0001
0010
0000
,
1000
0100
0010
0000
,
0100
0001
0001
0010
,
1000
0010
0001
0001
,
0100
0000
1000
0100
,
1001
0000
0011
0000
,
0001
0000
0010
1000
,
0001
1000
0000
0000
0001
1000
0000
0000
,
0100
0001
0010
0000
0001
0000
1000
0001
,
0000
1000
0001
0000
0010
0001
0100
0000
,
0010
1000
0010
1000
0001
0100
0001
0100
,
0001
1000
0001
1000
0002
0000
0000
0000
,
0003
0000
0000
1000
0100
0001
1000
0010
,
0001
0000
1000
0000
0100
0000
0001
0000
1000
0100
1000
0100
1000
0000
0001
0100
,
0001
0100
0001
0000
1000
0100
1000
0100
1000
0000
0001
0010
0001
0010
0001
0000
,
0100
0010
0100
0010
0100
0000
0000
0000
2002
0000
0000
0000
0000
0000
0000
0000
,
3003
0110
1001
0000
,
1000
0100
0010
0001
,
0100
0010
0001
0100
,
1001
0000
0110
0000
,
0100
0010
0001
1000
,
0001
0010
0001
0100
,
1001
0000
0110
0000
,
1000
0000
0001
0000
1000
0000
0002
0000
0003
0000
0000
0000
,
2002
0000
0000
0000
0000
0000
3003
0100
,
0010
0100
0010
0100
0000
0001
0000
0010
,
0000
0100
0000
1000
0000
0000
0100
0000
,
0010
1000
0100
0000
2000
3001
0000
0010
,
0100
0010
0000
1001
0000
0110
0000
0001
,
0100
0010
0000
0200
0310
0000
0001
0000
,
0001
0010
1000
0000
0100
0000
1000
0100
,
0001
0000
0010
0000
0001
0001
0100
0000
,
0100
1001
1000
0100
,
0010
0000
0001
0000
0001
0000
0000
1001
,
0000
0001
0010
0100
,
1000
0000
0100
0010
0000
0010
0100
0000
,
0001
0000
0010
0000
0001
0100
0001
0000
,
1000
0010
1000
0000
0010
0100
0010
0000
,
0110
0000
1100
0000
,
0101
0000
0011
0000
,
1010
0000
0110
0000
,
1001
0000
0001
0010
,
0100
1000
1001
0110
,
1001
0000
0002
0000
,
0000
0000
0003
0000
,
2002
0000
0000
0000
,
0000
0000
0000
0000
,
0000
0000
0000
0000
,
0000
0000
0000
3003
;
