#TITLE:Umbral;
#SUBTITLE:;
#ARTIST:Maozon;
#TITLETRANSLIT:;
#SUBTITLETRANSLIT:;
#ARTISTTRANSLIT:;
#GENRE:;
#CREDIT:;
#MENUCOLOR:;
#METERTYPE:DDR;
#BANNER:Umbral.png;
#BACKGROUND:Umbral-bg.png;
#LYRICSPATH:;
#CDTITLE:;
#MUSIC:Umbral.ogg;
#OFFSET:0.022;
#SAMPLESTART:72.710;
#SAMPLELENGTH:16.000;
#SELECTABLE:YES;
#LISTSORT:;
#DISPLAYBPM:69.000:138.000;
#BPMS:0.000=138.000,68.000=69.000,84.000=137.990,85.000=138.000;
#STOPS:84.000=1.730
;
#BGCHANGES:1.000=Umbral.avi=1.000=1=0=1,
251.000=Umbral.avi=0.000=0=0=0,
99999=-nosongbg-=1.000=0=0=0 // don't automatically add -songbackground-
;
#ATTACKS:;

//---------------dance-double - ----------------
#NOTES:
     dance-double:
     :
     Hard:
     11:
     0.419,0.455,0.188,0.294,0.118: // measure 1
00000000
00000000
00000000
00000000
,  // measure 2
00000000
00000000
00000000
00000000
,  // measure 3
00000000
00000000
00000000
00000000
,  // measure 4
00000000
00000000
00000000
00000000
,  // measure 5
00000000
00000000
00000000
00000000
,  // measure 6
00100000
00010000
00100000
00010000
,  // measure 7
00000100
00001000
00000100
00001000
,  // measure 8
00010000
00001000
00010000
00001000
,  // measure 9
00010000
00000000
00000000
00000000
00010000
00000000
00000000
00000000
00001000
00000000
00001000
00000000
00000000
00010000
00000000
00000000
,  // measure 10
00000100
00001000
00000100
00000000
00000010
00000001
00000010
00000000
,  // measure 11
00000100
00001000
00000100
00000000
00010000
00000000
00001000
00000000
,  // measure 12
00100000
00010000
00100000
00000000
01000000
10000000
01000000
00000000
,  // measure 13
00100000
00010000
00100000
00000000
00001000
00000000
00010000
00000000
,  // measure 14
00100000
00100000
00010000
00000000
10000000
10000000
01000000
00000000
,  // measure 15
00100000
00100000
00001000
00000000
00010000
00000000
00000100
00000000
,  // measure 16
00001000
00001000
00000010
00000000
00000100
00000100
00000001
00000000
,  // measure 17
00001000
00001000
00000100
00000000
00010000
00000000
00011000
00000000
,  // measure 18
00002000
00000000
00000000
00000000
,  // measure 19
00203000
00000000
00320000
02030000
,  // measure 20
03200000
00000000
20300000
00000000
,  // measure 21
32000000
00000000
03002000
00000000
,  // measure 22
00013000
00000000
00000000
00000000
00001000
00000000
00000000
00010000
00000000
00000000
00001000
00000000
00010000
00000000
00000000
00000000
,  // measure 23
00000100
00000000
00000000
00000000
00001000
00000000
00000000
00000010
00000000
00000000
00001000
00000000
00000010
00000000
00000000
00000000
,  // measure 24
00000100
00000000
00000000
00000000
00000001
00000000
00000000
00000010
00000000
00000000
00000001
00000000
00000100
00000000
00000000
00000000
,  // measure 25
00000010
00000000
00000000
00000000
00001000
00000000
00000000
00000100
00000000
00000000
00010000
00000000
00001000
00000000
00000000
00000000
,  // measure 26
00011000
00000000
00202000
00000000
00303000
00022000
00000000
00033000
,  // measure 27
00220000
00000000
00330000
20020000
00000000
00000000
30030000
00000000
,  // measure 28
00100000
00010000
00000000
00010000
01000000
00000000
00000000
00100000
00000000
00000000
10000000
00000000
01000000
00000000
10000000
00000000
,  // measure 29
00100000
01000000
00000000
01000000
00010000
00000000
00000000
00100000
00000000
00000000
00001000
00000000
00010000
00000000
00001000
00000000
,  // measure 30
00020000
00000100
00001000
00030200
,  // measure 31
00002300
00000010
00000100
00003020
,  // measure 32
00000230
00000001
00000010
00000302
,  // measure 33
00001000
00000203
00001000
00020300
,  // measure 34
00032000
00100000
01000000
00203000
,  // measure 35
00320000
01000000
10000000
01030000
,  // measure 36
00100000
10000000
01000000
00100000
00001000
00010000
00000100
00001000
,  // measure 37
00000020
00000000
00000032
00000000
00002003
00000000
00003100
00010000
,  // measure 38
00001000
00000000
00000000
00000000
00010000
00000000
00000000
00001000
00000000
00000000
00010000
00000000
00001000
00000000
00100000
00000000
,  // measure 39
00010000
00000000
00000000
00000000
01000000
00000000
00000000
01000000
00000000
00000000
00100000
00000000
10000000
00000000
01000000
00000000
,  // measure 40
01010000
00000000
00000000
00000000
00100000
00000000
00000000
00001000
00000000
00000000
00010000
00000000
00001000
00000000
00010000
00000000
,  // measure 41
00000100
00000000
00000000
00000000
00001000
00000000
00000000
00000010
00000000
00000000
00000100
00000000
00000001
00000000
00001001
00000000
,  // measure 42
00000002
00000000
00000000
00000000
00001003
00000000
00000000
00001010
00000000
00000000
00002010
00000000
00000000
00000000
00003100
00000000
,  // measure 43
00001100
00000000
00000000
00000000
00010000
00000000
00000000
00022000
00000000
00000000
00000000
00000000
00033000
00000000
00000000
00000000
,  // measure 44
00010000
00001000
00000000
00001000
00100000
00000000
00000000
00000000
00100000
00000000
00010000
00000000
00100000
00000000
00000000
00000000
,  // measure 45
00010000
01000000
00000000
01000000
00010000
00000000
00000000
00000000
10000000
00000000
00100000
00000000
01000000
00000000
00010000
00000000
,  // measure 46
00100000
00001000
00000000
00001000
00100000
00000000
00000000
00000000
00100000
00000000
00001000
00000000
00010000
00000000
00000000
00000000
,  // measure 47
00010000
00000100
00000000
00000100
00010000
00000000
00000000
00000000
00010000
00000000
00000010
00000000
00001000
00000000
00000001
00000000
,  // measure 48
00000100
00000010
00000000
00000010
00000100
00000000
00000000
00000000
00000010
00000000
00001000
00000000
00000100
00000000
00000000
00000000
,  // measure 49
00000100
00010000
00000000
00010000
00001000
00000000
00000000
00000000
00001000
00000000
00100000
00000000
00010000
00000000
01000000
00000000
,  // measure 50
00100000
10000000
01000000
00000000
00100000
00010000
01000000
00000000
,  // measure 51
00100000
00001000
00010000
00000000
00010000
00000100
00001000
00000000
,  // measure 52
00000010
00000001
00001000
00000100
00010000
00001000
01000000
00100000
,  // measure 53
00010000
10000000
01000000
00100000
00001000
00010000
00000100
00001000
,  // measure 54
00000010
00000000
00001100
00000000
00000010
00001000
00001100
00000000
,  // measure 55
00000100
00000000
00010100
00000000
00000100
00010000
00011000
00000000
,  // measure 56
00001000
00000000
00110000
00000000
00010000
00100000
00110000
00000000
,  // measure 57
01000000
00000000
11000000
00000000
10000000
00100000
01000000
00010000
,  // measure 58
00100000
00000000
00101000
00000000
00100000
00001000
00011000
00000000
,  // measure 59
00010000
00000000
00010100
00000000
00000100
00001000
00001010
00000000
,  // measure 60
00000010
00000100
00000001
00000010
00001000
00000100
00000010
00001000
,  // measure 61
00000100
00010000
00001000
01000000
00010000
10000000
01000000
00002000
,  // measure 62
00020000
00000000
00000000
00000000
,  // measure 63
00033000
00000000
00000000
00000000
;

//---------------dance-single - ----------------
#NOTES:
     dance-single:
     :
     Hard:
     11:
     0.423,0.481,0.171,0.188,0.167:
0000
0000
0000
0000
,
0000
0000
0000
0000
,
0000
0000
0000
0000
,
0000
0000
0000
0000
,
0000
0000
0000
0000
,
0010
0011
0010
0011
,
1000
1100
1000
1100
,
0010
0110
0010
0110
,
1000
1001
0001
1001
,
1000
0100
1000
0000
0010
0100
0010
0000
,
0001
0010
0001
0000
0100
0010
0100
0000
,
0001
0100
0001
0000
1000
0100
1000
0000
,
0010
0100
0010
0000
1000
0010
1000
0000
,
0001
0100
0100
0000
1000
0100
0100
0000
,
0001
0010
0010
0000
1000
0010
0010
0000
,
1000
1000
0100
0000
0010
0010
0001
0000
,
0100
0100
0010
0000
1000
0001
1001
0000
,
0200
0000
0000
0000
,
0302
0000
0023
0000
,
2030
0000
3200
0000
,
0320
0000
0032
0000
,
0103
0000
0000
0000
0100
0000
0000
0010
0000
0000
0100
0000
0010
0000
0100
0000
,
0000
0001
0000
0000
1000
0000
0000
0001
0000
0000
1000
0000
0100
0000
1000
0000
,
0000
0010
0000
0000
0100
0000
0000
0010
0000
0000
0100
0000
0010
0000
0100
0000
,
0000
0001
0000
0000
0100
0000
0000
0001
0000
0000
0100
0000
0010
0000
0100
0000
,
0001
0000
1001
0000
0000
1010
0000
0000
,
0110
0000
0000
2002
0000
0000
0000
3003
,
0000
0010
0000
0010
0100
0000
0000
0001
0000
0000
1000
0000
0100
0000
0010
0000
,
0000
0100
0000
0100
0001
0000
0000
0010
0000
0000
0100
0000
0010
0000
1000
0000
,
0002
0000
0103
0000
0010
1000
0100
0000
,
2000
0000
3010
0000
0100
0001
0010
0000
,
0002
0000
0103
0000
0010
0100
1000
0000
,
0200
0000
0301
0000
1000
0100
0010
0000
,
0001
0100
0001
0000
1000
0010
1000
0000
,
0010
0100
0010
0000
1000
0001
1000
0000
,
1000
0100
1000
0100
0010
0001
0010
0001
,
0100
0010
0100
0010
0200
0000
0310
0000
,
1000
0001
0000
0000
0100
0000
0000
0001
0000
0000
0100
0000
0010
0000
0100
0000
,
0010
0100
0000
0000
0001
0000
0000
1000
0000
0000
0001
0000
0100
0000
0001
0000
,
1000
0001
0000
0000
1000
0000
0000
0010
0000
0000
1000
0000
0100
0000
0010
0000
,
0001
0010
0000
0000
0001
0000
0000
0010
0000
0000
0001
0000
0100
0000
0010
0000
,
1000
0000
0000
0000
1010
0000
0000
1010
0000
0000
2010
0000
0000
0000
3100
0000
,
0220
0000
0330
0000
0011
0000
0000
2002
0000
0000
0000
0000
3003
0000
0000
0000
,
1000
0100
0000
0100
1000
0000
0000
0010
0000
0000
0100
0000
0010
0000
0100
0000
,
0001
0100
0000
0100
0001
0000
0000
0100
0000
0000
0010
0000
0100
0000
0001
0000
,
0100
0010
0000
0010
0100
0000
0000
0000
0001
0000
0100
0000
1000
0000
0000
0000
,
0010
0100
0000
0100
0010
0000
0000
0000
1000
0000
0100
0000
0001
0000
0000
0000
,
1000
0100
0000
0100
1000
0000
0000
0000
0001
0000
0010
0000
0100
0000
0000
0000
,
0001
0010
0000
0010
0001
0000
0000
0000
1000
0000
0100
0000
0010
0000
0000
0000
,
0001
0100
0010
0000
1000
0010
0100
0000
,
1000
0100
0001
0000
0001
0100
1000
0000
,
0010
0100
0000
0100
0010
0000
0100
0000
0001
0000
1000
0000
0001
0000
1000
0000
,
0100
0010
0000
0010
0100
0000
0001
0000
0010
0000
0100
0000
1000
0000
0001
0000
,
1000
0100
0010
0000
0010
0100
0001
0000
,
0010
0001
0010
0000
0001
0100
0010
0000
,
1000
0100
1000
0000
0001
0100
0001
0000
,
0010
0100
0010
0000
1000
0100
1000
0000
,
0002
0000
0013
0000
0100
0010
1000
0000
,
2000
0000
3010
0000
0100
0001
0010
0000
,
1000
0010
1010
0000
0001
0100
0101
0000
,
1000
0100
0010
0001
1000
0010
0100
0002
,
2000
0000
0000
0000
,
3003
0000
0000
0000
;

//---------------dance-double - ----------------
#NOTES:
     dance-double:
     :
     Medium:
     8:
     0.342,0.329,0.139,0.229,0.008:
00000000
00000000
00000000
00000000
,
00000000
00000000
00000000
00000000
,
00000000
00000000
00000000
00000000
,
00000000
00000000
00000000
00000000
,
00000000
00000000
00000000
00000000
,
00010000
00001000
00010000
00010100
,
00001000
00000010
00001000
00001010
,
00000100
00010000
00000100
00010100
,
00001000
01000000
00010000
01010000
,
10000000
00000000
01000000
00000000
00100000
01000000
00100000
00000000
,
01000000
00000000
00010000
00000000
00100000
00001000
00100000
00000000
,
00010000
00000000
00000100
00000000
00001000
00000100
00001000
00000000
,
00000010
00000000
00000001
00000000
00000100
00000010
00000100
00000000
,
00000010
00000000
00001000
00000000
00000100
00010000
00000100
00000000
,
00010000
00000000
00001000
00000000
00100000
00010000
00100000
00000000
,
00010000
00000000
01000000
00000000
00100000
10000000
00100000
00000000
,
01000000
00010000
00100000
00001000
,
00020000
00000000
00000000
00000000
,
00030200
00000000
00002300
00000000
,
00003020
00000000
00000032
00000000
,
00000203
00000000
00020300
00000000
,
00031000
00010000
00020000
00030000
,
00001000
00100000
00200000
00300000
,
00010000
01000000
02000000
03000000
,
00100000
10000000
02000000
03000000
,
10010000
00000000
01010000
00000000
00000000
00110000
00000000
00000000
,
00101000
00000000
00000000
00022000
00000000
00000000
00033000
00000000
,
00010000
00000000
00000100
00000000
00010000
00000100
00000100
00000000
,
00001000
00000000
00000001
00000000
00001000
00000001
00000001
00000000
,
00000010
00001000
00000010
00000000
00000100
00000000
00001000
00000000
,
00000100
00010000
00000100
00000000
00010000
00000000
00001000
00000000
,
00100000
00100000
00010000
00000000
01000000
00000000
00100000
00000000
,
10000000
10000000
01000000
00000000
00100000
00000000
01000000
00000000
,
00001000
00010000
00001000
00000000
00010000
00000000
00000100
00000000
,
00001000
00000001
00001000
00000000
00000010
00000000
00001000
00000000
,
00000100
00010100
00010000
00011000
,
00001000
00100000
00002000
00013000
,
00010000
00010000
00001000
00000000
00020000
00000000
00030000
00000000
,
00000100
00001000
00000100
00000000
00002000
00000000
00003000
00000000
,
00000010
00000100
00000010
00000000
00000200
00000000
00000300
00000000
,
00000001
00000100
00000001
00000000
00000020
00000000
00000030
00000000
,
00000101
00000000
00000000
00000000
00001100
00000000
00000000
00001000
00000000
00000000
00001000
00000000
00000000
00000000
00000000
00000000
,
00010100
00000000
00000000
00000000
00010000
00000000
00000000
00002000
00000000
00000000
00000000
00000000
00013000
00000000
00000000
00000000
,
00100000
00010000
00100000
00000000
00010000
01000000
00010000
00000000
,
10000000
01000000
10000000
00000000
00100000
01000000
00100000
00000000
,
02000000
00000000
03010000
00000000
00100000
00100000
00100000
00000000
,
00002000
00000000
00013000
00000000
00000100
00000100
00000100
00000000
,
00002000
00000000
00003001
00000000
00000010
00000010
00000010
00000000
,
00000002
00000000
00000103
00000000
00000010
00000010
00000010
00000000
,
00002000
00000000
00003100
00000000
00010000
00010000
00010000
00000000
,
00002000
00000000
00103000
00000000
00010000
00010000
00010000
00000000
,
20000000
00000000
31000000
00000000
00100000
00100000
00100000
00000000
,
00001000
00010000
00001000
00010000
00001000
00010000
00001000
00000000
,
00010000
00000000
00000100
00000000
00001000
00000010
00001000
00000000
,
00000001
00000000
00000100
00000000
00000010
00000100
00000010
00000000
,
00001000
00000000
00000100
00000000
00010000
00001000
00010000
00000000
,
00001000
00000000
00100000
00000000
00010000
01000000
00010000
00000000
,
10000000
01000000
10000000
00000000
00100000
00000000
01010000
00000000
,
00100000
00010000
00100000
00000000
00001000
00000000
00011000
00000000
,
00010000
00000100
00010000
00000000
00000010
00000100
00000010
00000000
,
00000001
00001000
00000100
00000000
00010000
00000100
00010000
00000000
,
00022000
00000000
00000000
00000000
,
00033000
00000000
00000000
00000000
;

//---------------dance-single - ----------------
#NOTES:
     dance-single:
     :
     Medium:
     8:
     0.342,0.329,0.139,0.229,0.008:
0000
0000
0000
0000
,
0000
0000
0000
0000
,
0000
0000
0000
0000
,
0000
0000
0000
0000
,
0000
0000
0000
0000
,
0010
0100
0010
1001
,
0100
0010
0100
1001
,
0100
0010
0100
1001
,
0001
0010
0100
1001
,
0010
0000
0100
0000
0010
0100
0010
0000
,
1000
0000
0001
0000
1000
0001
1000
0000
,
1000
0000
0100
0000
1000
0100
1000
0000
,
0010
0000
0001
0000
0010
0001
0010
0000
,
0010
0000
1000
0000
0100
0001
0100
0000
,
0010
0000
0001
0000
0100
1000
0100
0000
,
0001
0000
0100
0000
0010
1000
0010
0000
,
0100
0001
0010
1000
,
0002
0000
0000
0000
,
0203
0000
2300
0000
,
3020
0000
0032
0000
,
0203
0000
0302
0000
,
1003
0001
0002
0003
,
0100
0010
0020
0030
,
1000
0100
0200
0300
,
0010
0001
0002
0003
,
1001
0000
0101
0000
0000
0011
0000
0000
,
1010
0000
0000
2002
0000
0000
3003
0000
,
0001
0000
0100
0000
0001
0100
0100
0000
,
1000
0000
0010
0000
1000
0010
0010
0000
,
0010
0100
0010
0000
0100
0000
1000
0000
,
0100
0001
0100
0000
0001
0000
1000
0000
,
0010
0100
0010
0000
0100
0000
0010
0000
,
1000
0100
1000
0000
0010
0000
0100
0000
,
1000
0001
1000
0000
0001
0000
0100
0000
,
1000
0001
1000
0000
0010
0000
1000
0000
,
0100
1001
0010
1001
,
1000
0010
2000
3001
,
0001
0001
1000
0000
0002
0000
0003
0000
,
0100
0100
0010
0000
0020
0000
0030
0000
,
1000
1000
0010
0000
0200
0000
0300
0000
,
0001
0001
0100
0000
0020
0000
0030
0000
,
0101
0000
0000
0000
1001
0000
0000
1000
0000
0000
1000
0000
0000
0000
0000
0000
,
1001
0000
0000
0000
0001
0000
0000
2000
0000
0000
0000
0000
3001
0000
0000
0000
,
0100
0001
0100
0000
0001
0100
0001
0000
,
1000
0100
1000
0000
0100
1000
0100
0000
,
0200
0000
1300
0000
0010
0010
0010
0000
,
2000
0000
3001
0000
0100
0100
0100
0000
,
2000
0000
3001
0000
0010
0010
0010
0000
,
0002
0000
0103
0000
0010
0010
0010
0000
,
2000
0000
3100
0000
0001
0001
0001
0000
,
0002
0000
0013
0000
1000
1000
1000
0000
,
2000
0000
3010
0000
0100
0100
0100
0000
,
1000
0001
1000
0001
1000
0001
1000
0000
,
0001
0000
0100
0000
1000
0010
1000
0000
,
1000
0000
0010
0000
0100
0010
0100
0000
,
1000
0000
0100
0000
0001
1000
0001
0000
,
0001
0000
0010
0000
1000
0001
1000
0000
,
0010
0100
0010
0000
1000
0000
1100
0000
,
0010
0100
0010
0000
0001
0000
0011
0000
,
0001
0100
0001
0000
0010
0100
0010
0000
,
0100
1000
0100
0000
0001
0100
0001
0000
,
2002
0000
0000
0000
,
3003
0000
0000
0000
;

//---------------dance-single - ----------------
#NOTES:
     dance-single:
     :
     Beginner:
     3:
     0.129,0.224,0.024,0.065,0.000:
0000
0000
0000
0000
,
0000
0000
0000
0000
,
0000
0000
0000
0000
,
0000
0000
0000
0000
,
0000
0000
0000
0000
,
0000
0001
0000
0001
,
0000
1000
0000
1000
,
0000
0001
0000
0001
,
0000
1000
1000
0000
,
0010
0010
0000
0010
,
0000
0100
0000
0100
,
0000
0010
0000
0010
,
0000
0001
0000
0001
,
0001
0000
1000
0000
,
0001
0000
1000
0000
,
0010
0000
0010
0000
,
0100
0100
0100
0000
,
0020
0000
0000
0000
,
0030
0000
0000
0000
,
0200
0000
0000
0000
,
0300
0000
0000
0000
,
0100
0000
0000
0000
,
0000
0000
0000
0000
,
0000
0000
0000
0000
,
0000
0000
0000
0000
,
0010
0000
0000
0000
,
0010
0000
0010
0000
,
0010
0000
0000
0000
,
0100
0000
0000
0000
,
0001
0001
0000
0001
,
0000
1000
0000
1000
,
0000
0010
0000
0010
,
0000
0100
0000
0100
,
0100
0000
0001
0000
,
1000
0000
0001
0000
,
0010
0010
0010
0010
,
0010
0000
0000
0000
,
0000
1000
0000
1000
,
0000
0001
0000
0001
,
0000
0100
0000
0100
,
0000
0010
0000
0010
,
0010
0000
0100
0000
,
0001
0000
2002
3003
,
1001
0000
0010
0000
,
0100
0100
0100
0000
,
0001
0000
1000
0000
,
0001
0001
0001
0000
,
1000
0000
0001
0000
,
1000
1000
1000
0000
,
0010
0000
0100
0000
,
0010
0010
0010
0000
,
0100
0000
0010
0000
,
0100
0100
0100
0000
,
0002
0000
0000
0000
,
0003
0000
1000
0000
,
2000
0000
0000
0000
,
3000
0000
0010
0000
,
0020
0000
0000
0000
,
0030
0000
0100
0000
,
0200
0000
0000
0300
,
0100
0100
0100
0000
,
1001
0000
0000
0000
;

//---------------dance-double - ----------------
#NOTES:
     dance-double:
     :
     Easy:
     5:
     0.251,0.278,0.073,0.237,0.000:
00000000
00000000
00000000
00000000
,
00000000
00000000
00000000
00000000
,
00000000
00000000
00000000
00000000
,
00000000
00000000
00000000
00000000
,
00000000
00000000
00000000
00000000
,
00001000
00010000
00001000
00010000
,
00000010
00000100
00000010
00000100
,
00010000
00001000
00010000
00001000
,
01000000
00100000
01000000
00100000
,
10000000
01000000
00100000
00001000
,
00010000
00000100
00000010
00000001
,
00000001
00000010
00000100
00010000
,
00001000
00100000
01000000
10000000
,
10000000
00100000
01000000
00001000
,
00010000
00000010
00000100
00000001
,
00000001
00000100
00000010
00010000
,
00001000
01000000
00100000
10000000
,
00020000
00000000
00000000
00000000
,
00032000
00000000
00203000
00000000
,
20300000
00000000
32000000
00000000
,
03002000
00000000
00023000
00000000
,
00031000
00000000
00000000
00000000
,
00000000
00000000
00000000
00000000
,
00000000
00000000
00000000
00000000
,
00000000
00000000
00000000
00000000
,
00010000
00000000
00001000
00000000
00000000
00010000
00000000
00000000
,
00000100
00000000
00000000
00000220
00000000
00000000
00000330
00000000
,
00001001
00000000
00000000
00000000
,
00001100
00000000
00010000
00001000
,
00020000
00001000
00031000
00000000
,
00002000
00100000
00103000
00000000
,
00200000
01000000
01300000
00000000
,
20000000
01000000
31000000
00000000
,
02000000
00001000
03001000
00000000
,
00020000
00000100
00030100
00000000
,
00002000
00000001
00003001
00000000
,
00000020
00001000
00001030
00000000
,
00010000
00000100
00010000
00001000
,
01000000
00010000
01000000
00100000
,
10000000
00100000
10000000
00010000
,
00100000
00001000
00010000
00000010
,
00000100
00000000
00000110
00000000
00000000
00001001
00000000
00000000
,
00000010
00000000
00000000
00002002
00000000
00000000
00003003
00000000
,
00000010
00001001
00000001
00000100
,
00000010
00001001
00001000
00000100
,
00010000
00001000
00100000
00010000
,
10000000
01000000
00100000
00010000
,
00001000
00010000
00000010
00000100
,
00000001
00000010
00000100
00001000
,
00010000
00001000
00001000
01000000
,
00010000
00100000
01000000
10000000
,
00100000
00001000
00010000
00000100
,
00001000
00000100
00000010
00000001
,
00000200
00000010
00000000
00000010
,
00000000
00000310
00000002
00001003
,
00002000
00000100
00000000
00000100
,
00000000
00003100
00020000
00031000
,
00200000
00010000
00000000
00310000
,
00020000
01030000
20000000
31000000
,
00200000
01000000
00000000
01300000
,
01000000
00001000
00010000
00001000
,
00022000
00000000
00000000
00000000
,
00033000
00000000
00000000
00000000
;

//---------------dance-single - ----------------
#NOTES:
     dance-single:
     :
     Easy:
     5:
     0.251,0.278,0.114,0.229,0.000:
0000
0000
0000
0000
,
0000
0000
0000
0000
,
0000
0000
0000
0000
,
0000
0000
0000
0000
,
0000
0000
0000
0000
,
1000
0001
1000
0001
,
0010
0100
0010
0100
,
0001
1000
0001
1000
,
0100
0010
0100
0010
,
1000
0100
0010
0001
,
0001
0010
0100
1000
,
0001
0010
0100
1000
,
1000
0100
0010
0001
,
1000
0010
0001
0010
,
1000
0010
0001
0010
,
0001
0100
1000
0100
,
0001
0100
1000
0100
,
0002
0000
0000
0000
,
2003
0000
3020
0000
,
0230
0000
0302
0000
,
2003
0000
3002
0000
,
1003
0000
0000
0000
,
0000
0000
0000
0000
,
0000
0000
0000
0000
,
0000
0000
0000
0000
,
0001
0000
1000
0000
0000
0001
0000
0000
,
0100
0000
0000
0220
0000
0000
0330
0000
,
1001
0000
0000
0000
,
1001
0000
0001
1000
,
0002
0000
1003
0000
,
2000
0000
3010
0000
,
0020
0000
0130
0000
,
0200
0000
0301
0000
,
0002
1000
1003
0000
,
0020
0100
0130
0000
,
2000
0001
3001
0000
,
1001
1001
1001
0000
,
0001
0100
0001
0100
,
1000
0100
1000
0100
,
0010
1000
0010
0001
,
0010
1000
0010
0001
,
0100
0000
0110
0000
0000
1001
0000
0000
,
0010
0000
0000
2002
0000
0000
3003
0000
,
0010
1001
0010
0100
,
0010
1001
0100
0010
,
0001
1000
0100
0010
,
0001
0010
0100
1000
,
1000
0001
0010
0100
,
1000
0100
0010
0001
,
0010
1001
1000
0100
,
0010
1001
0001
0100
,
0010
1000
0001
0100
,
1000
0100
0010
0001
,
0200
0010
0000
0010
,
0000
0310
0002
1003
,
2000
0100
0000
0100
,
0000
3100
0002
1003
,
0020
0001
0000
0031
,
0002
0103
2000
3100
,
0020
0100
0000
0130
,
0100
1000
0001
1000
,
2002
0000
0000
0000
,
3003
0000
0000
0000
;
