#TITLE:U.A.D;
#SUBTITLE:;
#ARTIST:HAYAKO;
#TITLETRANSLIT:;
#SUBTITLETRANSLIT:;
#ARTISTTRANSLIT:;
#GENRE:;
#CREDIT:;
#BANNER:U.A.D.png;
#BACKGROUND:U.A.D-bg.png;
#LYRICSPATH:;
#CDTITLE:;
#MUSIC:U.A.D.ogg;
#OFFSET:-0.280000;
#SAMPLESTART:18.884651;
#SAMPLELENGTH:13.023254;
#SELECTABLE:YES;
#BPMS:0.000000=129.000000
,120.000000=64.500000
,136.000000=129.000000
;
#STOPS:
;
#BGCHANGES:0.000=U.A.D.avi=1.000=0=0=0=StretchNoLoop====,
99999=-nosongbg-=1.000=0=0=0 // don't automatically add -songbackground-
;
#KEYSOUNDS:;
#ATTACKS:;

//---------------dance-single - ----------------
#NOTES:
     dance-single:
     :
     Hard:
     11:
     0.391639,0.540226,0.278929,0.382531,0.247051,344.000000,309.000000,35.000000,48.000000,0.000000,0.000000,0.391639,0.540226,0.278929,0.382531,0.247051,344.000000,309.000000,35.000000,48.000000,0.000000,0.000000:
0000
0000
0000
0000
,
0000
0000
0000
0000
,
0000
0000
0000
0000
,
0000
0000
0000
0000
,
0000
0000
0000
0000
,
0000
0000
0000
0000
,
0010
0000
0000
0000
0010
0000
0000
0000
0100
0000
0000
0100
0000
0000
0000
0001
,
0000
0000
1000
0000
0001
0000
1000
0000
0001
0000
0000
0001
0000
0000
0000
0000
,
1000
0000
0000
0000
1000
0000
0000
0000
0010
0000
0000
0010
0000
0010
0000
0000
,
0000
0001
0100
0000
0001
0000
0000
0000
0001
0000
0000
0001
0000
0001
0000
0000
,
0010
0000
1000
0000
0010
0000
1000
0000
0010
0000
0000
0010
0000
0000
0001
0000
,
0100
0000
0001
0000
0100
0000
0001
0000
0010
0000
0000
0010
0000
0000
1000
0000
,
0100
0000
1000
0000
0100
0000
1000
0000
0010
0000
0000
0010
0000
0000
0001
0000
,
0100
0001
0100
0001
1000
0100
1000
0100
,
1000
0000
0010
0200
0000
0000
0310
0002
,
0000
0000
1003
0100
1000
0001
1000
0002
,
0000
0003
0100
0020
0000
0030
2000
0000
,
3001
0000
0000
0100
0000
0000
1000
0000
1000
0000
0000
0000
0100
0000
0000
0000
,
1000
1000
0100
0100
,
0010
0010
0001
0001
,
0220
0000
0000
0330
,
2002
0000
0000
3003
,
1001
0000
0010
0010
1000
1000
0100
0100
,
1001
0000
0000
0000
0010
1000
0010
0000
0100
0000
0001
0100
0000
0010
0000
0000
,
1001
0000
0010
0010
0001
0001
0100
0100
,
2000
3020
0230
0302
,
1003
0000
0100
0100
0010
0010
0001
0001
,
2002
3003
0010
0010
0100
0100
1000
1000
,
2002
3003
0100
0100
0001
0001
1000
1000
,
0002
2003
3020
0230
,
0301
0000
0000
0000
1000
0000
0001
0200
0000
0000
0000
0000
0310
0000
1000
0100
,
0010
0000
0000
0000
0100
0000
0001
0000
1000
0000
0100
0000
0010
0000
0001
0100
,
2000
0000
3010
0000
1000
0000
0001
0100
2000
0000
0000
3000
0100
0000
0001
1000
,
0200
0000
0000
0000
0320
0000
0000
0000
2030
0000
0000
3000
0002
0000
0000
0000
,
0203
0310
2002
3003
,
0020
0130
2002
3003
,
2000
3100
2002
3003
,
0002
0103
2002
3003
,
0001
0000
0000
0010
0100
0000
1000
0000
2002
0000
0000
0000
3003
0000
0000
0000
,
1000
0000
0000
0100
0010
0000
0001
0000
2002
0000
0000
0000
3003
0000
0000
0000
,
0010
0000
0000
0100
0001
0000
1000
0000
2002
0000
0000
0000
3003
0000
0000
0000
,
0001
0000
0000
0010
0000
0000
0100
0000
0000
1000
0000
0000
0100
0000
0000
0000
,
0010
0001
0100
1000
,
0010
0001
0100
1000
,
0010
1000
0100
0001
,
0010
1000
0100
0001
,
1001
0000
0000
0000
0010
0000
0100
0000
0010
0100
0000
0010
0000
0000
0000
0000
,
1000
0000
0001
0000
1000
0000
0001
0000
1000
0001
0000
0001
0000
0000
0000
0000
,
0110
0000
0000
0000
0010
0000
0100
0000
0010
0100
0000
0100
0000
0000
0000
0000
,
0001
0100
1000
0100
0001
1000
0001
0000
,
1100
0000
0000
0000
0010
0000
0000
0000
0100
0010
0000
0100
0000
0010
0000
0100
,
0000
0000
0001
0000
0001
0000
1000
0000
1000
0000
0000
0001
0000
0000
1000
0000
,
0000
0000
0100
0000
0010
0000
0100
0010
0000
0000
0100
0000
0000
0100
0000
0000
,
0000
0000
0001
0000
0000
0001
0000
0000
1001
0000
0000
1000
0000
0000
0010
0000
,
0101
0000
0000
0000
1001
0000
0000
1001
0000
0000
1001
0000
0000
1001
0000
0000
,
0000
0000
0110
0000
0000
0110
0000
0000
0110
0000
0000
0110
0000
0000
0100
0000
,
1001
0000
0000
0000
0001
0000
0100
0000
0001
1000
0000
1000
0000
0001
0000
1000
,
0000
0000
0100
0000
0010
0000
0001
0000
0100
0000
0000
1000
0000
0000
0000
0000
,
0001
0000
0010
0001
0000
0010
0001
0000
0010
0001
0000
0000
1000
0000
0100
1000
,
0000
0100
1000
0000
0100
1000
0000
0000
0010
0000
0100
0010
0000
0100
0010
0000
,
0100
0010
0000
1000
0001
0000
0000
0110
0000
0000
1001
0000
0000
0110
0000
0000
,
1001
0000
0000
0220
0000
0000
0330
0000
1001
0000
0110
0000
0000
0000
0000
0000
;

//---------------dance-single - ----------------
#NOTES:
     dance-single:
     :
     Beginner:
     3:
     0.119541,0.171890,0.079694,0.167357,0.000000,105.000000,95.000000,10.000000,21.000000,0.000000,0.000000,0.119541,0.171890,0.079694,0.167357,0.000000,105.000000,95.000000,10.000000,21.000000,0.000000,0.000000:
0000
0000
0000
0000
,
0000
0000
0000
0000
,
0000
0000
0000
0000
,
0000
0000
0000
0000
,
0000
0000
0000
0000
,
0000
0000
0000
0000
,
0010
0000
0010
0000
,
0100
0000
0100
0000
,
0010
0000
0010
0000
,
0020
0000
0030
0000
,
1000
0000
1000
0000
,
0001
0000
0001
0000
,
1000
0000
1000
0000
,
0002
0000
0003
0000
,
0200
0000
0000
0000
,
0300
0000
0000
0000
,
0020
0000
0000
0000
,
0030
0000
0000
0000
,
1000
0000
1000
0000
,
0001
0000
0001
0000
,
2000
0000
3000
0000
,
0002
0000
0003
0000
,
0100
0000
0100
0000
,
0100
0000
0100
0000
,
0010
0000
0010
0000
,
0010
0010
0010
0000
,
1000
0000
1000
0000
,
1000
0000
1000
0000
,
0001
0000
0001
0000
,
0001
0001
0001
0000
,
1001
0000
0000
0000
,
0100
0000
0100
0000
,
1001
0000
0000
0000
,
0010
0000
0010
0000
,
0020
0000
0030
0000
,
0200
0000
0300
0000
,
0020
0000
0030
0000
,
0200
0000
0300
0000
,
2000
0000
3000
0000
,
0002
0000
0003
0000
,
2000
0000
3000
0000
,
0002
0000
0003
0000
,
0100
0000
0100
0000
,
0100
0000
0100
0000
,
0010
0000
0010
0000
,
0010
0000
0010
0000
,
1000
1000
1000
0000
,
0001
0001
0001
0000
,
0100
0100
0100
0000
,
0200
0000
0300
0000
,
1001
0000
0010
0000
,
0100
0000
0010
0000
,
1001
0000
0100
0000
,
0010
0000
0100
0000
,
1001
0000
0010
0000
,
0100
0000
0010
0000
,
1001
0000
0100
0000
,
0010
0000
0100
0000
,
2002
3003
0000
0220
,
0330
0000
2002
3003
,
0000
0000
0010
0000
0000
0010
0000
0000
,
0010
0000
0000
0000
0000
1001
0000
0000
;

//---------------dance-single - ----------------
#NOTES:
     dance-single:
     :
     Easy:
     5:
     0.184435,0.245557,0.119541,0.175327,0.000000,162.000000,147.000000,15.000000,22.000000,0.000000,0.000000,0.184435,0.245557,0.119541,0.175327,0.000000,162.000000,147.000000,15.000000,22.000000,0.000000,0.000000:
0000
0000
0000
0000
,
0000
0000
0000
0000
,
0000
0000
0000
0000
,
0000
0000
0000
0000
,
0000
0000
0000
0000
,
0000
0000
0000
0000
,
0010
0010
0010
0000
,
0100
0100
0100
0000
,
0010
0010
0010
0000
,
2000
0000
0002
3003
,
1000
0100
1000
0000
,
0001
0100
0001
0000
,
1000
0010
1000
0000
,
0001
0010
0001
0000
,
0100
0000
0010
0000
,
1000
0000
0001
0000
,
0010
0000
0100
0000
,
0001
0000
1000
0000
,
0010
0010
0010
0010
,
0100
0100
0100
0100
,
2000
0000
0000
0000
,
3002
0000
0000
1003
,
1000
0000
0001
0000
,
1000
1000
0001
0001
,
1000
0000
0001
0000
,
1000
0001
1000
0001
,
1000
1000
0001
0001
,
0100
0100
0001
0001
,
1000
1000
0001
0001
,
0010
0010
0001
0001
,
1001
0010
0000
0010
,
0000
0100
0000
0100
,
1001
0010
0000
0010
,
0000
0100
0200
0300
,
0002
0000
1003
0000
,
0002
0000
1003
0000
,
2000
0000
3001
0000
,
2000
0000
3001
0000
,
0002
0000
1003
0000
,
0002
0000
1003
0000
,
2000
0000
3001
0000
,
2002
0000
3003
0000
,
1000
0001
1000
0000
,
0001
1000
0001
0000
,
1000
0001
1000
0000
,
0010
0010
0010
0000
,
0001
1000
0001
0000
,
1000
0001
1000
0000
,
0100
0100
0100
0000
,
2002
0000
3003
0000
,
1001
0000
0010
1000
,
0100
0000
0010
0001
,
0100
0000
0100
0000
,
0010
1000
0100
0001
,
1001
0000
0010
0000
,
0100
0100
0100
0000
,
1001
0000
0110
0000
,
1000
0100
0010
0001
,
2002
3003
0000
0220
,
0330
0000
2002
3003
,
0000
0000
0110
0000
0000
0110
0000
0000
,
0110
0000
0000
0000
0000
1001
0000
0000
;

//---------------dance-single - ----------------
#NOTES:
     dance-single:
     :
     Medium:
     8:
     0.265267,0.392891,0.135480,0.318776,0.083679,233.000000,216.000000,17.000000,40.000000,0.000000,0.000000,0.265267,0.392891,0.135480,0.318776,0.083679,233.000000,216.000000,17.000000,40.000000,0.000000,0.000000:
0000
0000
0000
0000
,
0000
0000
0000
0000
,
0000
0000
0000
0000
,
0000
0000
0000
0000
,
0000
0000
0000
0000
,
0000
0000
0000
0000
,
0010
0000
0001
0100
0001
0000
0010
0000
,
1000
0000
0100
1000
0100
0000
1000
0000
,
0010
0000
0001
0100
0001
0000
0010
0000
,
1000
0100
0010
0001
,
0100
0000
0100
0000
0001
1000
0001
0000
,
0010
0000
0010
0000
1000
0001
1000
0000
,
0100
0000
0100
0000
0001
1000
0001
0000
,
0010
1000
0100
0001
,
2002
0000
0000
3003
,
0220
0000
0000
0330
,
2000
3000
0002
0003
,
1000
0100
0010
0001
,
0200
0300
0020
0030
,
2000
3000
0002
0003
,
2002
0000
0000
3003
,
0020
0000
0000
0030
,
1000
0000
0001
0000
1000
0001
1000
0000
,
0001
0000
1000
0000
0001
1000
0001
0000
,
1000
0000
0100
0000
0010
0001
0010
0000
,
0001
0000
0010
0000
0100
1000
0100
0000
,
1000
0000
0001
0000
0100
0010
0100
0000
,
0001
0000
1000
0000
0010
0100
0010
0000
,
1000
0001
1000
0001
,
0100
0010
0100
0010
,
1001
0001
0100
1000
0000
0001
0100
1000
,
0000
1000
0100
0001
0000
1000
0100
0001
,
1001
1000
0010
0001
0000
1000
0010
0001
,
0000
0001
0010
1000
0000
0001
0010
1000
,
0200
0300
2002
3003
,
0020
0030
2002
3003
,
0200
0300
2002
3003
,
0020
0030
2002
3003
,
2000
3100
2002
3003
,
0002
0103
2002
3003
,
2000
3010
2002
3003
,
0002
0000
2000
3003
,
1000
0100
1000
0000
,
0001
0100
0001
0000
,
1000
0010
1000
0000
,
0001
0000
0100
0000
,
0010
0010
1001
0000
,
0100
0100
1001
0000
,
0010
0000
1000
0000
,
0100
0010
0100
0010
,
1001
0000
0000
0000
0010
0000
0000
0010
0000
0000
0010
0000
0000
0010
0000
0000
,
0000
0000
0001
0000
0000
0001
0000
0000
1000
0000
0000
1000
0000
0000
1000
0000
,
0010
0000
0000
0000
0010
0000
0000
0100
0000
0000
0100
0000
0000
0100
0000
0000
,
0000
0000
0001
0000
0000
0001
0000
0000
1000
0000
0000
1000
0000
0000
0010
0000
,
0101
0000
0000
0000
1000
0000
0000
1000
0000
0000
1000
0000
0000
1000
0000
0000
,
0000
0000
0100
0000
0000
0100
0000
0000
0100
0000
0000
0100
0000
0000
0100
0000
,
0001
0000
0000
0000
0001
0000
0000
0001
0000
0000
0001
0000
0000
0001
0000
0000
,
1000
0000
0100
0000
1000
0000
0100
0000
1000
0000
0000
1000
0000
0000
0000
0000
,
0001
0000
0000
0001
0000
0000
0002
0000
0000
0003
0000
0000
1000
0000
0000
1000
,
0000
0000
2000
0000
0000
3000
0000
0000
0010
0000
0000
0010
0000
0000
0020
0000
,
0000
0030
0000
0000
1000
0000
0000
0001
0000
0000
1000
0000
0000
0001
0000
0000
,
1000
0000
0000
0002
0000
0000
0000
0000
1003
0000
1001
0000
0000
0000
0000
0000
;

//---------------dance-double - ----------------
#NOTES:
     dance-double:
     :
     Hard:
     12:
     0.431486,0.638448,0.247051,0.239082,0.346669,379.000000,348.000000,31.000000,30.000000,0.000000,0.000000,0.431486,0.638448,0.247051,0.239082,0.346669,379.000000,348.000000,31.000000,30.000000,0.000000,0.000000:
00000000
00000000
00000000
00000000
,
00000000
00000000
00000000
00000000
,
00000000
00000000
00000000
00000000
,
00000000
00000000
00000000
00000000
,
00000000
00000000
00000000
00000000
,
00000000
00000000
00000000
00000000
,
10000000
00000000
00000000
00000000
01000000
00000000
00100000
00000000
01000000
00100000
00000000
00100000
00000000
00010000
00000000
00001000
,
00000000
00000000
00001000
00000000
00000100
00000000
00000010
00000000
00000001
00000100
00000000
00000010
00000000
00000100
00000000
00000000
,
00000010
00000000
00000000
00000000
00001000
00000000
00000100
00000000
00010000
00001000
00000000
00100000
00000000
00001000
00000000
00000000
,
00000000
00100000
00001000
00000000
00100000
00000000
00100000
00000000
00100000
00001000
00000000
00001000
00000000
00001000
00000000
00000000
,
00010000
00100000
10000000
01000000
00100000
00000000
00010000
00000000
,
00001000
00000100
00000010
00000001
00000100
00000000
00001000
00000000
,
00010000
01000000
00100000
10000000
01000000
00000000
00010000
00000000
,
00001000
00000010
00000100
00000001
00001000
00000000
00000110
00000000
,
00000002
00000000
00000100
00000100
00000000
00000000
00001003
00000200
,
00000000
00000000
00000000
00000000
00000000
00000000
00010300
00000000
00002000
00000000
00000000
00003000
00200000
00000000
00010000
00000000
,
00320000
00000000
00000000
00000000
01030000
00000000
00200000
00000000
00000000
00000000
00000000
00300000
10000000
00000000
01000000
00000000
,
00010000
00000000
00000000
00010000
00000000
00000000
00001000
00000000
00000100
00000000
00000000
00000000
00000010
00000000
00000000
00000000
,
00000001
00000000
00000000
00000000
00000100
00000000
00002000
00000000
00000000
00000000
00000000
00003000
00010000
00000000
00000000
00000000
,
00100000
00000000
00000000
00010000
00000000
00000000
01000000
00000000
10000000
00000000
00000000
00000000
00100000
00000000
00000000
00000000
,
00020000
00000000
00000000
00000000
,
00032000
00000000
00000000
00003100
,
00001001
00000000
00000100
00000100
00010000
00010000
00001000
00001000
,
00011000
00000000
00000000
00000000
00101000
00000000
00001000
00000000
00100000
00000000
00010000
00100000
00000000
00100000
00000000
00000000
,
10000000
00000000
01000000
00100000
00001000
00010000
00000100
00001000
,
00000010
00000001
00000100
00000000
00001000
00000010
00000100
00000000
,
00011000
00000000
00100000
00010000
01000000
00100000
10000000
01000000
,
00110000
00000000
00001000
00000100
00001000
00000010
00000100
00000001
,
00001001
00000000
00000010
00000100
00010000
00001000
00010000
00100000
,
10100000
00110000
00011000
00001100
,
00000011
00000000
00000100
00000000
00001000
00000000
00100000
00010000
01000000
00000000
00100000
00000000
10000000
01000000
00100000
00010000
,
00001000
00000000
00000010
00000000
00000101
00000000
00000010
00000000
00001000
00010000
00100000
01000000
10000000
01000000
00100000
00010000
,
00001000
00000000
00000110
00000000
00000001
00000000
00000010
00001000
00010000
00000000
00100000
00000000
10000000
01000000
00100000
00010000
,
00001000
00000010
00000001
00000100
00020000
00000000
00032000
00000000
,
00203000
00300000
20020000
30030000
,
02000000
03000000
00220000
00330000
,
00002000
00003000
00000220
00000330
,
00000002
00000003
00002200
00003300
,
00010000
00000000
00000000
10000000
00100000
00000000
01000000
00000000
20020000
00000000
00000000
00000000
30030000
00000000
00000000
00000000
,
00010000
00000000
00000000
00000100
00001000
00000000
00000010
00000000
00002002
00000000
00000000
00000000
00003003
00000000
00000000
00000000
,
00000010
00000000
00000000
00010000
00001000
00000000
00100000
00000000
00020000
00000000
00000000
00000000
00000000
00030000
00000000
00000000
,
10000000
00000000
00000000
00100000
00000000
00000000
00010000
00000000
00000000
00001000
00000000
00000000
00000100
00000000
00000010
00000000
,
00000001
00000000
00000000
00000000
00000010
00000000
00000100
00000000
00001000
00000000
00000000
00010000
00000000
00001000
00000000
00010000
,
00000000
00000000
00100000
00000000
00010000
00000000
01000000
00000000
00100000
00000000
00000000
10000000
00000000
01000000
00000000
00000000
,
00100000
00000000
00000000
00000000
00010000
00000000
00001000
00000000
00000100
00000000
00000000
00000010
00000000
00000001
00000000
00000000
,
00000001
00000010
00000100
00000000
00001000
00010000
00100000
00000000
,
10010000
00000000
00000000
00000000
01000000
00000000
00010000
00000000
00001000
00010000
00000000
00001000
00000000
00010000
00000000
00000100
,
00000000
00000000
00001000
00000000
00000010
00000000
00000100
00000000
00000001
00000100
00000000
00000001
00000000
00000100
00000000
00000000
,
00000010
00000000
00000000
00000000
00001000
00000000
00010000
00000000
00001000
00010000
00000000
00001000
00000000
00010000
00000000
00000000
,
00001000
00000000
00001000
00000000
00001000
00000000
00001000
00000000
00010000
00001000
00010000
00001000
00010000
00001000
00010000
00000000
,
00000100
00000000
00000000
00000000
00000010
00000000
00000000
00000000
00000001
00000010
00000000
00000100
00000000
00001000
00000000
00010000
,
00000000
00000000
01000000
00000000
00100000
00000000
10000000
00000000
01000000
00100000
00000000
00010000
00000000
00000000
00001000
00000000
,
00000000
00000000
00000100
00000000
00000010
00000000
00000001
00000000
00000010
00000000
00000000
00000110
00000000
00000000
00001001
00000000
,
00000010
00000100
00000000
00000010
00000000
00001000
00000000
00000000
00010000
00001000
00000000
00010000
00000000
01000000
00000000
00000000
,
10100000
00000000
00000000
00000000
01010000
00000000
00000000
00000000
00100000
00000000
00000000
00001000
00000000
00010000
00000000
00000000
,
00000000
00000100
00001000
00000010
00000100
00000001
00000010
00000100
,
00001000
00000000
00000000
00000000
00010000
00000000
00001000
00000000
00010000
00001000
00000000
00100000
00000000
00001000
00000000
00010000
,
00000000
00000000
00100000
00000000
01000000
00000000
10000000
00000000
00100000
00000000
00000000
00010000
00000000
00001000
00000000
00000000
,
00000100
00000000
00001000
00000010
00000000
00001000
00000010
00000000
00001000
00000010
00000000
00000000
00010000
00000000
00001000
00010000
,
00000000
00001000
00010000
00000000
00001000
00010000
00000000
00000000
00100000
00000000
00010000
00100000
00000000
00010000
00100000
00000000
,
00010000
00100000
00000000
10000000
00010000
00000000
00000000
01010000
00000000
00000000
00011000
00000000
00000000
00001100
00000000
00000000
,
00011000
00000000
00000000
02020000
00000000
00000000
03030000
00000000
00001000
00000000
00011000
00000000
00000000
00000000
00000000
00000000
;

//---------------dance-double - ----------------
#NOTES:
     dance-double:
     :
     Medium:
     8:
     0.291452,0.442003,0.167357,0.358623,0.087663,256.000000,235.000000,21.000000,45.000000,0.000000,0.000000,0.291452,0.442003,0.167357,0.358623,0.087663,256.000000,235.000000,21.000000,45.000000,0.000000,0.000000:
00000000
00000000
00000000
00000000
,
00000000
00000000
00000000
00000000
,
00000000
00000000
00000000
00000000
,
00000000
00000000
00000000
00000000
,
00000000
00000000
00000000
00000000
,
00000000
00000000
00000000
00000000
,
00100000
00001000
00010000
00000010
,
00000001
00000100
00010000
01000000
,
10000000
00000000
00100000
00000000
00010000
00001000
00010000
00000000
,
00000000
00001000
00001000
00001000
00020000
00000000
00030000
00000000
,
00000010
00001001
00000100
00001000
,
00100000
10010000
00100000
00001000
,
00010000
00000100
00000010
00000001
,
00000100
00010000
00100000
01000000
,
20000000
00000000
30100000
00020000
00000000
00030000
00001000
00000200
,
00000000
00000300
00000000
00000010
00000001
00000100
00001000
00000010
,
00000000
00000000
00000100
00002000
00000000
00003000
00010000
00000000
,
00200000
00300000
10000000
00010000
,
01000000
00000000
00001000
00020000
00000000
00030000
00001000
00000000
,
00000020
00000030
00000200
00000300
,
00002002
00000000
00000000
00003003
,
00000220
00000000
00000000
00000330
,
00001001
00000000
00000100
00000100
00001000
00001000
00000100
00000000
,
00001000
00000000
00010000
00010000
00100000
00000000
01000000
00000000
,
10010000
00000000
00100000
00100000
01000000
01000000
00100000
00000000
,
00020000
00032000
00023000
00032000
,
00013000
00000000
00000100
00000100
00001000
00001000
00000010
00000000
,
00001001
00000000
00000010
00000010
00001000
00000000
00000100
00000000
,
00011000
00000000
00100000
00100000
00010000
00010000
01000000
00000000
,
20000000
00000000
30020000
00000000
20030000
00000000
30010000
00100000
,
00001000
00000000
00011000
00000100
00000010
00000000
00001001
00000100
,
00010000
00000000
00011000
00100000
01000000
00100000
00010000
00000100
,
00001100
00000000
00010000
00100000
10000000
00000000
01000000
00010000
,
00001000
00000100
00000001
00000100
00002000
00000000
00003020
00000000
,
00000130
00000100
00002002
00003003
,
00000010
00000010
00002002
00003003
,
00000100
00010000
00022000
00033000
,
00001000
00100000
00220000
00330000
,
10000000
00000000
00100000
00010000
00220000
00000000
00330000
00000000
,
00010000
00000000
00001000
00000100
00002200
00000000
00003300
00000000
,
00000010
00000000
00000100
00000001
00000202
00000000
00000303
00000000
,
00000020
00000000
00000000
00000030
,
00000100
00000100
00000100
00001000
,
00010000
00100000
00100000
00100000
,
00010000
00000100
00000100
00000100
,
00010000
00100000
10000000
01000000
,
00010000
00010000
00000100
00000100
,
00010000
00010000
01000000
01000000
,
00020000
00000100
00000100
00030100
,
00000020
00000000
00000230
00000000
,
00000301
00000000
00000000
00000000
00000001
00000000
00000000
00000001
00000000
00000000
00000001
00000000
00000000
00000100
00000000
00000000
,
00000000
00000000
00001000
00000000
00000000
00001000
00000000
00000000
00010000
00000000
00000000
00010000
00000000
00000000
00010000
00000000
,
00001000
00000000
00000000
00000000
01000000
00000000
00000000
01000000
00000000
00000000
01000000
00000000
00000000
01000000
00000000
00000000
,
00000000
00000000
00100000
00000000
00000000
00100000
00000000
00000000
00100000
00000000
00000000
00100000
00000000
00000000
10000000
00000000
,
00010000
00000000
00000000
00000000
00010000
00000000
00000000
00010000
00000000
00000000
00010000
00000000
00000000
00010000
00000000
00000000
,
00000000
00000000
00001000
00000000
00000000
00001000
00000000
00000000
00001000
00000000
00000000
00001000
00000000
00000000
00000010
00000000
,
00000100
00000000
00000000
00000000
00000001
00000000
00000000
00000001
00000000
00000000
00000001
00000000
00000000
00000001
00000000
00000000
,
00000000
00000000
00000100
00000000
00000000
00000100
00000000
00000000
00010000
00000000
00000000
00010000
00000000
00000000
00000000
00000000
,
00001000
00000000
00000000
00010000
00000000
00000000
00200000
00000000
00000000
00000000
00300000
00000000
00010000
00000000
00000000
00001000
,
00000000
00000000
00000200
00000000
00000000
00000000
00000300
00000000
00001000
00000000
00000000
00010000
00000000
00000000
00200000
00000000
,
00000000
00000000
00300000
00000000
00001000
00000000
00000000
00001000
00000000
00000000
00010000
00000000
00000000
00010000
00000000
00000000
,
00001000
00000000
00000000
00022000
00000000
00000000
00033000
00000000
00000000
00000000
00011000
00000000
00000000
00000000
00000000
00000000
;

//---------------dance-double - ----------------
#NOTES:
     dance-double:
     :
     Easy:
     5:
     0.204927,0.294668,0.143449,0.191266,0.000000,180.000000,162.000000,18.000000,24.000000,0.000000,0.000000,0.204927,0.294668,0.143449,0.191266,0.000000,180.000000,162.000000,18.000000,24.000000,0.000000,0.000000:
// measure 0
00000000
00000000
00000000
00000000
,  // measure 1
00000000
00000000
00000000
00000000
,  // measure 2
00000000
00000000
00000000
00000000
,  // measure 3
00000000
00000000
00000000
00000000
,  // measure 4
00000000
00000000
00000000
00000000
,  // measure 5
00000000
00000000
00000000
00000000
,  // measure 6
00100000
00100000
00100000
00000000
,  // measure 7
00010000
00010000
00010000
00000000
,  // measure 8
01000000
01000000
01000000
00000000
,  // measure 9
10000000
10000000
10000000
00000000
,  // measure 10
00010000
00000000
00001000
00000000
,  // measure 11
00000100
00000000
00001000
00000000
,  // measure 12
00010000
00000000
01000000
00000000
,  // measure 13
00010000
00000000
00001000
00000000
,  // measure 14
00000200
00000000
00000000
00000300
,  // measure 15
00000002
00000003
00002000
00003000
,  // measure 16
00000020
00000000
00000000
00000030
,  // measure 17
00020000
00000000
00000000
00030000
00002000
00000000
00000000
00003000
,  // measure 18
00100000
00100000
00010000
00010000
,  // measure 19
01000000
01000000
10000000
10000000
,  // measure 20
00200000
00000000
00000000
00300000
,  // measure 21
00002000
00000000
00000000
00013000
,  // measure 22
00000100
00000100
00000001
00001000
,  // measure 23
00000010
00000010
00001000
00000100
,  // measure 24
00010000
00010000
00010000
00010000
,  // measure 25
01000000
10000000
00100000
00010000
,  // measure 26
01000000
01000000
10000000
00010000
,  // measure 27
00100000
00100000
00010000
10000000
,  // measure 28
00010000
00010000
00010000
00010000
,  // measure 29
00000100
00000001
00000010
00000000
,  // measure 30
00001100
00010000
00000000
00010000
,  // measure 31
00000000
00000000
00001000
00000000
00000000
00000000
00001000
00010000
,  // measure 32
10000000
00000000
00010000
00001000
,  // measure 33
00000010
00000001
00000200
00000320
,  // measure 34
00001030
00000000
00000002
00000003
,  // measure 35
00001000
00000000
00000002
00000003
,  // measure 36
00001000
00000000
00020000
00030000
,  // measure 37
00001000
00000000
00020000
00030000
,  // measure 38
10000000
01000000
20020000
30030000
,  // measure 39
00010000
01000000
20020000
30030000
,  // measure 40
00100000
00001000
00022000
00033000
,  // measure 41
00000200
00000000
00000000
00000300
,  // measure 42
00000010
00000010
00000010
00000000
,  // measure 43
00001000
00001000
00001000
00000000
,  // measure 44
00010000
00010000
00010000
00000000
,  // measure 45
00100000
00100000
00100000
00000000
,  // measure 46
01000000
01000000
01000000
01000000
,  // measure 47
00010000
00010000
00001000
00001000
,  // measure 48
00000100
00000100
00000100
00000001
,  // measure 49
00002002
00000000
00000000
00003003
,  // measure 50
00001010
00000000
00000100
00001000
,  // measure 51
00010000
00100000
01000000
10000000
,  // measure 52
00000000
00100000
00010000
00001000
,  // measure 53
00000010
00000100
00000002
00000003
,  // measure 54
00001001
00000010
00000100
00001000
,  // measure 55
00000000
00100000
00010000
01000000
,  // measure 56
10010000
01000000
00100000
00010000
,  // measure 57
00000000
00000010
00001000
00000100
,  // measure 58
00001001
00000000
00000000
00001001
00000000
00000000
00011000
00000000
,  // measure 59
00000000
00011000
00000000
00000000
10010000
00000000
00000000
10010000
,  // measure 60
00000000
00000000
00011000
00000000
00000000
00011000
00000000
00000000
,  // measure 61
00011000
00000000
00000000
00000000
00010000
00011000
00000000
00000000
;
