#TITLE:True Blue (DJ Command Mix);
#SUBTITLE:;
#ARTIST:DJ Command;
#TITLETRANSLIT:;
#SUBTITLETRANSLIT:;
#ARTISTTRANSLIT:;
#GENRE:;
#CREDIT:;
#BANNER:True Blue (DJ Command Mix).png;
#BACKGROUND:True Blue (DJ Command Mix)-jacket.png;
#LYRICSPATH:;
#CDTITLE:;
#MUSIC:True Blue (DJ Command Mix).ogg;
#OFFSET:-0.279000;
#SAMPLESTART:92.400002;
#SAMPLELENGTH:15.000000;
#SELECTABLE:YES;
#DISPLAYBPM:164.000000;
#BPMS:0.000000=164.000000
;
#STOPS:91.750000=0.732000
;
#BGCHANGES:;
#KEYSOUNDS:;
#ATTACKS:;

//---------------dance-single - ----------------
#NOTES:
     dance-single:
     :
     Hard:
     15:
     0.641555,1.018512,0.419257,0.645010,0.524071,557.000000,505.000000,52.000000,80.000000,0.000000,0.000000,0.641555,1.018512,0.419257,0.645010,0.524071,557.000000,505.000000,52.000000,80.000000,0.000000,0.000000:
0000
0000
0000
0000
,
0000
0000
0000
0000
,
0000
0000
0000
0000
,
0000
0000
0000
0000
,
0000
0000
0000
0000
,
0000
0000
0000
0000
,
0000
0000
0000
0000
,
0000
0000
0000
0000
,
0002
0000
0203
0000
,
0320
0000
0000
0030
,
2000
0000
3020
0000
,
0230
0000
0000
0300
,
0002
0000
2003
0000
,
3020
0000
0230
0000
,
0302
0000
0000
0000
,
1003
0000
0000
0100
0000
1000
0000
0100
1000
0000
0000
0010
0000
0100
0000
0010
,
0100
0000
0000
0001
0000
0100
0000
0001
0100
0000
0010
0000
1000
0000
0001
0000
,
1001
0000
0000
0100
0000
0010
0000
1000
0100
0000
0000
0010
0000
0100
0000
0001
,
0100
0000
0000
1000
0000
0010
0000
0100
0010
0000
0001
0000
1000
0000
0001
0000
,
1001
0000
0000
0010
0000
0100
0000
1000
0100
1000
0100
0000
0010
0000
0110
0000
,
1001
0000
0000
0010
0000
0001
0000
0010
0100
0010
0100
0000
0010
0000
1001
0000
,
1000
0000
1000
0100
0000
0010
0100
0010
0100
0000
0010
0001
0000
0001
0100
0000
,
1000
0000
0010
0000
0100
0000
0001
0000
0100
0010
0100
0010
1000
0010
1000
0020
,
1030
0000
0100
1000
0100
1000
0100
1000
0100
0000
0010
0000
0001
0000
1000
0010
,
1000
0010
1000
0000
0001
0000
0100
0000
0010
0000
1000
0000
0100
0000
0001
0010
,
0001
0010
0001
0000
0100
0000
0010
0000
1000
0010
0100
0000
0010
0000
1000
0000
,
0100
0001
0010
0000
0001
0000
0100
0000
0010
1000
0100
0000
0010
0000
0100
0000
,
0010
1000
0001
0000
0100
0000
0010
0000
1000
0100
1000
0100
1000
0000
0010
0000
,
0100
0000
0001
0000
0010
0001
0010
0000
0001
0000
0100
0000
0010
0000
0100
0000
,
1000
0010
1000
0010
1000
0000
0100
0000
1000
0001
1000
0001
1000
0000
0010
0000
,
0100
0010
0100
0010
0100
0000
0001
0000
1000
0000
1001
0000
0000
0110
0000
0000
,
2002
3003
0220
0330
,
2010
0000
0100
0000
0010
0000
0100
0200
,
0300
0020
0000
3030
0110
0000
0002
0100
,
0000
0010
0000
0203
0000
0000
0310
0000
,
1001
0000
0220
0330
0000
0000
1010
0000
,
0110
0000
0101
0000
0020
0001
0030
0200
,
0000
0300
0020
0000
2030
0000
0100
0200
,
0000
0000
3300
0000
0000
0000
0000
0000
0101
0000
0000
0101
0000
0001
0010
0100
,
0010
0000
0000
0110
0000
0000
1010
0000
2002
0000
0000
0000
3003
0000
0000
0000
,
0120
0000
0000
0000
1000
0000
0100
0200
,
0300
2000
0000
3030
0110
0000
0010
0002
,
0000
0203
0000
0320
0000
1030
1100
0000
,
0110
0012
0203
0010
,
0310
0000
1000
0000
0102
0000
0000
0013
,
0020
0000
2030
0000
0100
0000
0010
0020
,
0000
0000
0000
0000
3030
0000
0000
0000
0100
0001
0100
0001
0100
0000
0010
1000
,
0010
1000
0010
1000
0010
0000
0100
0010
0200
0000
0000
0000
0001
0000
0302
0000
,
0000
0023
0000
0031
0200
0000
0010
0000
,
0010
0000
0301
0000
0002
0000
1000
2003
,
0000
0010
3020
0000
0130
0010
1001
0000
,
0010
0100
1001
0000
2000
0000
0100
3200
,
0000
0310
0100
0010
0200
0000
0001
0302
,
0000
0010
0023
0000
2030
0000
3100
0010
,
0000
1001
0000
1100
0000
0001
0011
0000
,
0110
0000
1100
0000
0102
0000
0100
0203
,
0000
0010
0000
0320
1000
0000
0100
0000
,
1000
0000
0130
0000
1000
0100
0010
0001
,
0000
1100
0000
0101
0000
0010
0100
0000
,
1001
0000
1100
0000
0102
0000
0010
0020
,
0000
0000
0033
0000
2100
0000
0000
0010
,
0000
3010
0100
0010
1002
0000
0000
0103
,
0220
0000
0000
0000
0000
0000
0000
0000
0000
0000
0000
0000
0000
0000
0000
0000
0000
0000
0330
0000
0000
0000
0000
0000
2000
0000
0000
0000
0000
0000
0010
0000
0000
0000
0000
0000
0000
0000
0000
0010
0000
0000
0000
0000
3000
0000
0000
0000
,
0202
0000
0300
0010
0103
0010
0100
0010
0100
0000
0010
0000
0001
0000
1000
0000
,
0010
0000
0100
0001
0100
0001
0100
0000
0010
0000
1000
0000
0100
0000
0001
0010
,
0100
0000
0010
0000
1000
0100
0010
0000
0100
0001
0100
0010
0001
0000
1000
0010
,
1000
0100
0010
0000
0002
0000
0203
0000
0320
0000
2030
0000
3200
0000
0320
0000
,
0031
0100
0010
0000
1000
0010
0100
0000
0010
0001
0010
0001
0010
0000
0100
0010
,
0100
0010
0100
0000
1000
0000
0100
0000
0010
0000
1000
0100
1000
0100
1000
0000
,
0010
0100
0010
0100
0020
0000
2030
0000
3200
0000
0301
0010
0001
0010
0001
0000
,
1000
0100
1000
0100
1000
0000
0010
0000
0100
0000
0001
0010
0001
0010
1000
0100
,
1000
0100
0010
0001
0010
0001
0100
0010
1000
0010
1000
0010
1000
0000
0100
0001
,
0100
0001
0100
0000
0010
0100
0010
0100
0001
1000
0001
1000
0001
0000
0100
0010
,
1000
0010
0100
0000
0001
0010
0100
0000
1000
0010
0100
0010
1000
0000
0001
0100
,
0010
0100
0001
0000
1000
0010
0100
0000
0001
0100
0010
0000
1000
0100
0001
0000
,
0001
0100
1000
0000
0010
0100
0001
0000
1200
0000
1000
0000
1300
0000
0000
0000
,
0001
0010
0001
0000
1000
0100
1000
0000
0201
0000
0001
0000
0301
0000
0000
0000
,
1000
0010
1000
0000
0001
0100
0001
0000
1000
0010
0100
0000
1001
0000
1001
0000
,
0100
0010
0100
0000
1001
0000
1001
0000
0001
0000
0101
0000
0000
1010
0000
0000
,
0001
0010
0100
1000
0001
0010
0100
2000
0002
0000
0000
0000
0000
0000
0000
0000
,
0000
0000
0000
0000
,
0000
0000
3003
0000
;

//---------------dance-double - ----------------
#NOTES:
     dance-double:
     :
     Hard:
     14:
     0.566688,0.887091,0.201566,0.330568,0.249942,492.000000,467.000000,25.000000,41.000000,0.000000,0.000000,0.566688,0.887091,0.201566,0.330568,0.249942,492.000000,467.000000,25.000000,41.000000,0.000000,0.000000:
00000000
00000000
00000000
00000000
,
00000000
00000000
00000000
00000000
,
00000000
00000000
00000000
00000000
,
00000000
00000000
00000000
00000000
,
00000000
00000000
00000000
00000000
,
00000000
00000000
00000000
00000000
,
00000000
00000000
00000000
00000000
,
00000000
00000000
00000000
00000000
,
00200000
00000000
00302000
00000000
,
00023000
00000000
00000000
00000000
,
00030200
00000000
00002300
00000000
,
00003020
00000000
00000032
00000000
,
00000203
00000000
00020300
00000000
,
00032000
00000000
00203000
00000000
,
00320000
00000000
00000000
00000000
,
01030000
00000000
00000000
00100000
00000000
01000000
00000000
00100000
01000000
00000000
00000000
00010000
00000000
00100000
00000000
00010000
,
00100000
00000000
00000000
00001000
00000000
00010000
00000000
00001000
00010000
00000000
00000100
00000000
00001000
00000000
00000001
00000000
,
00000010
00000000
00000000
00000100
00000000
00000010
00000000
00000100
00000010
00000000
00000000
00001000
00000000
00000100
00000000
00001000
,
00000100
00000000
00000000
00010000
00000000
00001000
00000000
00010000
00001000
00000000
01000000
00000000
00010000
00000000
00100000
00000000
,
00010000
00000000
01000000
00000000
00010000
00000000
01000000
00000000
00100000
10000000
00100000
00000000
01000000
00000000
00100000
00000000
,
00001000
00000000
00010000
00000000
00001000
00000000
00010000
00000000
00000010
00010000
00000010
00000000
00001000
00000000
00000100
00000000
,
00000010
00000001
00000100
00001000
00000010
00010000
00001000
01000000
,
00010000
00100000
00010000
00000000
00001000
00010000
00001000
00000000
00010000
00000100
00000000
00001000
00000000
00010000
00001000
00010000
,
00001000
00000000
00000000
00000000
00010000
00000000
00100000
00000000
00110000
00000000
00010000
01000000
00010000
00000000
00100000
00000000
,
10000000
00000000
01000000
00000000
00100000
00000000
00001000
00000000
00010000
00000000
00000100
00001000
00000100
00000000
00001000
00000000
,
00000010
00000001
00000100
00010000
00001000
01000000
00100000
10000000
,
00100000
01000000
00001000
00010000
00000100
00001000
00000010
00000001
,
00000100
00000010
00000100
00000010
00000100
00000000
00000010
00000000
00001000
00000000
00000100
00000000
00010000
00000000
00001000
00000000
,
01000000
00000000
00010000
00000000
00100000
00000000
10000000
00000000
01000000
00000000
00100000
01000000
00100000
00000000
01000000
00010000
,
01000000
00001000
00010000
00000010
00001000
00000100
00000010
00000001
,
00000010
00000000
00000100
00000000
00001000
00000000
00010000
00000000
00000000
00000000
00011000
00000000
00000000
00011000
00000000
00000000
,
00022000
00033000
02020000
03030000
,
00200000
00000000
10300000
00000000
01000000
00010000
01000000
00020000
,
00000000
00230000
00000000
00301000
00001000
00000000
00010000
00000100
,
00000000
00001000
00000000
00000010
00000000
00000001
00000100
00001000
,
00000100
00010000
00001000
01000000
00000000
00000000
00100000
10000000
,
01000000
00000000
01010000
00000000
00100000
00001000
00010000
00000100
,
00000000
00000100
00010000
00000000
00001000
00100000
00010000
02000000
,
00000000
00100000
03100000
00000000
11000000
01000000
01000000
00000000
,
01010000
00010000
00010000
00000000
00220000
00000000
00330000
00000000
,
00010000
00000100
00001000
00000000
00001000
00000010
00000100
00000001
,
00000000
00000010
00000000
00000001
00000100
00000000
00000010
00001000
,
00000000
00000100
00000000
00010000
00000000
00001000
01000000
00000000
,
00010000
10000000
01000000
00000000
10000000
00100000
01000000
00010000
,
00100000
00001000
00010000
00000010
00001000
00000100
00000010
00000001
,
00000100
00000010
00010000
00001000
00100000
00000000
00010000
01010000
,
00000000
10000000
11000000
00000000
00100000
01000000
00020000
00000000
,
00130000
00001000
00020000
00000000
00030200
00000000
00001000
00001300
,
00000000
00000020
00000000
00000031
00000100
00000000
00000010
00000000
,
00001000
00000100
00010000
00000000
00001000
00100000
00010000
01000000
,
00000000
00100000
10000000
00000000
01000000
00100000
01000000
00000000
,
00010000
10000000
00010000
00000000
10000000
01000000
00100000
00010000
,
00000000
00100000
00001000
00010000
00000100
00000000
00001100
00000000
,
00000110
00000000
00000011
00000000
00000001
00000100
00000010
00001000
,
00000000
00000100
00010000
00001000
00000000
00010000
00011000
00000000
,
00101000
00000000
00110000
00000000
00010000
10000000
01000000
00100000
,
00000000
01000000
00001000
00010000
00000000
00010000
00001000
00000000
,
00010000
00000000
00001000
00000000
00010000
00000100
00001000
00000100
,
00000000
00010000
00001000
00100000
00000000
00100000
00010000
00000000
,
00100000
00000000
01000000
00000000
10010000
00000000
01000000
00200000
,
00000000
00000000
00300000
00000000
01010000
00000000
00000000
00100000
,
00000000
00001000
00100000
00010000
00002000
00000000
00003000
00000010
,
00000002
00000000
00000000
00000000
00000003
00000000
00000000
00000000
00002000
00000000
00000100
00000000
00000000
00003100
00000000
00000000
,
00022000
00000000
00033000
00000000
00010000
00001000
00010000
00001000
00020000
00000000
00000000
00000000
00031000
00000000
00100000
00000000
,
00010000
00000000
01000000
00000000
00100000
00000000
10000000
00000000
01000000
10000000
01000000
00000000
00100000
00000000
00010000
00000000
,
00001000
00100000
00001000
00000000
00010000
00000000
00000100
00000000
00001000
00000010
00001000
00000010
00001000
00000000
00000001
00000000
,
00000100
00000010
00010000
00001000
00100000
00010000
01000000
20000000
,
00100000
00000000
00100000
00000000
00100000
00000000
30100000
00000000
01000000
00000000
00010000
00000000
01000000
00100000
01000000
00100000
,
01000000
00000000
10000000
00000000
00100000
00000000
01000000
00000000
00001000
00000000
00010000
00001000
00010000
00001000
00010000
00000000
,
00000100
00000000
00001000
00000000
00000010
00000000
00000001
00000000
00000100
00000010
00000100
00000010
00000100
00000000
00000001
00000000
,
00001000
00000000
00000100
00000000
00010000
00000000
00001000
00000000
00100000
00010000
00100000
00010000
00100000
00000000
00010000
00000000
,
01000000
00000000
10000000
00000000
00100000
00000000
00001000
00000000
00010000
00001000
00010000
00001000
00010000
00000000
00000100
00001000
,
00000100
00001000
00000100
00000000
00010000
00001000
00010000
00000000
00100000
00010000
00100000
00010000
00100000
00000000
00001000
00010000
,
00001000
00010000
00001000
00000000
00000010
00001000
00000010
00000000
00000100
00000001
00000010
00000000
00001000
00000000
00000100
00000000
,
00001000
00000100
00010000
00000000
00001000
00000000
00100000
00010000
01000000
00000000
00100000
00000000
10000000
00000000
01000000
00000000
,
00100000
00010000
01000000
00100000
20010000
00010000
00000000
00010000
,
00000000
30010000
00000000
01000000
00002000
00100000
00000000
00100000
,
00000000
00103000
00000000
00010000
00000200
00001000
00001300
00000000
,
00000020
00000000
00000100
00000000
00000130
00000000
00000000
00000000
00000001
00000000
00001001
00000000
00000000
00001010
00000000
00000000
,
00001200
00010300
00022000
00000000
,
00000000
00000000
00000000
00000000
,
00000000
00000000
00033000
00000000
;

//---------------dance-double - ----------------
#NOTES:
     dance-double:
     :
     Medium:
     11:
     0.437686,0.558539,0.201566,0.354756,0.020157,380.000000,355.000000,25.000000,44.000000,0.000000,0.000000,0.437686,0.558539,0.201566,0.354756,0.020157,380.000000,355.000000,25.000000,44.000000,0.000000,0.000000:
00000000
00000000
00000000
00000000
,
00000000
00000000
00000000
00000000
,
00000000
00000000
00000000
00000000
,
00000000
00000000
00000000
00000000
,
00000000
00000000
00000000
00000000
,
00000000
00000000
00000000
00000000
,
00000000
00000000
00000000
00000000
,
00000000
00000000
00000000
00000000
,
00200000
00000000
00320000
00000000
,
02030000
00000000
00000000
00000000
,
03200000
00000000
20300000
00000000
,
32000000
00000000
00000000
00000000
,
03002000
00000000
00023000
00000000
,
00032000
00000000
00023000
00000000
,
00030200
00000000
00000000
00000000
,
00001300
00000000
00001000
00000010
00000001
00000000
00000001
00000010
,
00001000
00000000
00000001
00000010
00000100
00001000
00100000
00010000
,
01000000
00000000
00100000
10000000
01000000
00000000
00100000
00010000
,
01000000
00000000
01000000
00001000
00010000
00000100
00001000
00000001
,
00000010
00000000
00000001
00000010
00000100
00001000
00000010
00000100
,
00001000
00000000
00000010
00010000
00001000
00100000
00010000
10000000
,
01000000
00100000
00010000
00001000
00100000
00010000
01000000
00100000
,
10000000
01000000
00100000
00000000
00001000
00010000
00000100
00001000
,
00000000
00000000
00000000
00000000
00011000
00001000
00010000
00000000
,
00010000
00001000
00010000
00000000
00000010
00000100
00000010
00000000
,
00000010
00000100
00000010
00000000
00000001
00000100
00000010
00000100
,
00000001
00000100
00000010
00000100
00000010
00010000
00000100
00010000
,
00001000
00100000
00010000
00100000
00010000
01000000
10000000
00000000
,
00010000
01000000
10000000
00000000
00100000
00010000
01000000
00000000
,
00100000
10000000
01000000
00000000
01000000
00010000
01000000
00010000
,
00100000
00000000
00001000
00000000
00100000
00000000
00001000
00000000
00010000
00000000
00000100
00000000
00000000
00010100
00000000
00000000
,
00022000
00033000
00020000
00000000
,
00030200
00000000
00000000
00000000
00001300
00000000
00000010
00000020
,
00000000
00000230
00000000
00000000
00000301
00000000
00000010
00001000
,
00000000
00000100
00000000
00020000
00000000
00000000
00031000
00000000
,
00100000
00101000
00000000
00020000
,
02030000
00000000
03200000
00000000
20300000
00000000
00000000
31000000
,
00000000
00000000
01100000
00000000
00010000
00000000
10000000
00020000
,
00000000
00000000
00000000
00000000
00030000
00000000
00000000
00000000
10000000
00000000
00000000
01000000
00000000
00000000
00010000
00000000
,
00001000
00000000
00000000
00010000
00000000
00000000
00001000
00000000
00000200
00000000
00000000
00000000
00000300
00000000
00000000
00000000
,
00020000
00000000
00030000
00000000
00001000
00000000
00010000
00001000
,
00000000
00200000
00000000
00000000
00310000
00000000
01000000
00100000
,
00000000
10000000
00000000
11000000
00000000
00000000
00100000
00000000
,
00001000
00000000
00011000
00000000
00000000
00000000
00000100
00010000
,
00000100
00000000
00001000
00000000
00000010
00000100
00000000
00000010
,
00000100
00000000
00000001
00000010
00000100
00000000
00001000
00000200
,
00000000
00000000
00000000
00000000
00010300
00010000
00010000
00000000
,
00001000
00001000
00001000
00000000
00200000
00000000
00310000
00010000
,
00000000
01000000
00000000
00100000
10000000
00000000
01000000
10000000
,
00000000
00100000
01000000
00000000
00010000
00100000
00001000
00000000
,
00010000
00000100
00001000
00000000
00000010
00000001
00000100
00000000
,
00000010
00001000
00000100
00000000
00000010
00000100
00001000
00000100
,
00000000
00010000
00001000
00010000
00001000
00000000
00100000
00010000
,
00000000
01000000
00100000
00010000
10000000
00000000
00100000
01000000
,
00000000
10010000
00000000
11000000
00000000
00010000
00100000
00000000
,
11000000
00000000
01100000
00000000
00200000
00000000
00001000
00301000
,
00000000
00010000
00000000
00002000
00010000
00000000
00010000
00000000
,
00010000
00000000
00013000
00000000
00000100
00010000
00001000
00010000
,
00000000
00000100
00001000
00000010
00000000
00000100
00000001
00000000
,
00001010
00000000
00001100
00000000
00011000
00000000
00020000
00002000
,
00000000
00000000
00033000
00000000
00011000
00000000
00000000
00002000
,
00000000
00103000
00100000
00100000
00020000
00000000
00000000
01030000
,
00200000
00000000
00000000
00000000
00000000
00000000
00300000
00000000
20000000
00000000
00100000
00000000
00000000
30100000
00000000
00000000
,
02020000
03030000
00110000
00011000
,
00000100
00010000
00001000
00000000
00001100
00000000
00000110
00000000
,
00000001
00000100
00000010
00000000
00000101
00000000
00001010
00000000
,
00000100
00010000
00001000
00000000
00101000
00000000
01010000
00000000
,
00100000
10000000
01000000
00000000
01000000
00010000
01000000
00010000
,
00100000
00001000
00100000
00001000
00010000
00000100
00010000
00000100
,
00001000
00000010
00001000
00000010
00010000
00001000
00010000
00001000
,
01000000
00010000
01000000
00010000
00100000
10000000
00100000
10000000
,
01000000
00100000
00010000
00000000
00100000
00010000
00010000
01000000
,
00100000
00100000
01000000
00000000
00001000
00010000
00010000
00000100
,
00001000
00001000
00000010
00000000
00000001
00000100
00000010
00000000
,
00001000
00000100
00000010
00000000
00000010
00001000
00000100
00001000
,
00000010
00001000
00000100
00000000
00020000
00000000
00001000
00000000
,
00001000
00031000
00002000
01000000
,
01000000
01003000
00200000
00010000
,
00010000
00000000
00000000
00000000
00310000
00000000
00000000
00000000
00001000
00000000
00010000
00000000
00000000
00001000
00000000
00000000
,
00020000
00031000
00022000
00000000
,
00000000
00000000
00000000
00000000
,
00000000
00000000
00033000
00000000
;

//---------------dance-single - ----------------
#NOTES:
     dance-single:
     :
     Medium:
     11:
     0.459570,0.591394,0.290255,0.274129,0.024188,399.000000,363.000000,36.000000,34.000000,0.000000,0.000000,0.459570,0.591394,0.290255,0.274129,0.024188,399.000000,363.000000,36.000000,34.000000,0.000000,0.000000:
0000
0000
0000
0000
,
0000
0000
0000
0000
,
0000
0000
0000
0000
,
0000
0000
0000
0000
,
0000
0000
0000
0000
,
0000
0000
0000
0000
,
0000
0000
0000
0000
,
0000
0000
0000
0000
,
2000
0000
3002
0000
,
0023
0000
0000
0030
,
0002
0000
2003
0000
,
3020
0000
0000
0030
,
2000
0000
3200
0000
,
0302
0000
0000
0003
,
0020
0000
0000
0030
,
1001
0000
1000
0100
0001
0000
1000
0100
,
0001
0000
0001
0010
0001
0010
0001
0000
,
1001
0000
0001
0100
1000
0000
0001
0100
,
1000
0000
0100
1000
0100
1000
0100
0000
,
1100
0000
0010
0001
0010
0001
0100
0000
,
0101
0000
0010
1000
0010
1000
0100
0000
,
1000
0100
0010
0000
0001
0010
0100
0000
,
1000
0001
1000
0001
0100
0010
0100
0010
,
0000
0000
0000
0000
1000
0001
1000
0010
,
0100
0010
0000
0000
0001
1000
0001
0100
,
0010
0100
0000
0000
0001
0100
0010
0000
,
1000
0010
0100
0000
0001
0010
0100
0000
,
1000
0100
0010
0000
0001
0001
0100
1000
,
1000
0100
0000
0000
1000
1000
0100
0000
,
0001
0001
0100
0000
0010
1000
0100
0000
,
0010
0000
0001
0000
0100
0000
0000
0000
0010
0000
0100
0000
0000
0110
0000
0000
,
2002
3003
1100
0000
,
0020
0000
0000
0000
0031
0000
0100
0001
,
0000
0010
0000
1000
0100
0000
0010
0001
,
0000
0100
0000
0010
1000
0000
0001
0100
,
0010
1000
0100
0000
1000
0000
0010
0100
,
0010
0100
0010
0000
0001
0100
0000
0001
,
0100
0000
1010
0000
1000
0100
1000
0100
,
0000
0000
0010
0000
0010
0000
0000
0000
1000
0000
0000
0100
0000
0000
0001
0000
,
1000
0000
0000
0100
0000
0000
0001
0000
0020
0000
0000
0000
0130
0000
0000
0000
,
0001
0100
0001
0000
1000
0010
1000
0010
,
0000
0100
0100
0000
0001
0100
0010
1000
,
0000
1001
0000
0110
0000
1000
0010
0000
,
0110
0000
0101
0000
0001
0010
0100
0000
,
1000
0010
0100
0000
0001
0010
0100
1000
,
0000
1000
0001
0000
0100
0010
0100
0020
,
0000
1030
1000
0000
0001
0100
0001
0000
,
1000
0100
1000
0000
0020
0000
0130
0100
,
0000
0001
0000
1000
2000
0000
3010
0020
,
0000
0130
0100
0000
0001
1000
0001
2000
,
0000
3010
0010
0000
0100
0010
0100
0000
,
0001
0100
0001
0000
1000
1000
0100
1000
,
0000
0001
0001
0100
0001
0000
0110
0000
,
1001
0000
0110
0000
0001
0100
1000
0100
,
0000
1000
0100
0001
0000
0010
0100
0000
,
1001
0000
0110
0000
2000
0000
0100
3100
,
0000
0010
0000
0002
0010
0000
0010
0000
,
0010
0000
0013
0000
0100
0010
0100
0010
,
0000
1001
0000
1001
0000
0010
0100
0000
,
1100
0000
0110
0000
0002
0000
0100
0200
,
0000
0000
0303
0000
1010
0000
0000
0100
,
0000
0010
0100
0010
1001
0000
0000
0010
,
1001
0000
0000
0000
0000
0000
0000
0000
2000
0000
0100
0000
0000
3100
0000
0000
,
0022
0000
0033
0000
0100
0010
0001
0000
,
1000
0100
0010
0000
0001
0100
0010
0000
,
0100
0010
1000
0000
0001
0010
0100
1000
,
0001
0010
0100
1000
0010
0100
0010
0200
,
0000
0010
0310
0000
2001
0000
0010
0000
,
3100
0110
1002
0100
,
0013
0100
0010
0100
0020
0000
0001
0000
,
0100
0000
0031
0000
1000
0100
0010
0001
,
0100
0010
1001
0000
0001
0100
0001
1000
,
0100
1000
0010
0000
1000
0100
1000
0001
,
0100
0001
0010
0000
0100
0001
0100
1000
,
0010
1000
0100
0000
0001
0010
0100
0000
,
0001
0010
0100
0000
2000
0000
0100
0000
,
0100
3100
0002
0100
,
0100
0103
0110
1001
,
0110
0000
0000
0000
1001
0000
0000
0000
0000
0000
1010
0000
0000
0101
0000
0000
,
0110
0000
0000
0000
0001
0100
0002
0000
2000
0000
0000
0000
0000
0000
0000
0000
,
0000
0000
0000
0000
,
0000
0000
3003
0000
;

//---------------dance-single - ----------------
#NOTES:
     dance-single:
     :
     Beginner:
     3:
     0.097903,0.192294,0.064501,0.016125,0.000000,85.000000,77.000000,8.000000,2.000000,0.000000,0.000000,0.097903,0.192294,0.064501,0.016125,0.000000,85.000000,77.000000,8.000000,2.000000,0.000000,0.000000:
0000
0000
0000
0000
,
0000
0000
0000
0000
,
0000
0000
0000
0000
,
0000
0000
0000
0000
,
0000
0000
0000
0000
,
0000
0000
0000
0000
,
0000
0000
0000
0000
,
0000
0000
0000
0000
,
0020
0000
0000
0030
,
0000
0000
0000
0000
,
0200
0000
0000
0300
,
0000
0000
0000
0000
,
0001
0000
0000
0000
,
1000
0000
0000
0000
,
0010
0000
0000
0000
,
0100
0000
0000
0000
,
0000
0000
0000
0000
,
0010
0000
0000
0000
,
0000
0000
0000
0000
,
1000
0000
0000
0000
,
0001
0000
0000
0000
,
1000
0000
0001
0000
,
1000
0000
0001
0000
,
0000
0000
0100
0000
,
0000
0000
0100
0000
,
0000
0000
0010
0000
,
0000
0000
0010
0000
,
0000
0000
1000
0000
,
0000
0000
0001
0000
,
0000
0000
1000
0000
,
1000
0000
1001
0000
,
0000
0000
0010
0000
,
0000
0000
0010
0000
,
0000
0000
0100
0000
,
0000
0000
0100
0000
,
0000
0000
0001
0000
,
0000
0000
1000
0000
,
0000
0000
0001
0000
,
0000
0000
1000
0000
,
1000
0000
1000
0000
,
0000
0000
0010
0000
,
0000
0000
0100
0000
,
0000
0000
0001
0000
,
0000
0000
0010
0000
,
0000
0000
0100
0000
,
0000
0000
1000
0000
,
0000
0000
0000
0000
,
0000
0000
1001
0000
,
0000
0000
0010
0000
,
0000
0000
0100
0000
,
0000
0000
0010
0000
,
0000
0000
1000
0000
,
0000
0000
0001
0000
,
0000
0000
1000
0000
,
1000
0000
1000
0000
,
0000
0000
0010
0000
,
0010
0000
0010
0000
,
0000
0000
0100
0000
,
0100
0000
0100
0000
,
0000
0000
1001
0000
,
0000
0000
0010
0000
,
0000
0000
0100
0000
,
0000
0000
0010
0000
,
0010
0000
0010
0000
,
0000
0000
1000
0000
,
0000
0000
0001
0000
,
0000
0000
0100
0000
,
0100
0000
0100
0000
,
0000
0000
0010
0000
,
0000
0000
1000
0000
,
0000
0000
0001
0000
,
0001
0000
0001
0000
,
0000
0000
0010
0000
,
0000
0000
0100
0000
,
0000
0000
0010
0000
,
0000
0000
1001
0000
,
0000
0000
1001
0000
,
0000
0000
1001
0000
,
0000
0000
1001
0000
,
0000
0000
1001
0000
;

//---------------dance-double - ----------------
#NOTES:
     dance-double:
     :
     Easy:
     6:
     0.218843,0.328552,0.129002,0.217691,0.000000,190.000000,174.000000,16.000000,27.000000,0.000000,0.000000,0.218843,0.328552,0.129002,0.217691,0.000000,190.000000,174.000000,16.000000,27.000000,0.000000,0.000000:
00000000
00000000
00000000
00000000
,
00000000
00000000
00000000
00000000
,
00000000
00000000
00000000
00000000
,
00000000
00000000
00000000
00000000
,
00000000
00000000
00000000
00000000
,
00000000
00000000
00000000
00000000
,
00000000
00000000
00000000
00000000
,
00000000
00000000
00000000
00000000
,
00200000
00000000
00300000
00000000
,
00002000
00000000
00003000
00000000
,
00020000
00000000
00030000
00000000
,
00000200
00000000
00000300
00000000
,
00000020
00000000
00000030
00000000
,
00000002
00000000
00000003
00000000
,
00000020
00000000
00000030
00000000
,
00001000
00000000
00000001
00000000
,
00001000
00000000
00000001
00000100
,
00001001
00000000
00000100
00000000
,
00001000
00000000
00000100
00010000
,
00011000
00000000
00001000
00100000
,
00110000
00000000
00010000
01000000
,
10010000
00000000
10010000
00000000
,
10000000
01000000
00100000
00010000
,
00000000
00000000
00011000
00000000
,
00001000
00010000
00001000
00000000
,
00100000
00010000
00100000
01000000
,
10000000
01000000
00100000
00010000
,
00100000
00110000
00100000
00000000
,
00001000
00011000
00010000
00000000
,
00010000
00000100
00001000
00000010
,
00000001
00000100
00001000
00000000
,
00001001
00000000
00000110
00000000
,
00000020
00000000
00000230
00000000
,
00000302
00000000
00001003
00000000
,
00000010
00000000
00000100
00001000
,
00000100
00001000
00000000
00000100
,
00001000
00000000
00020000
00000000
,
00130000
00000000
02000000
00000000
,
03100000
00000000
20000000
00000000
,
30020000
00000000
00130000
00000000
,
01100000
00000000
10000000
01000000
,
00010000
00000000
00100000
00001000
,
00010000
00001000
00010000
00000000
,
00000100
00000000
00001000
00000010
,
00000001
00000010
00001000
00000000
,
00000100
00000000
00001000
00000000
,
00022000
00000000
00033000
00000000
,
00001000
00000000
00010000
00000000
,
00010000
00000000
00001000
00000000
,
00001000
00000000
00200000
00300000
,
00100000
00000000
00020000
00030000
,
00010000
00000000
10000000
00000000
,
01000000
00000000
10000000
01000000
,
10000000
01000000
10000000
00000000
,
00100000
00000000
00010000
00000000
,
01000000
00100000
00001000
00000000
,
00010000
00000000
00022000
00000000
,
00033000
00000000
00001000
00000000
,
00000100
00000000
00001000
00010000
,
00001000
00010000
00002000
00000000
,
00023000
00000000
00030000
00000000
,
00100000
01000000
10010000
00000000
,
01100000
00000000
10000000
01000000
,
00100000
00000000
00001000
00000000
,
00010000
00000000
00001000
00000100
,
00000010
00000000
00000001
00000000
,
00000100
00000000
00000010
00000100
,
00001000
00000000
00100000
00000000
,
00010000
00000000
00100000
00010000
,
01000000
00000000
10000000
00000000
,
01000000
00000000
00100000
00001000
,
00010000
00000000
00000100
00001000
,
00000100
00001000
00000100
00000001
,
00000100
00000001
00000010
00001000
,
00000010
00001000
00000100
00010000
,
00000100
00010000
00002000
00000000
,
00003000
00000000
00020000
00000000
,
00030000
00000000
00002000
00000000
,
00003000
00000000
00100000
00010000
,
00000100
00001000
00022000
00000000
,
00000000
00000000
00000000
00000000
,
00000000
00000000
00033000
00000000
;

//---------------dance-single - ----------------
#NOTES:
     dance-single:
     :
     Easy:
     6:
     0.258004,0.394263,0.233816,0.290255,0.000000,224.000000,195.000000,29.000000,36.000000,0.000000,0.000000,0.258004,0.394263,0.233816,0.290255,0.000000,224.000000,195.000000,29.000000,36.000000,0.000000,0.000000:
// measure 0
0000
0000
0000
0000
,  // measure 1
0000
0000
0000
0000
,  // measure 2
0000
0000
0000
0000
,  // measure 3
0000
0000
0000
0000
,  // measure 4
0000
0000
0000
0000
,  // measure 5
0000
0000
0000
0000
,  // measure 6
0000
0000
0000
0000
,  // measure 7
0000
0000
0000
0000
,  // measure 8
0020
0000
0032
0000
,  // measure 9
0203
0000
0300
0000
,  // measure 10
0020
0000
2030
0000
,  // measure 11
3200
0000
0300
0000
,  // measure 12
2000
0000
3002
0000
,  // measure 13
0203
0000
0320
0000
,  // measure 14
0230
0000
0300
0000
,  // measure 15
1001
0000
0010
0000
,  // measure 16
0010
0000
0010
0100
,  // measure 17
1001
0000
0010
0000
,  // measure 18
0010
0000
0100
0010
,  // measure 19
1001
0010
0010
0010
,  // measure 20
1001
0100
0100
0100
,  // measure 21
1001
0100
1001
0010
,  // measure 22
1000
0100
0010
1001
,  // measure 23
0000
0000
0110
0001
,  // measure 24
0001
0010
1000
1000
,  // measure 25
1000
0100
0001
0010
,  // measure 26
0001
0010
1000
0100
,  // measure 27
1000
0100
1000
1000
,  // measure 28
1000
0010
0001
0001
,  // measure 29
0001
0010
0100
0010
,  // measure 30
0100
0010
1000
0000
,  // measure 31
1001
0000
0020
0000
,  // measure 32
0230
0000
0301
0001
,  // measure 33
0001
0000
1000
1000
,  // measure 34
1000
0000
0010
0100
,  // measure 35
0010
1001
0000
0001
,  // measure 36
0100
1000
0200
0000
,  // measure 37
0301
0000
0020
0000
,  // measure 38
1030
0000
0200
0000
,  // measure 39
0320
0000
0130
0000
,  // measure 40
1001
0000
0001
0010
,  // measure 41
0100
0000
1000
0100
,  // measure 42
1000
0100
1000
0000
,  // measure 43
0010
0001
0000
0100
,  // measure 44
0010
0100
0010
0000
,  // measure 45
1001
0000
0001
0100
,  // measure 46
1000
0000
0110
0000
,  // measure 47
1001
0000
0110
0000
,  // measure 48
1000
0000
0001
1000
,  // measure 49
0001
0000
0200
0000
,  // measure 50
0320
0000
0130
0010
,  // measure 51
0100
0000
0002
0000
,  // measure 52
0203
0000
0310
0100
,  // measure 53
0010
0100
0002
0003
,  // measure 54
2000
3000
0010
0100
,  // measure 55
0010
0000
2000
0000
,  // measure 56
3200
0000
0302
0000
,  // measure 57
0003
0000
0002
0000
,  // measure 58
0203
0000
2300
0000
,  // measure 59
3010
0100
1001
0000
,  // measure 60
0220
0000
0330
0000
,  // measure 61
1000
0100
1001
0000
,  // measure 62
0010
0000
1001
0000
,  // measure 63
0110
0000
1000
0100
,  // measure 64
1000
0100
0001
0100
,  // measure 65
0001
0100
0001
0010
,  // measure 66
0001
0010
1000
0010
,  // measure 67
1000
0010
0001
0100
,  // measure 68
0010
1000
0100
0010
,  // measure 69
0001
0100
1001
0000
,  // measure 70
0110
0000
1000
0100
,  // measure 71
1001
0000
0001
0010
,  // measure 72
1001
0000
0100
0010
,  // measure 73
1001
0000
0001
0100
,  // measure 74
1001
0000
1000
0100
,  // measure 75
0010
0001
2001
0000
,  // measure 76
0000
0000
3020
0000
,  // measure 77
0000
0000
0230
0000
,  // measure 78
0000
0300
0001
0000
,  // measure 79
1001
0000
0220
0000
,  // measure 80
0000
0000
0000
0000
,  // measure 81
0000
0000
0330
0000
;
