#TITLE:The Night Begins To Shine;
#SUBTITLE:;
#ARTIST:B.E.R.;
#TITLETRANSLIT:;
#SUBTITLETRANSLIT:;
#ARTISTTRANSLIT:;
#GENRE:;
#CREDIT:;
#MENUCOLOR:;
#METERTYPE:DDR;
#BANNER:The Night Begins To Shine.png;
#BACKGROUND:The Night Begins To Shine-bg.png;
#LYRICSPATH:;
#CDTITLE:;
#MUSIC:The Night Begins To Shine.ogg;
#OFFSET:-0.180;
#SAMPLESTART:37.160;
#SAMPLELENGTH:12.000;
#SELECTABLE:YES;
#LISTSORT:;
#BPMS:0.000=130.000;
#STOPS:;
#BGCHANGES:;
#ATTACKS:;

//---------------dance-single - ----------------
#NOTES:
     dance-single:
     :
     Beginner:
     2:
     0.101,0.130,0.000,0.000,0.000: // measure 1
0000
0000
0000
0000
,  // measure 2
0000
0000
0000
0000
,  // measure 3
0000
0000
0000
0000
,  // measure 4
0000
0000
0000
0000
,  // measure 5
0010
0000
0000
0000
,  // measure 6
0100
0000
0000
0000
,  // measure 7
0010
0000
0000
0000
,  // measure 8
0100
0000
0000
0000
,  // measure 9
0001
0000
0000
0000
,  // measure 10
1000
0000
1000
0000
,  // measure 11
1000
0000
0000
0000
,  // measure 12
0001
0000
0000
0000
,  // measure 13
1000
0000
0000
0000
,  // measure 14
0100
0000
0000
0000
,  // measure 15
0010
0000
0000
0000
,  // measure 16
0000
0001
0000
0001
,  // measure 17
0000
1000
0000
1000
,  // measure 18
0000
0010
0000
0010
,  // measure 19
0000
0100
0000
0100
,  // measure 20
0000
0010
0010
0000
,  // measure 21
1000
0000
1000
0000
,  // measure 22
1000
0000
0000
0000
,  // measure 23
0001
0000
0001
0000
,  // measure 24
0001
0000
0000
0000
,  // measure 25
0100
0000
0100
0000
,  // measure 26
0100
0000
0000
0000
,  // measure 27
0010
0000
0010
0000
,  // measure 28
0010
0000
0000
0000
,  // measure 29
1000
0000
1000
0000
,  // measure 30
1000
0000
0000
0000
,  // measure 31
0001
0000
0001
0000
,  // measure 32
0001
0000
0000
0000
,  // measure 33
0100
0000
0100
0000
,  // measure 34
0100
0000
0000
0000
,  // measure 35
0010
0000
0000
0000
,  // measure 36
0100
0000
0000
0000
,  // measure 37
0001
0000
0000
0000
,  // measure 38
0001
0000
0000
0000
,  // measure 39
1000
0000
0000
0000
,  // measure 40
1000
0000
0000
0000
,  // measure 41
0001
0000
0001
0000
,  // measure 42
0001
0000
0001
0000
,  // measure 43
1000
0000
1000
0000
,  // measure 44
1000
0000
1000
0000
,  // measure 45
0010
0000
0000
0000
,  // measure 46
0010
0000
0000
0000
,  // measure 47
0010
0000
0010
0000
,  // measure 48
0010
0000
0000
0000
,  // measure 49
0001
0000
0001
0000
,  // measure 50
0001
0000
0000
0000
,  // measure 51
1000
0000
1000
0000
,  // measure 52
1000
0000
0000
0000
,  // measure 53
0010
0000
0010
0000
,  // measure 54
0010
0000
0000
0000
,  // measure 55
0100
0000
0100
0000
,  // measure 56
0100
0000
0000
0000
,  // measure 57
0001
0000
0000
0000
,  // measure 58
1000
0000
0000
0000
,  // measure 59
0010
0000
0000
0000
,  // measure 60
0100
0000
0000
0000
,  // measure 61
0001
0000
0001
0000
,  // measure 62
1000
0000
1000
0000
,  // measure 63
0010
0000
0010
0000
,  // measure 64
0100
0000
0100
0000
,  // measure 65
0100
0000
0000
0000
;

//---------------dance-double - ----------------
#NOTES:
     dance-double:
     :
     Easy:
     4:
     0.207,0.237,0.130,0.016,0.000:
00000000
00000000
00000000
00000000
,
00000000
00000000
00000000
00000000
,
00000000
00000000
00000000
00000000
,
00000000
00000000
00000000
00000000
,
00001000
00001000
00001000
00000000
,
00000100
00000100
00000100
00000000
,
00010000
00010000
00010000
00000000
,
01000000
01000000
01000000
00000000
,
00000000
10000000
00000000
01000000
,
00000000
00010000
00000000
00000100
,
00000000
00001000
00000000
00000100
,
00000000
00000001
00000000
00000100
,
00000000
00010000
00000000
00100000
,
00000000
10000000
00000000
00100000
,
00000000
00010000
00000000
00000010
,
00000000
00001000
00000000
00000001
,
00000000
00000010
00000000
00000100
,
00000000
00001000
00000000
00010000
,
00000000
10000000
00000000
01000000
,
00000000
00100000
00000000
00010000
,
00001000
00001000
00010000
00010000
,
00001000
00000000
00000000
00000000
,
00010000
00010000
00001000
00001000
,
00010000
00000000
00000000
00000000
,
00000010
00000010
00000100
00000100
,
00000010
00000000
00011000
00000000
,
00100000
00100000
01000000
01000000
,
00100000
00000000
10010000
00000000
,
10000000
01000000
00100000
00010000
,
00100000
00000000
00011000
00000000
,
00001000
00000100
00000010
00000001
,
00000010
00000000
00001100
00000000
,
00010000
00001000
00010000
00001000
,
01000000
00000000
10010000
00000000
,
10000000
00010000
10000000
00000000
,
00010000
10000000
00010000
00000000
,
10000000
00000000
01000000
00000000
,
00010000
00000000
01000000
00000000
,
00001000
00000000
00010000
00000000
,
00001000
00010000
00001000
00000000
,
00010000
00000000
00000010
00000000
,
00001000
00000000
00000010
00000000
,
00000001
00000000
00000010
00000000
,
00001000
00000001
00001000
00000000
,
00000100
00000000
00000100
00000100
,
00010000
00010000
00001000
00000000
,
00001000
00000000
00010000
00001000
,
01000000
00010000
10000000
00000000
,
00100000
00100000
10000000
10000000
,
10010000
00000000
01100000
00000000
,
00100000
00100000
00010000
00010000
,
00011000
00000000
00011000
00000000
,
00000010
00000010
00001000
00001000
,
00001001
00000000
00000110
00000000
,
00000010
00000010
00000001
00000001
,
00000110
00000000
00001001
00000000
,
00001000
00000100
00010000
00001000
,
01000000
00000000
00100000
00000000
,
00010000
00100000
00001000
00010000
,
00000010
00000000
00001001
00000000
,
00000100
00010000
00001000
01000000
,
00010000
00000000
10010000
00000000
,
10000000
01000000
00010000
00000000
,
00001000
00000100
00000001
00000000
,
00002002
00000000
00000000
00000000
,
00003003
00000000
00000000
00000000
;

//---------------dance-double - ----------------
#NOTES:
     dance-double:
     :
     Medium:
     7:
     0.296,0.316,0.154,0.024,0.000:
00000000
00000000
00000000
00000000
,
00000000
00000000
00000000
00000000
,
00000000
00000000
00000000
00000000
,
00000000
00000000
00000000
00000000
,
00001000
00000000
00001000
00000000
00001000
00000000
00000001
00000100
,
00000000
00000100
00000000
00000010
00000000
00000010
00010000
00000000
,
00001000
00000000
00001000
00000000
00001000
00000000
00001000
01000000
,
00000000
01000000
00000000
00010000
00000000
00010000
01000000
00000000
,
10000000
01000000
00010000
01000000
,
00001000
00000000
00010000
00000000
00001000
00000000
00000000
00010000
,
00000000
00000100
00001000
00000100
,
00000001
00000100
00001000
00000100
,
00010000
00001000
00010000
00001000
,
00100000
00000000
00010000
00000000
00100000
00000000
00000000
10000000
,
00000000
00100000
00010000
00100000
,
00001000
00010000
00001000
00010000
,
00000010
00000010
00000100
00000100
,
00001000
00000100
00000010
00000001
,
00000100
00000100
00000010
00000010
,
00010000
00001000
00010000
00000000
,
00010000
00001000
00000000
00000100
00000000
00000010
00000000
00000001
,
00000000
00000000
00001001
00000000
00000000
00000010
00001000
00000010
,
00001000
00000000
00000000
00010000
00000000
00001000
00000000
00010000
,
00000000
00001000
00000000
01000000
,
00010000
10000000
00000000
01000000
00000000
00100000
00000000
00010000
,
00000000
00000000
01000000
00000000
00000000
00001000
00010000
00001000
,
00010000
00000000
00000000
00000100
00000000
00000100
00000000
00000100
,
00000000
00000000
00001000
00000000
00000010
00000100
00000010
00000000
,
00001001
00000000
00000010
00000010
00000000
00000110
00000000
00001001
,
00000000
00001000
00000100
00010000
,
00001000
00000000
01000000
00010000
00000000
01000000
00000000
10010000
,
00000000
00100000
10000000
00010000
,
00100000
00000000
00001000
00001000
00000000
00010000
00000000
00000100
,
00000000
00000000
00001001
00000000
00000000
00000010
00001000
00000010
,
00000000
00001100
00000000
00011000
,
00001000
00000000
00100000
00010000
00000000
01000000
00000000
00200000
,
00000000
01300000
00000000
01000000
,
10000000
00000000
01000000
00000000
00100000
00000000
00000000
00011000
,
00000000
00001000
00010000
00000100
,
00001000
00000001
00001000
00000001
,
00001000
00000100
00001000
00000100
,
00010000
00000000
00001000
00000000
00010000
00000000
00000000
00001000
,
00000000
01000000
00010000
01000000
,
00000000
00010000
10000000
00010000
00000000
10000000
00010000
00000000
,
10000000
00000000
01000000
00000000
00100000
00000000
00000000
00010000
,
00000000
00001000
00000000
00000100
00000000
00000000
00000010
00000000
,
00000001
00000000
00000010
00000000
00000100
00000000
00000000
00001000
,
00000000
00010000
00000000
00100000
00000000
00000000
10010000
00000000
,
10000000
00010000
00000000
00100000
00000000
01000000
00000000
10000000
,
00000000
00000000
10010000
00000000
00000000
01000000
00010000
01000000
,
00010000
00000000
00000000
00001000
00000000
00010000
00000000
00001000
,
00000000
00010000
00000000
00000010
,
00001000
00000001
00000000
00000010
00000000
00000100
00000000
00001000
,
00000000
00000000
00000010
00000000
00000000
00010000
00001000
00010000
,
00001000
00000000
00000000
00100000
00000000
00100000
00000000
00100000
,
00000000
00000000
00010000
00000000
01000000
00100000
01000000
00000000
,
10010000
00000000
01000000
01000000
00000000
01100000
00000000
10010000
,
00000000
00010000
00100000
00001000
,
00010000
00000000
00000010
00001000
00000000
00000010
00000000
00001001
,
00000000
00000100
00000001
00001000
,
00000100
00000000
00010000
00010000
00000000
00001000
00000000
00100000
,
00000000
00000000
10010000
00000000
00000000
01000000
00010000
01000000
,
00000000
00110000
00000000
00011000
,
00010000
00000000
00000100
00001000
00000000
00000010
00000000
00000000
,
00002002
00000000
00000000
00000000
,
00003003
00000000
00000000
00000000
;

//---------------dance-double - ----------------
#NOTES:
     dance-double:
     :
     Hard:
     9:
     0.453,0.447,0.559,0.113,0.000:
00000000
00000000
00000000
00000000
,
00000000
00000000
00000000
00000000
,
00000000
00000000
00000000
00000000
,
00000000
00000000
00000000
00000000
,
00200000
00000000
00320000
00000000
02030000
00000000
03100000
20000000
,
00000000
32000000
00000000
03020000
00000000
00130000
00001000
00010000
,
00002000
00000000
00023000
00000000
00030200
00000000
00001300
00000200
,
00000000
00002300
00000000
00003020
00000000
00000130
00000001
00000100
,
00000001
00000000
00001001
00000000
00001000
00000001
00001000
00000000
,
00000010
00000000
00001010
00000000
00001000
00000100
00001000
00000000
,
00010000
00000000
00011000
00000000
00001000
00010000
00001000
00000000
,
00100000
00010000
00100000
00010000
00000000
00010000
01010000
00000000
,
00100000
00000000
01100000
00000000
10000000
01000000
00010000
00000000
,
01000000
00000000
01100000
00000000
00010000
00100000
00001000
00000000
,
00011000
00000000
00010100
00000000
00001000
00000100
00001000
00000000
,
00000010
00000100
00000001
00001000
00000000
00000010
00000010
00000000
,
00001100
00000000
00000101
00000000
00001000
00000100
00000000
00000101
,
00000000
00001100
00000000
00000101
00000000
00000100
00001000
00000000
,
00000100
00000000
00010100
00000000
00010000
00001000
00000000
00101000
,
00000000
00110000
00000000
00101000
00000000
00100000
00010000
00000000
,
01000000
00100000
00000000
10010000
00000000
01100000
00000000
10010000
,
00000000
01000000
00010000
00100000
00000000
00001000
00010000
00001000
,
00010000
00000000
00000100
00001000
00000000
00000010
00000000
00000001
,
00000000
00001000
00000100
00000010
00000001
00000100
00000010
00000000
,
00000001
00000000
00001000
00000100
00000000
00000100
00001000
00000000
,
00000100
00000000
00010000
00000000
00001000
00010000
00001000
00010000
,
00000000
00001000
00100000
00001000
00000000
00100000
00000000
00010000
,
01000000
10010000
01100000
10010000
,
11000000
00000000
00100000
00010000
01000000
00000000
00100000
10000000
,
01000000
00110000
00011000
00001100
,
00001010
00000000
00000001
00000100
00001000
00000000
00001000
00000100
,
00000001
00001001
00001100
00010100
,
00011000
00000000
00001000
01000000
00001000
00000000
01000000
00010000
,
01000000
01010000
11000000
01010000
,
00110000
00000000
00100000
00001000
00010000
00000000
00010000
00000100
,
00000000
00001000
00000100
00001000
00000000
00000010
00000000
00000100
,
00000001
00000000
00001001
00000000
00001000
00000001
00001000
00000000
,
00000010
00000000
00001010
00000000
00001000
00000100
00001000
00000000
,
00010000
00000000
00011000
00000000
00001000
00010000
00001000
00000000
,
00100000
00010000
00100000
00010000
01000000
00010000
01000000
00000000
,
00100000
00000000
01100000
00000000
10000000
01000000
00010000
00000000
,
01000000
00000000
01010000
00000000
01000000
00001000
00010000
00001000
,
00010000
00000000
00010100
00000000
00001000
00000100
00001000
00000000
,
00000010
00000100
00000001
00001000
00000000
00000010
00000010
00000000
,
00001100
00000000
00000101
00000000
00001000
00000100
00000000
00001100
,
00000000
00011000
00000000
00110000
00000000
01000000
10000000
00000000
,
00100000
00000000
00100000
00000000
01000000
00100000
00000000
10010000
,
00000000
01100000
00000000
10010000
00000000
00100000
00001000
00000000
,
00010000
00000010
00000000
00001001
00000000
00000110
00000000
00001001
,
00000000
00000010
00001000
00000100
00000000
00010000
00001000
00010000
,
00001000
00000000
00100000
00010000
00000000
01000000
00000000
10000000
,
00000000
00010000
00100000
01000000
10000000
00100000
01000000
00000000
,
10000000
00000000
00010000
00100000
00000000
00100000
00010000
00000000
,
00100000
00000000
00001000
00000000
00010000
00001000
00010000
00001000
,
00000000
00010000
00000100
00010000
00000000
00000100
00000000
00001000
,
00000010
00001001
00000110
00001001
,
00000011
00000000
00000100
00001000
00000010
00000000
00000100
00000001
,
00000010
00001100
00011000
00110000
,
01010000
00000000
10000000
00100000
00010000
00000000
00010000
00100000
,
10000000
10010000
00110000
00101000
,
00011000
00000000
00010000
00000010
00010000
00000000
00000010
00001000
,
00000010
00001010
00000011
00001010
,
00001100
00000000
00000100
00010000
00001000
00000000
00001000
00100000
,
00000000
00010000
00100000
00010000
00000000
00001000
00000000
00020000
,
00002000
00000000
00000000
00000000
,
00033000
00000000
00000000
00000000
;

//---------------dance-single - ----------------
#NOTES:
     dance-single:
     :
     Easy:
     4:
     0.207,0.237,0.130,0.016,0.000:
0000
0000
0000
0000
,
0000
0000
0000
0000
,
0000
0000
0000
0000
,
0000
0000
0000
0000
,
1000
1000
1000
0000
,
0100
0100
0100
0000
,
0001
0001
0001
0000
,
0100
0100
0100
0000
,
0000
1000
0000
0100
,
0000
0001
0000
0100
,
0000
1000
0000
0100
,
0000
0001
0000
0100
,
0000
0001
0000
0010
,
0000
1000
0000
0010
,
0000
0001
0000
0010
,
0000
1000
0000
0001
,
0000
0010
0000
0100
,
0000
1000
0000
0001
,
0000
1000
0000
0100
,
0000
0010
0000
0001
,
1000
1000
0001
0001
,
1000
0000
0000
0000
,
0001
0001
1000
1000
,
0001
0000
0000
0000
,
0010
0010
0100
0100
,
0010
0000
1001
0000
,
0010
0010
0100
0100
,
0010
0000
1001
0000
,
1000
0100
0010
0001
,
0010
0000
1001
0000
,
1000
0100
0010
0001
,
0010
0000
1100
0000
,
0001
1000
0001
1000
,
0100
0000
1001
0000
,
1000
0001
1000
0000
,
0001
1000
0001
0000
,
1000
0000
0100
0000
,
0001
0000
0100
0000
,
1000
0000
0001
0000
,
1000
0001
1000
0000
,
0001
0000
0010
0000
,
1000
0000
0010
0000
,
0001
0000
0010
0000
,
1000
0001
1000
0000
,
0100
0000
0100
0100
,
0001
0001
1000
0000
,
1000
0000
0001
1000
,
0100
0001
1000
0000
,
0010
0010
1000
1000
,
1001
0000
0110
0000
,
0010
0010
0001
0001
,
1001
0000
1001
0000
,
0010
0010
1000
1000
,
1001
0000
0110
0000
,
0010
0010
0001
0001
,
0110
0000
1001
0000
,
1000
0100
0001
1000
,
0100
0000
0010
0000
,
0001
0010
1000
0001
,
0010
0000
1001
0000
,
0100
0001
1000
0100
,
0001
0000
1001
0000
,
1000
0100
0001
0000
,
1000
0100
0001
0000
,
2002
0000
0000
0000
,
3003
0000
0000
0000
;

//---------------dance-single - ----------------
#NOTES:
     dance-single:
     :
     Medium:
     7:
     0.296,0.316,0.154,0.024,0.000:
0000
0000
0000
0000
,
0000
0000
0000
0000
,
0000
0000
0000
0000
,
0000
0000
0000
0000
,
1000
0000
1000
0000
1000
0000
0001
0100
,
0000
0100
0000
0010
0000
0010
0001
0000
,
1000
0000
1000
0000
1000
0000
1000
0100
,
0000
0100
0000
0001
0000
0001
0100
0000
,
1000
0100
0001
0100
,
1000
0000
0001
0000
1000
0000
0000
0001
,
0000
0100
1000
0100
,
0001
0100
1000
0100
,
0001
1000
0001
1000
,
0010
0000
0001
0000
0010
0000
0000
1000
,
0000
0010
0001
0010
,
1000
0001
1000
0001
,
0010
0010
0100
0100
,
1000
0100
0010
0001
,
0100
0100
0010
0010
,
0001
1000
0001
0000
,
0001
1000
0000
0100
0000
0010
0000
0001
,
0000
0000
1001
0000
0000
0010
1000
0010
,
1000
0000
0000
0001
0000
1000
0000
0001
,
0000
1000
0000
0100
,
0001
1000
0000
0100
0000
0010
0000
0001
,
0000
0000
0100
0000
0000
1000
0001
1000
,
0001
0000
0000
0100
0000
0100
0000
0100
,
0000
0000
1000
0000
0010
0100
0010
0000
,
1001
0000
0010
0010
0000
0110
0000
1001
,
0000
1000
0100
0001
,
1000
0000
0100
0001
0000
0100
0000
1001
,
0000
0010
1000
0001
,
0010
0000
1000
1000
0000
0001
0000
0100
,
0000
0000
1001
0000
0000
0010
1000
0010
,
0000
1100
0000
1001
,
1000
0000
0010
0001
0000
0100
0000
0020
,
0000
0130
0000
0100
,
1000
0000
0100
0000
0010
0000
0000
1001
,
0000
1000
0001
0100
,
1000
0001
1000
0001
,
1000
0100
1000
0100
,
0001
0000
1000
0000
0001
0000
0000
1000
,
0000
0100
0001
0100
,
0000
0001
1000
0001
0000
1000
0001
0000
,
1000
0000
0100
0000
0010
0000
0000
0001
,
0000
1000
0000
0100
0000
0000
0010
0000
,
0001
0000
0010
0000
0100
0000
0000
1000
,
0000
0001
0000
0010
0000
0000
1001
0000
,
1000
0001
0000
0010
0000
0100
0000
1000
,
0000
0000
1001
0000
0000
0100
0001
0100
,
0001
0000
0000
1000
0000
0001
0000
1000
,
0000
0001
0000
0010
,
1000
0001
0000
0010
0000
0100
0000
1000
,
0000
0000
0010
0000
0000
0001
1000
0001
,
1000
0000
0000
0010
0000
0010
0000
0010
,
0000
0000
0001
0000
0100
0010
0100
0000
,
1001
0000
0100
0100
0000
0110
0000
1001
,
0000
0001
0010
1000
,
0001
0000
0010
1000
0000
0010
0000
1001
,
0000
0100
0001
1000
,
0100
0000
0001
0001
0000
1000
0000
0010
,
0000
0000
1001
0000
0000
0100
0001
0100
,
0000
0011
0000
1001
,
0001
0000
0100
1000
0000
0010
0000
0000
,
2002
0000
0000
0000
,
3003
0000
0000
0000
;

//---------------dance-single - ----------------
#NOTES:
     dance-single:
     :
     Hard:
     9:
     0.453,0.447,0.559,0.113,0.000:
0000
0000
0000
0000
,
0000
0000
0000
0000
,
0000
0000
0000
0000
,
0000
0000
0000
0000
,
0020
0000
0032
0000
0203
0000
0310
2000
,
0000
3200
0000
0302
0000
0013
1000
0001
,
2000
0000
3002
0000
0203
0000
1300
0200
,
0000
2300
0000
3020
0000
0130
0001
0100
,
0001
0000
1001
0000
1000
0001
1000
0000
,
0010
0000
1010
0000
1000
0100
1000
0000
,
0001
0000
1001
0000
1000
0001
1000
0000
,
0010
0001
0010
0001
0000
0001
0101
0000
,
0010
0000
0110
0000
1000
0100
0001
0000
,
0100
0000
0110
0000
0001
0010
1000
0000
,
1001
0000
0101
0000
1000
0100
1000
0000
,
0010
0100
0001
1000
0000
0010
0010
0000
,
1100
0000
0101
0000
1000
0100
0000
0101
,
0000
1100
0000
0101
0000
0100
1000
0000
,
0100
0000
0101
0000
0001
1000
0000
1010
,
0000
0011
0000
1010
0000
0010
0001
0000
,
0100
0010
0000
1001
0000
0110
0000
1001
,
0000
0100
0001
0010
0000
1000
0001
1000
,
0001
0000
0100
1000
0000
0010
0000
0001
,
0000
1000
0100
0010
0001
0100
0010
0000
,
0001
0000
1000
0100
0000
0100
1000
0000
,
0100
0000
0001
0000
1000
0001
1000
0001
,
0000
1000
0010
1000
0000
0010
0000
0001
,
0100
1001
0110
1001
,
1100
0000
0010
0001
0100
0000
0010
1000
,
0100
0011
1001
1100
,
1010
0000
0001
0100
1000
0000
1000
0100
,
0001
1001
1100
0101
,
1001
0000
1000
0100
1000
0000
0100
0001
,
0100
0101
1100
0101
,
0011
0000
0010
1000
0001
0000
0001
0100
,
0000
1000
0100
1000
0000
0010
0000
0100
,
0001
0000
1001
0000
1000
0001
1000
0000
,
0010
0000
1010
0000
1000
0100
1000
0000
,
0001
0000
1001
0000
1000
0001
1000
0000
,
0010
0001
0010
0001
0100
0001
0100
0000
,
0010
0000
0110
0000
1000
0100
0001
0000
,
0100
0000
0101
0000
0100
1000
0001
1000
,
0001
0000
0101
0000
1000
0100
1000
0000
,
0010
0100
0001
1000
0000
0010
0010
0000
,
1100
0000
0101
0000
1000
0100
0000
1100
,
0000
1001
0000
0011
0000
0100
1000
0000
,
0010
0000
0010
0000
0100
0010
0000
1001
,
0000
0110
0000
1001
0000
0010
1000
0000
,
0001
0010
0000
1001
0000
0110
0000
1001
,
0000
0010
1000
0100
0000
0001
1000
0001
,
1000
0000
0010
0001
0000
0100
0000
1000
,
0000
0001
0010
0100
1000
0010
0100
0000
,
1000
0000
0001
0010
0000
0010
0001
0000
,
0010
0000
1000
0000
0001
1000
0001
1000
,
0000
0001
0100
0001
0000
0100
0000
1000
,
0010
1001
0110
1001
,
0011
0000
0100
1000
0010
0000
0100
0001
,
0010
1100
1001
0011
,
0101
0000
1000
0010
0001
0000
0001
0010
,
1000
1001
0011
1010
,
1001
0000
0001
0010
0001
0000
0010
1000
,
0010
1010
0011
1010
,
1100
0000
0100
0001
1000
0000
1000
0010
,
0000
0001
0010
0001
0000
1000
0000
0002
,
2000
0000
0000
0000
,
3003
0000
0000
0000
;
