#TITLE:The Night Begins To Shine;
#SUBTITLE:(Dragon Remix);
#ARTIST:B.E.R.;
#TITLETRANSLIT:;
#SUBTITLETRANSLIT:;
#ARTISTTRANSLIT:;
#GENRE:;
#CREDIT:;
#MENUCOLOR:;
#METERTYPE:DDR;
#BANNER:The Night Begins To Shine (Dragon Remix).png;
#BACKGROUND:The Night Begins To Shine (Dragon Remix)-bg.png;
#LYRICSPATH:;
#CDTITLE:;
#MUSIC:The Night Begins To Shine (Dragon Remix).ogg;
#OFFSET:-0.272;
#SAMPLESTART:37.588;
#SAMPLELENGTH:17.020;
#SELECTABLE:YES;
#LISTSORT:;
#BPMS:0.000=135.000;
#STOPS:;
#BGCHANGES:;
#ATTACKS:;

//---------------dance-double - ----------------
#NOTES:
     dance-double:
     :
     Hard:
     10:
     0.409,0.514,0.285,0.158,0.067:
00000000
00000000
00000000
00000000
,
00000000
00000000
00000000
00000000
,
00000000
00000000
00000000
00000000
,
00000000
00000000
00000000
00000000
,
00000000
00000000
00000000
00000000
,
01000000
00000000
10000000
00000000
00100000
00000000
00010000
01000000
,
00000000
00001000
00010000
00000100
00001000
00000010
00001000
00000000
,
00000001
00000000
00000100
00000000
00001000
00000000
00010000
00000100
,
00000000
00010000
00001000
00100000
00001000
01000000
00010000
10000000
,
00020000
01000000
01000000
01030000
,
10200000
00000000
10300000
00000000
10020000
00000000
00000000
10030000
,
00000000
02000000
00010000
03010000
,
00100000
00001000
00010000
00001000
00000000
00010000
00000000
00000100
,
00002000
00000010
00000010
00003010
,
00000002
00000000
00000100
00000000
00000100
00000000
00000003
00002000
,
00000000
00000010
00000010
00003010
,
00000100
00010000
00000100
00010000
00000000
00001000
00000000
00010000
,
00001000
00000000
00100000
00000000
00010000
01000000
00000000
10100000
,
00000000
01010000
00000000
10010000
00000000
00100000
00001000
00010000
,
00000010
00000000
00001010
00000000
00001000
00000001
00000000
00000110
,
00000000
00001001
00000000
00000110
00000000
00001000
00000100
00000000
,
00010000
00010000
00000000
00000100
00000000
00010000
00001000
00100000
,
00000000
00010000
01000000
10000000
00000000
10000000
00100000
01000000
,
00010000
00000000
00100000
00001000
00000000
00010000
00000100
00010000
,
00000000
00000100
00001000
00000100
00001000
00000010
00000100
00000000
,
00000001
00000000
00001000
00000001
00000000
00001000
00000100
00001000
,
00000000
00000100
00010000
00001000
00010000
00001000
01000000
00010000
,
10000000
00000000
00100000
00100000
00000000
10000000
00000000
00010000
,
01000000
10100000
01010000
10010000
,
01100000
00000000
10000000
00010000
00000000
01000000
00000000
00002000
,
00000000
00010000
00000000
00010000
00000000
00013000
00000100
00001000
,
00000100
00000000
00001000
00000020
00000000
00000100
00000000
00002030
,
00000000
00000001
00000000
00000001
00000000
00003001
00000001
00000000
,
00000100
00000000
00001000
00000200
00000000
00010000
00000000
00020300
,
00000000
00001000
00000000
00031000
00000000
00001000
00100000
00010000
,
00000000
01000000
00100000
00000000
10010000
00000000
10000000
01000000
,
00000000
00100000
00000000
00001000
00000000
00010000
00000100
00000000
,
00002000
00000000
00000000
00000000
00003000
00001001
00000000
00001001
,
00000000
00000000
00000000
00000000
00000010
00000010
00000010
00000010
,
00000020
00000030
00000000
00000000
,
00001100
00000000
00000000
00000000
00000000
00000000
00010000
00000000
00001000
00000000
00010000
00000000
,
00002000
00000000
00000000
00000000
00003000
00011000
00000000
00011000
,
00000000
00100000
00100000
00000000
00010000
01000000
10000000
01000000
,
00020000
00000000
00000000
00000000
00000000
00000000
00000000
00000000
00030000
00000000
00000000
00000000
10000000
01000000
10000000
00000000
,
00000000
00000000
00000000
00100000
00010000
00100000
00001000
00000000
00001000
00000000
00001000
00000000
,
00010000
00010000
00000100
00000100
00001000
00000010
00000000
00000110
,
00000000
00000100
00000001
00000000
00001000
00000010
00001000
00000010
,
00001000
00000000
00001100
00000000
00001100
00000000
00010100
00000000
00010100
00000000
00011000
00000000
,
00001000
00000000
00000000
00000000
00001000
00000000
00000000
00000000
00001000
00000000
00000000
00000000
00001000
00000000
00000000
00000000
00000000
00000000
00001000
00000000
00000000
00000000
00000000
00000000
00010000
00000000
00000000
00000000
00000000
00000000
00010000
00000000
00000000
00000000
00000000
00000000
00001000
00000000
00000000
00010000
00000000
00000000
00001000
00000000
00000000
00010000
00000000
00000000
,
00001000
00001000
01000000
00001000
01000000
00010000
01000000
00100000
,
10000000
00100000
10000000
00010000
00100000
00001000
00010000
00000010
,
00001000
00000001
00001000
00000100
00010000
00001000
01000000
00010000
,
10000000
01000000
00100000
00010000
00001000
00000100
00000010
00000001
,
00000100
00000000
00000001
00000000
00001000
00000000
00000010
00000010
,
00000000
00001000
00000000
00000001
00000000
00000100
00000100
00000000
,
00001000
00000000
00000100
00000000
00010000
00000000
00001000
00001000
,
00000000
00100000
00000000
00010000
00000000
01000000
01000000
00000000
,
10100000
00000000
00110000
00000000
10100000
00000000
00100000
00001000
,
00000000
00011000
00000000
00001100
00000000
00001000
00000100
00000000
,
00000101
00000000
00001100
00000000
00000101
00000000
00001000
00000100
,
00000000
00011000
00000000
00101000
00000000
00010000
00001000
00010000
,
00100000
00002000
00003000
00020000
00030000
00001000
00001000
00001000
,
00010000
00000000
00001000
00000000
00010000
00000000
00001000
00000000
00010000
00001000
00010000
00001000
00010000
00000000
00000000
00000000
,
00022000
00000000
00000000
00000000
,
00000000
00000000
00000000
00000000
,
00033000
00000000
00000000
00000000
;

//---------------dance-double - ----------------
#NOTES:
     dance-double:
     :
     Medium:
     7:
     0.256,0.283,0.095,0.087,0.000:
00000000
00000000
00000000
00000000
,
00000000
00000000
00000000
00000000
,
00000000
00000000
00000000
00000000
,
00000000
00000000
00000000
00000000
,
00000000
00000000
00000000
00000000
,
00010000
00000000
00001000
00000000
00000100
00000000
00000000
00000010
,
00000000
00000001
00000000
00000100
00000000
00001000
00000000
00000000
,
00000100
00000000
00001000
00000000
00010000
00000000
00000000
00100000
,
00000000
10000000
00000000
01000000
00000000
00010000
00000000
00000000
,
10010000
00000000
00000000
00000000
,
00100000
00000000
00000000
00001000
00000000
00000000
00000000
00010000
,
00000000
00000100
00000000
00000100
,
00000000
00001000
00000001
00001000
00000000
00000010
00000000
00001000
,
00000100
00000001
00000100
00000001
,
00001000
00000000
00000100
00000000
00001000
00000000
00000000
00010000
,
00000000
00001000
00100000
00001000
,
00100000
00010000
01000000
00010000
00000000
00100000
00000000
00000000
,
20000000
00000000
31000000
00000000
00010000
01000000
00000000
10000000
,
00000000
01000000
00000000
00010000
00000000
00000000
00100000
00000000
,
00001000
00000000
00010000
00000000
00001000
00000100
00000000
00000010
,
00000000
00000001
00000000
00000100
00000000
00000000
00001001
00000000
,
00000100
00000100
00000000
00000001
00000000
00000010
00000000
00002000
,
00000000
00000000
00003100
00000000
00000000
00000100
00001000
00000100
,
00001000
00000000
00000010
00000010
00000000
00000001
00000000
00000100
,
00000000
00001000
00000000
00010000
00000000
00100000
01000000
00000000
,
10000000
10000000
00000000
00100000
00000000
00010000
00000000
01000000
,
00000000
00100000
10000000
00000000
00000000
00000000
00010000
00100000
,
00000000
00000000
00010000
01000000
00000000
00100000
00000000
00001000
,
00000000
00010000
00000000
00000100
00000000
00001000
00000100
00000000
,
00000001
00000000
00000001
00000100
00000000
00000100
00000000
00002000
,
00000000
00003000
00010000
00000000
00000000
00000000
00010000
00100000
,
00000000
00000000
00100000
10000000
00000000
10000000
00000000
01000000
,
00000000
01000000
00010000
00001000
,
00000010
00000000
00000010
00001000
00000000
00001000
00000000
00000100
,
00000000
00000000
00010000
00000000
00000000
00001000
00010000
00001000
,
00000000
00010000
00000000
00000000
00100000
00000000
00010000
01000000
,
00000000
00100000
00000000
10000000
00000000
01000000
00100000
00000000
,
10010000
00000000
00000000
00000000
00000000
00011000
00000000
00011000
,
00000000
00000000
00002000
00000000
,
00003000
00000000
00000000
00000000
00000000
00000010
00000000
00000200
,
00000000
00000000
00000300
00000002
00000000
00000000
00000003
00000000
,
00001000
00000000
00000000
00000000
00000000
00001010
00000000
00000101
,
00000000
00000000
00002000
00000000
,
00013000
00000000
00000000
00000000
00000000
00100000
00000000
01010000
,
00000000
00000000
20020000
30030000
,
10000000
00000000
00010000
00000000
00000000
01100000
00000000
01100000
,
00000000
00000000
00001000
00010000
,
00000100
00001000
00000010
00000001
,
00000100
00000010
00000100
00000010
00000100
00000000
00000010
00000000
,
00001000
00000100
00001000
00000100
,
00010000
00000100
00010000
00001000
,
01000000
00010000
01000000
00010000
,
10000000
01000000
10000000
00100000
,
01000000
00000000
01000000
00000000
01000000
00000000
00000000
00010000
,
00000000
00010000
00000000
00010000
00000000
00000000
00000000
00000000
,
00001000
00000000
00001000
00000000
00001000
00000000
00000000
00000100
,
00000000
00000100
00000000
00000100
00000000
00000000
00000000
00000000
,
00000010
00000000
00000010
00000000
00000010
00000000
00000000
00001000
,
00000000
00001000
00000000
00001000
00000000
00000000
00000000
00000000
,
00010000
00000000
00010000
00000000
00010000
00000000
00000000
00100000
,
00000000
00100000
00000000
00100000
00000000
00000000
00000000
00000000
,
10000000
01000000
00100000
00010000
,
00001000
00000010
00000100
00010000
,
00022000
00000000
00000000
00000000
,
00000000
00000000
00000000
00000000
,
00033000
00000000
00000000
00000000
;

//---------------dance-double - ----------------
#NOTES:
     dance-double:
     :
     Easy:
     4:
     0.196,0.257,0.032,0.032,0.000: // measure 1
00000000
00000000
00000000
00000000
,  // measure 2
00000000
00000000
00000000
00000000
,  // measure 3
00000000
00000000
00000000
00000000
,  // measure 4
00000000
00000000
00000000
00000000
,  // measure 5
00000000
00000000
00000000
00000000
,  // measure 6
00010000
00010000
00010000
00000000
,  // measure 7
10000000
10000000
10000000
00000000
,  // measure 8
00010000
00010000
00010000
00000000
,  // measure 9
10000000
10000000
10000000
00000000
,  // measure 10
00100000
00000000
00001000
00000000
,  // measure 11
00010000
00000000
00000100
00000000
,  // measure 12
00001000
00000000
00000010
00000000
,  // measure 13
00000001
00000000
00000100
00000000
,  // measure 14
00001000
00000000
00010000
00000000
,  // measure 15
00001000
00000000
00100000
00000000
,  // measure 16
00010000
00000000
01000000
00000000
,  // measure 17
10000000
00000000
00100000
00000000
,  // measure 18
00010000
10000000
00010000
00000000
,  // measure 19
10000000
00010000
10000000
00000000
,  // measure 20
00010000
01000000
00010000
00000000
,  // measure 21
00001000
01000000
00001000
00000000
,  // measure 22
00010000
00010000
00001000
00001000
,  // measure 23
00000100
00000100
00001000
00001000
,  // measure 24
00010000
00010000
01000000
01000000
,  // measure 25
00010000
00010000
00001000
00011000
,  // measure 26
00010000
00010000
00001000
00001000
,  // measure 27
00000100
00000100
00001000
00001000
,  // measure 28
00010000
01000000
00010000
01000000
,  // measure 29
00010000
00001000
00010000
00001000
,  // measure 30
00000100
00000100
00010000
00000000
,  // measure 31
00001000
00001000
00100000
00000000
,  // measure 32
00010000
00000100
00010000
00001000
,  // measure 33
01000000
00010000
10000000
00000000
,  // measure 34
00100000
00100000
00010000
01000000
,  // measure 35
00001000
00001000
00010000
00000100
,  // measure 36
00001000
00001000
00000010
00000001
,  // measure 37
00000100
00000100
00010000
00010000
,  // measure 38
00001000
00000000
00000000
00000000
,  // measure 39
00010000
00000000
00001000
00000000
,  // measure 40
00010000
00000000
00000000
00000000
,  // measure 41
01000000
00000000
00010000
00000000
,  // measure 42
00001000
00000000
00000000
00000000
,  // measure 43
00010000
00000000
00001000
00000000
,  // measure 44
00000100
00000000
00000000
00000000
,  // measure 45
00001000
00000100
00000010
00000001
,  // measure 46
00001001
00000000
00001000
00000000
,  // measure 47
00000100
00000000
00010000
00001000
,  // measure 48
00010000
00000000
01000000
00000000
,  // measure 49
00100000
10000000
01000000
10010000
,  // measure 50
10000000
10000000
00010000
00010000
,  // measure 51
00100000
00100000
00001000
00001000
,  // measure 52
00010000
00010000
00010000
00010000
,  // measure 53
00001000
00001000
00001000
00001000
,  // measure 54
00001000
00000000
00010000
00000000
,  // measure 55
00100000
00000000
01000000
00000000
,  // measure 56
10000000
00000000
01000000
00000000
,  // measure 57
00100000
00000000
00001000
00000000
,  // measure 58
00010000
00000000
00001000
00000000
,  // measure 59
00000100
00000000
00000010
00000000
,  // measure 60
00000001
00000000
00000010
00000000
,  // measure 61
00000100
00000000
00001000
00000000
,  // measure 62
00010000
00010000
00001000
00001000
,  // measure 63
00010000
00002000
00020000
00033000
,  // measure 64
00022000
00000000
00000000
00000000
,  // measure 65
00000000
00000000
00000000
00000000
,  // measure 66
00033000
00000000
00000000
00000000
;

//---------------dance-single - ----------------
#NOTES:
     dance-single:
     :
     Beginner:
     2:
     0.104,0.149,0.008,0.000,0.000:
0000
0000
0000
0000
,
0000
0000
0000
0000
,
0000
0000
0000
0000
,
0000
0000
0000
0000
,
0000
0000
0000
0000
,
0001
0000
0001
0000
,
1000
0000
1000
0000
,
0001
0000
0001
0000
,
1000
0000
1000
0000
,
0010
0000
0000
0000
,
0001
0000
0000
0000
,
0100
0000
0000
0000
,
1000
0000
0000
0000
,
0001
0000
0000
0000
,
0010
0000
0000
0000
,
0100
0000
0000
0000
,
1000
0000
0000
0000
,
0010
0000
0010
0000
,
0100
0000
0100
0000
,
0010
0000
0010
0000
,
0100
0000
0100
0000
,
0001
0000
0000
0000
,
0001
0000
0000
0000
,
1000
0000
0000
0000
,
1000
0000
0000
0000
,
0001
0000
0001
0000
,
0001
0000
0001
0000
,
1000
0000
1000
0000
,
1000
0000
1000
0000
,
0001
0000
0000
0000
,
0010
0000
0000
0000
,
1000
0000
0000
0000
,
0010
0000
0000
0000
,
0001
0000
0010
0000
,
1000
0000
0010
0000
,
0001
0000
0000
0000
,
1000
0000
0100
0000
,
0001
0000
0000
0000
,
1000
0000
0000
0000
,
0001
0000
0000
0000
,
1000
0000
0001
0000
,
1000
0000
0000
0000
,
0001
0000
0000
0000
,
0100
0000
0000
0000
,
0100
0000
0100
0000
,
0100
0000
0000
0000
,
0010
0000
0000
0000
,
0001
0000
0100
0000
,
0010
0010
0010
0000
,
1000
0000
0001
0000
,
0010
0000
0000
0000
,
0001
0000
1000
0000
,
0100
0000
0000
0000
,
0001
0000
0001
0000
,
0010
0000
0010
0000
,
0100
0000
0100
0000
,
1000
0000
1000
0000
,
0001
0000
0001
0000
,
0010
0000
0010
0000
,
0100
0000
0100
0000
,
1000
0000
1000
0000
,
0001
0000
0001
0000
,
1000
0000
0001
0000
,
1001
0000
0000
0000
;

//---------------dance-single - ----------------
#NOTES:
     dance-single:
     :
     Easy:
     4:
     0.196,0.257,0.032,0.032,0.000:
0000
0000
0000
0000
,
0000
0000
0000
0000
,
0000
0000
0000
0000
,
0000
0000
0000
0000
,
0000
0000
0000
0000
,
0001
0001
0001
0000
,
1000
1000
1000
0000
,
0001
0001
0001
0000
,
1000
1000
1000
0000
,
0010
0000
1000
0000
,
0001
0000
0100
0000
,
1000
0000
0010
0000
,
0001
0000
0100
0000
,
1000
0000
0001
0000
,
1000
0000
0010
0000
,
0001
0000
0100
0000
,
1000
0000
0010
0000
,
0001
1000
0001
0000
,
1000
0001
1000
0000
,
0001
0100
0001
0000
,
1000
0100
1000
0000
,
0001
0001
1000
1000
,
0100
0100
1000
1000
,
0001
0001
0100
0100
,
0001
0001
1000
1001
,
0001
0001
1000
1000
,
0100
0100
1000
1000
,
0001
0100
0001
0100
,
0001
1000
0001
1000
,
0100
0100
0001
0000
,
1000
1000
0010
0000
,
0001
0100
0001
1000
,
0100
0001
1000
0000
,
0010
0010
0001
0100
,
1000
1000
0001
0100
,
1000
1000
0010
0001
,
0100
0100
0001
0001
,
1000
0000
0000
0000
,
0001
0000
1000
0000
,
0001
0000
0000
0000
,
0100
0000
0001
0000
,
1000
0000
0000
0000
,
0001
0000
1000
0000
,
0100
0000
0000
0000
,
1000
0100
0010
0001
,
1001
0000
1000
0000
,
0100
0000
0001
1000
,
0001
0000
0100
0000
,
0010
1000
0100
1001
,
1000
1000
0001
0001
,
0010
0010
1000
1000
,
0001
0001
0001
0001
,
1000
1000
1000
1000
,
1000
0000
0001
0000
,
0010
0000
0100
0000
,
1000
0000
0100
0000
,
0010
0000
1000
0000
,
0001
0000
1000
0000
,
0100
0000
0010
0000
,
0001
0000
0010
0000
,
0100
0000
1000
0000
,
0001
0001
1000
1000
,
0001
2000
0002
3003
,
2002
0000
0000
0000
,
0000
0000
0000
0000
,
3003
0000
0000
0000
;

//---------------dance-single - ----------------
#NOTES:
     dance-single:
     :
     Medium:
     7:
     0.256,0.283,0.095,0.087,0.000:
0000
0000
0000
0000
,
0000
0000
0000
0000
,
0000
0000
0000
0000
,
0000
0000
0000
0000
,
0000
0000
0000
0000
,
0001
0000
1000
0000
0100
0000
0000
0010
,
0000
0001
0000
0100
0000
1000
0000
0000
,
0100
0000
1000
0000
0001
0000
0000
0010
,
0000
1000
0000
0100
0000
0001
0000
0000
,
1001
0000
0000
0000
,
0010
0000
0000
1000
0000
0000
0000
0001
,
0000
0100
0000
0100
,
0000
1000
0001
1000
0000
0010
0000
1000
,
0100
0001
0100
0001
,
1000
0000
0100
0000
1000
0000
0000
0001
,
0000
1000
0010
1000
,
0010
0001
0100
0001
0000
0010
0000
0000
,
2000
0000
3100
0000
0001
0100
0000
1000
,
0000
0100
0000
0001
0000
0000
0010
0000
,
1000
0000
0001
0000
1000
0100
0000
0010
,
0000
0001
0000
0100
0000
0000
1001
0000
,
0100
0100
0000
0001
0000
0010
0000
2000
,
0000
0000
3100
0000
0000
0100
1000
0100
,
1000
0000
0010
0010
0000
0001
0000
0100
,
0000
1000
0000
0001
0000
0010
0100
0000
,
1000
1000
0000
0010
0000
0001
0000
0100
,
0000
0010
1000
0000
0000
0000
0001
0010
,
0000
0000
0001
0100
0000
0010
0000
1000
,
0000
0001
0000
0100
0000
1000
0100
0000
,
0001
0000
0001
0100
0000
0100
0000
2000
,
0000
3000
0001
0000
0000
0000
0001
0010
,
0000
0000
0010
1000
0000
1000
0000
0100
,
0000
0100
0001
1000
,
0010
0000
0010
1000
0000
1000
0000
0100
,
0000
0000
0001
0000
0000
1000
0001
1000
,
0000
0001
0000
0000
0010
0000
0001
0100
,
0000
0010
0000
1000
0000
0100
0010
0000
,
1001
0000
0000
0000
0000
1001
0000
1001
,
0000
0000
2000
0000
,
3000
0000
0000
0000
0000
0010
0000
0200
,
0000
0000
0300
0002
0000
0000
0003
0000
,
1000
0000
0000
0000
0000
1010
0000
0101
,
0000
0000
2000
0000
,
3001
0000
0000
0000
0000
0010
0000
0101
,
0000
0000
2002
3003
,
1000
0000
0001
0000
0000
0110
0000
0110
,
0000
0000
1000
0001
,
0100
1000
0010
0001
,
0100
0010
0100
0010
0100
0000
0010
0000
,
1000
0100
1000
0100
,
0001
0100
0001
1000
,
0100
0001
0100
0001
,
1000
0100
1000
0010
,
0100
0000
0100
0000
0100
0000
0000
0001
,
0000
0001
0000
0001
0000
0000
0000
0000
,
1000
0000
1000
0000
1000
0000
0000
0100
,
0000
0100
0000
0100
0000
0000
0000
0000
,
0010
0000
0010
0000
0010
0000
0000
1000
,
0000
1000
0000
1000
0000
0000
0000
0000
,
0001
0000
0001
0000
0001
0000
0000
0010
,
0000
0010
0000
0010
0000
0000
0000
0000
,
1000
0100
0010
0001
,
1000
0010
0100
0001
,
2002
0000
0000
0000
,
0000
0000
0000
0000
,
3003
0000
0000
0000
;

//---------------dance-single - ----------------
#NOTES:
     dance-single:
     :
     Hard:
     10:
     0.409,0.514,0.285,0.158,0.067:
0000
0000
0000
0000
,
0000
0000
0000
0000
,
0000
0000
0000
0000
,
0000
0000
0000
0000
,
0000
0000
0000
0000
,
0100
0000
1000
0000
0010
0000
0001
0100
,
0000
1000
0001
0100
1000
0010
1000
0000
,
0001
0000
0100
0000
1000
0000
0001
0100
,
0000
0001
1000
0010
1000
0100
0001
1000
,
0002
0100
0100
0103
,
1020
0000
1030
0000
1002
0000
0000
1003
,
0000
0200
0001
0301
,
0010
1000
0001
1000
0000
0001
0000
0100
,
2000
0010
0010
3010
,
0002
0000
0100
0000
0100
0000
0003
2000
,
0000
0010
0010
3010
,
0100
0001
0100
0001
0000
1000
0000
0001
,
1000
0000
0010
0000
0001
0100
0000
1010
,
0000
0101
0000
1001
0000
0010
1000
0001
,
0010
0000
1010
0000
1000
0001
0000
0110
,
0000
1001
0000
0110
0000
1000
0100
0000
,
0001
0001
0000
0100
0000
0001
1000
0010
,
0000
0001
0100
1000
0000
1000
0010
0100
,
0001
0000
0010
1000
0000
0001
0100
0001
,
0000
0100
1000
0100
1000
0010
0100
0000
,
0001
0000
1000
0001
0000
1000
0100
1000
,
0000
0100
0001
1000
0001
1000
0100
0001
,
1000
0000
0010
0010
0000
1000
0000
0001
,
0100
1010
0101
1001
,
0110
0000
1000
0001
0000
0100
0000
2000
,
0000
0001
0000
0001
0000
3001
0100
1000
,
0100
0000
1000
0020
0000
0100
0000
2030
,
0000
0001
0000
0001
0000
3001
0001
0000
,
0100
0000
1000
0200
0000
0001
0000
0302
,
0000
1000
0000
1003
0000
1000
0010
0001
,
0000
0100
0010
0000
1001
0000
1000
0100
,
0000
0010
0000
1000
0000
0001
0100
0000
,
2000
0000
0000
0000
3000
1001
0000
1001
,
0000
0000
0000
0000
0010
0010
0010
0010
,
0020
0030
0000
0000
,
1100
0000
0000
0000
0000
0000
0001
0000
1000
0000
0001
0000
,
2000
0000
0000
0000
3000
1001
0000
1001
,
0000
0010
0010
0000
0001
0100
1000
0100
,
0002
0000
0000
0000
0000
0000
0000
0000
0003
0000
0000
0000
1000
0100
1000
0000
,
0000
0000
0000
0010
0001
0010
1000
0000
1000
0000
1000
0000
,
0001
0001
0100
0100
1000
0010
0000
0110
,
0000
0100
0001
0000
1000
0010
1000
0010
,
1000
0000
1100
0000
1100
0000
0101
0000
0101
0000
1001
0000
,
1000
0000
0000
0000
1000
0000
0000
0000
1000
0000
0000
0000
1000
0000
0000
0000
0000
0000
1000
0000
0000
0000
0000
0000
0001
0000
0000
0000
0000
0000
0001
0000
0000
0000
0000
0000
1000
0000
0000
0001
0000
0000
1000
0000
0000
0001
0000
0000
,
1000
1000
0100
1000
0100
0001
0100
0010
,
1000
0010
1000
0001
0010
1000
0001
0010
,
1000
0001
1000
0100
0001
1000
0100
0001
,
1000
0100
0010
0001
1000
0100
0010
0001
,
0100
0000
0001
0000
1000
0000
0010
0010
,
0000
1000
0000
0001
0000
0100
0100
0000
,
1000
0000
0100
0000
0001
0000
1000
1000
,
0000
0010
0000
0001
0000
0100
0100
0000
,
1010
0000
0011
0000
1010
0000
0010
1000
,
0000
1001
0000
1100
0000
1000
0100
0000
,
0101
0000
1100
0000
0101
0000
1000
0100
,
0000
1001
0000
1010
0000
0001
1000
0001
,
0010
2000
3000
0002
0003
1000
1000
1000
,
0001
0000
1000
0000
0001
0000
1000
0000
0001
1000
0001
1000
0001
0000
0000
0000
,
2002
0000
0000
0000
,
0000
0000
0000
0000
,
3003
0000
0000
0000
;
