#TITLE:溶けないCANDY;
#SUBTITLE:(DDR VERSION);
#ARTIST:ガチャリック スピン;
#TITLETRANSLIT:TOKENAI CANDY;
#SUBTITLETRANSLIT:;
#ARTISTTRANSLIT:Gacharic Spin;
#GENRE:;
#CREDIT:;
#MENUCOLOR:;
#METERTYPE:DDR;
#BANNER:TOKENAI CANDY (DDR VERSION).png;
#BACKGROUND:TOKENAI CANDY (DDR VERSION)-jacket.png;
#LYRICSPATH:;
#CDTITLE:;
#MUSIC:TOKENAI CANDY (DDR VERSION).mp3;
#OFFSET:-1.657;
#SAMPLESTART:52.760;
#SAMPLELENGTH:12.000;
#SELECTABLE:YES;
#LISTSORT:;
#DISPLAYBPM:81.000:162.000;
#BPMS:0.000=162.000,227.000=168.020,229.000=170.440,231.000=162.400,244.000=162.000,280.000=81.000,284.000=162.000;
#STOPS:285.500=0.766
;
#BGCHANGES:;
#ATTACKS:;

//---------------dance-double - ----------------
#NOTES:
     dance-double:
     :
     Hard:
     11:
     0.448,0.485,0.185,0.556,0.004:
00000000
00000000
00000000
00000000
,
00000000
00000000
00000000
00000000
,
00000000
00000000
00000000
00000000
,
00000000
00000000
00000000
00000000
,
00200000
00000000
00301000
00000000
,
00010000
00000000
00000100
00001000
00000000
00001000
00000000
00001000
,
00010000
00100000
00001000
00010000
,
00000100
00000000
00000010
00001000
00000000
00000000
00000000
00000000
,
00000101
00000100
00000100
00000100
,
00010000
00001000
00020000
00000000
00030000
00000000
00001000
00000000
,
00110000
00010000
00010000
00010000
,
10000000
00010000
20000000
00000000
00000000
00000000
31000000
00000000
,
01010000
00000000
00000000
00000000
00011000
00000000
00000000
00001100
,
00000000
00000010
00001000
00000000
00000100
00010000
00001000
00000000
,
00000100
00000000
00010000
00000000
00000100
00000000
00000000
00010000
,
00000000
00001000
00000000
00010000
00001000
00000000
00010000
00000000
,
00100000
00000000
00001000
00000000
00100000
00000000
00000000
10010000
,
00000000
00000000
00000000
00101000
00000000
00000000
00000000
00000000
,
00020000
00000000
00000000
00031000
00000020
00000000
00000000
00000130
,
00000002
00000000
00000000
00000103
00002000
00000000
00000000
00013000
,
00000200
00000000
00000000
00001000
00020300
00000000
00000000
00001000
,
02030000
00000000
00000000
00001000
03020000
00000000
00000000
00000010
,
00032000
00000000
00000000
00000100
00003020
00000000
00000000
00000031
,
00002000
00000000
00000000
00013000
00000200
00000000
00000000
00001000
,
00001300
00001100
00101000
00110000
,
00010000
00001000
00010000
00000000
00010000
00000100
00010000
00001000
,
00200000
00000000
00301000
00010000
,
00001000
00000110
00000001
00001100
,
00010000
00000000
00010000
00000000
00010000
00010000
10000000
02000000
,
00000000
03010000
00100000
00011000
,
00000200
00000000
00000000
00001000
00001300
00000000
00010000
00000000
,
00002000
00000000
00000000
00100000
00103000
00000000
00001000
00000000
,
00020000
00000000
00000000
00030200
00000000
00000000
00002300
00000000
,
00000000
00003020
00000000
00000000
00000032
00000000
00001003
00000000
,
00001001
00000000
00001001
00000000
00000001
00000100
00001000
00000000
,
00000200
00000000
00000000
00000000
00010300
00000000
00001000
00010000
,
00000000
00001000
00100000
00001000
00000000
00000000
00001000
00000000
,
00010000
00000000
00010000
00000000
00100000
00000000
00100000
00002000
,
00000000
00013000
00001000
00000100
,
00000020
00000000
00000000
00000000
00001030
00000000
00010000
00001000
,
00000000
00100000
00001000
00010000
00000000
00000000
10000000
00000000
,
01000000
00000000
00100000
00000000
00010000
00000000
00001000
00100000
,
00000000
00000000
00000100
00010000
00000000
00000000
00001000
00000000
,
00010000
00010000
00010000
00010000
,
00001000
00000100
00002000
00000000
00000000
00000000
00013000
00000000
,
00000100
00000100
00000100
00000100
,
00010000
00001000
00020000
00000000
00000000
00001000
00031000
00000000
,
00220000
00000000
00330000
00000000
00002200
00000000
00000000
00003300
,
00000000
00001000
00010000
00000000
00100000
00000000
00001000
00000000
,
00020000
00000000
00030200
00000000
,
00002300
00000000
00003020
00000000
,
00000032
00000000
00000203
00000000
,
00001300
00000000
00000100
00000000
00000010
00000010
00000020
00000000
,
00001030
00000000
00000000
00000100
00020000
00000000
00032000
00000000
,
00103000
00100000
00220000
00330000
,
00001000
00000000
00000000
00001000
00200000
00000000
00302000
00000000
,
00013000
00010000
00202000
00303000
,
02000000
00000000
03020000
00000000
,
00030100
00000100
00020000
00000000
,
00031000
00000000
00010000
00000000
00001000
00010000
00001000
00000000
,
00100000
00000000
00001000
00000000
00100000
00010000
01000000
00000000
,
10000000
00000000
00100000
00000000
01000000
00000000
00010000
00000100
,
00000000
00000000
00001000
00000100
00000000
00000010
00000000
00000000
,
00000020
00000000
00001000
00001030
,
00000200
00000000
00010000
00010300
,
00002000
00100000
00100000
00103000
,
00020000
00001000
00001000
00031000
,
00200000
00302000
00013000
00010000
,
00002000
00023000
00030100
00000100
,
00001000
00000100
00001000
00000100
00001000
00000100
00001000
00000000
,
00000200
00000000
00000000
00000000
00001000
00000000
00001300
00000000
00000020
00000000
00000000
00000000
00001000
00000000
00000000
00000130
,
00000000
00000001
00001000
00000100
00000010
00000100
00000001
00000000
,
00000100
00000000
00010000
00002000
00000000
00000000
00103000
00000000
,
00010000
00010000
00022000
00033000
,
00200000
00000000
00000000
00301000
00000000
00010000
00001000
00000000
,
00000100
00010000
00001000
00000000
00000000
00011000
00000000
00110000
,
00000000
00010000
00001000
00000200
00000000
00000000
00000300
00000000
;

//---------------dance-single - ----------------
#NOTES:
     dance-single:
     :
     Hard:
     11:
     0.448,0.485,0.169,0.556,0.004: // measure 1
0000
0000
0000
0000
,  // measure 2
0000
0000
0000
0000
,  // measure 3
0000
0000
0000
0000
,  // measure 4
0000
0000
0000
0000
,  // measure 5
0002
0000
0103
0000
,  // measure 6
1000
0000
0010
0100
0000
0100
0000
0100
,  // measure 7
1000
0001
0100
1000
,  // measure 8
0010
0000
0001
0100
0000
0000
0000
0000
,  // measure 9
1000
0001
1000
0000
0010
0000
0010
0000
,  // measure 10
1000
0100
2000
0000
3000
0000
0100
0000
,  // measure 11
0001
1000
0001
0000
0010
0000
0010
0000
,  // measure 12
0100
1000
0200
0000
0000
0000
0310
0000
,  // measure 13
1001
0000
0000
0000
1001
0000
0000
0110
,  // measure 14
0000
0001
0100
0000
0010
1000
0100
0000
,  // measure 15
0010
0000
1000
0000
0010
0000
0000
1000
,  // measure 16
0000
0100
0000
1000
0100
0000
1000
0000
,  // measure 17
0001
0000
0100
0000
0001
0000
0000
1100
,  // measure 18
0000
0000
0000
0101
0000
0000
0000
0000
,  // measure 19
2000
0000
0000
3100
0002
0000
0000
0013
,  // measure 20
2000
0000
0000
3010
0200
0000
0000
1300
,  // measure 21
0020
0000
0000
0100
2030
0000
0000
0100
,  // measure 22
3020
0000
0000
0100
2030
0000
0000
0001
,  // measure 23
3200
0000
0000
0010
0302
0000
0000
1003
,  // measure 24
0200
0000
0000
1300
0020
0000
0000
0100
,  // measure 25
0130
0110
0101
1001
,  // measure 26
1000
0100
1000
0000
1000
0010
1000
0100
,  // measure 27
0002
0000
0103
1000
,  // measure 28
0100
0011
1000
0110
,  // measure 29
1000
0000
1000
0000
1000
1000
0100
0020
,  // measure 30
0000
1030
0001
1100
,  // measure 31
0020
0000
0000
0100
0130
0000
1000
0000
,  // measure 32
0200
0000
0000
0001
0301
0000
0100
0000
,  // measure 33
2000
0000
0000
3020
0000
0000
0230
0000
,  // measure 34
0000
0302
0000
0000
2003
0000
3100
0000
,  // measure 35
1100
0000
1100
0000
1000
0010
0100
0000
,  // measure 36
0020
0000
0000
0000
1030
0000
0100
1000
,  // measure 37
0000
0100
0001
0100
0000
0000
0100
0000
,  // measure 38
1000
0000
1000
0000
0001
0000
0001
0200
,  // measure 39
0000
1300
0100
0010
,  // measure 40
0002
0000
0000
0000
0103
0000
1000
0100
,  // measure 41
0000
0001
0100
1000
0000
0000
0100
0000
,  // measure 42
0010
0000
0001
0000
1000
0000
0100
0001
,  // measure 43
0000
0000
0010
1000
0000
0000
0100
0000
,  // measure 44
1000
1000
1000
1000
,  // measure 45
0100
0010
0200
0000
0000
0000
1300
0000
,  // measure 46
0010
0010
0010
0010
,  // measure 47
1000
0100
2000
0000
0000
0100
3100
0000
,  // measure 48
2002
0000
3003
0000
0220
0000
0000
0330
,  // measure 49
0000
0100
1000
0000
0001
0000
0100
0000
,  // measure 50
2000
0000
3020
0000
,  // measure 51
0230
0000
0302
0000
,  // measure 52
2003
0000
3020
0000
,  // measure 53
0130
0000
0010
0000
0001
0001
0002
0000
,  // measure 54
0103
0000
0000
0010
2000
0000
3200
0000
,  // measure 55
0301
0001
2002
3003
,  // measure 56
0100
0000
0000
0100
0002
0000
0203
0000
,  // measure 57
1300
1000
0202
0303
,  // measure 58
0020
0000
2030
0000
,  // measure 59
3010
0010
2000
0000
,  // measure 60
3100
0000
1000
0000
0100
1000
0100
0000
,  // measure 61
0001
0000
0100
0000
0001
1000
0010
0000
,  // measure 62
0100
0000
0001
0000
0010
0000
1000
0010
,  // measure 63
0000
0000
0100
0010
0000
0001
0000
0000
,  // measure 64
0002
0000
0100
0103
,  // measure 65
0020
0000
1000
1030
,  // measure 66
0200
0001
0001
0301
,  // measure 67
2000
0100
0100
3100
,  // measure 68
0002
0203
1300
1000
,  // measure 69
0200
2300
3010
0010
,  // measure 70
0100
0010
0100
0010
0100
0010
0100
0000
,  // measure 71
0020
0000
0000
0000
0100
0000
0130
0000
0002
0000
0000
0000
0100
0000
0000
0013
,  // measure 72
0000
1000
0100
0010
0001
0010
1000
0000
,  // measure 73
0010
0000
1000
0200
0000
0000
0301
0000
,  // measure 74
1000
1000
2200
3300
,  // measure 75
0002
0000
0000
0103
0000
1000
0100
0000
,  // measure 76
0010
1000
0100
0000
0000
1100
0000
1001
,  // measure 77
0000
1000
0100
0020
0000
0000
0030
0000
;

//---------------dance-double - ----------------
#NOTES:
     dance-double:
     :
     Challenge:
     14:
     0.662,0.744,0.379,0.489,0.114:
00000000
00000000
00000000
00000000
,
00000000
00000000
00000000
00000000
,
00000000
00000000
00000000
00000000
,
00000000
00000000
00000000
00000000
,
02000000
00000000
00000000
00000000
03010000
00000000
00100000
00101000
,
00000000
00010000
00000100
00001000
00000000
00001000
00000100
00001000
,
00000100
00000010
00000100
00000010
00000001
00001000
00000001
00001000
,
00000010
00010000
00000010
00010000
00000000
00000100
00001000
00000100
,
00010000
00010000
00001000
00001000
00010000
00010000
00001000
00001000
,
00100000
00010000
00110000
00000000
00001000
00010000
00011000
00000000
,
00000100
00000100
00000010
00000010
00000100
00000100
00000010
00000010
,
00000001
00001000
00001001
00000000
00000000
00001000
00000100
00010000
,
00022000
00000000
00033000
00100000
00110000
00000000
00010000
00010100
,
00000000
00000100
00001000
00100000
00010000
01000000
00100000
10000000
,
10100000
00000000
01100000
00000000
01010000
00000000
01000000
01100000
,
00000000
01010000
00000000
00100000
00110000
00000000
00011000
00000000
,
00001000
00000000
00001010
00000000
00000101
00000000
00000001
00000011
,
00000000
00000000
00000100
00001100
00000000
00000000
00000000
00010000
,
00000020
00000000
00000000
00000100
00002030
00000000
00000000
00000100
,
00023000
00000000
00000000
00000100
00032000
00000000
00000000
00010000
,
00003020
00000000
00000000
00010000
00000230
00000000
00000000
00001000
,
00200300
00000000
00000000
00001000
00320000
00000000
00000000
00001000
,
00030200
00000000
00000000
00010000
00002300
00000000
00000000
00100000
,
00023000
00000000
00000000
10000000
02030000
00000000
00000000
00100000
,
03010000
00000000
00000000
00010000
00001000
00000000
00000000
00001000
00000010
00000000
00000000
00000010
00000100
00000000
00000000
00000100
,
00010000
00001000
00011000
00000000
00100000
00001000
00010000
00000100
,
00002000
00000000
00103000
00010000
,
00001000
00001000
00010000
00000000
00100000
00100000
00010000
00000000
,
00000200
00000000
00000300
00000000
00002000
00000000
00003000
00000000
00000100
00000010
00000100
00000000
00001000
00000000
00000020
00000000
,
00000000
00000000
00000031
00000000
00000010
00000100
00000010
00001000
,
00001010
00000000
00010000
00000000
00001000
00100000
00010000
00100000
,
00001000
00000000
00101000
00000000
10000000
00100000
00010000
01000000
,
00100000
00000000
01000000
00010000
01000000
00000000
00100000
00000000
00001000
00010000
00001000
00000000
00000010
00000000
00000100
00001000
,
00000100
00000000
00000001
00000000
00000100
00000010
00000100
00000000
00000110
00000000
00000000
00000000
00001100
00000000
00000000
00000000
,
00010100
00000000
00101000
00000000
10000000
10000000
20000000
00000000
,
30200000
00000000
01000000
10300000
00020000
00000000
01000000
02030000
,
00000000
03010000
00000100
00002000
00000000
00003010
00000100
00000001
,
00001000
00001000
00010000
00010000
00000100
00010000
00001000
00100000
,
00000100
00010000
00001000
00010000
00000100
00000100
00001100
00000000
,
00000020
00000000
00000000
00001030
00001100
00000000
00000100
00000020
,
00000000
00001030
00000100
00020000
00000000
00031000
00100000
00001000
,
00010000
00000100
00010000
00000100
00001000
00000010
00000001
00000100
,
00000010
00010000
00000100
00020000
00000000
00031000
00010000
00001000
,
00100000
00100000
00001000
00001000
00010000
00010000
00000100
00000100
,
00010000
00001000
00100000
00000000
00110000
00000000
00011000
00000000
,
00100000
00001000
00010000
00001000
01000000
00010000
00100000
00010000
,
10000000
00100000
01000000
00000000
01000000
00010000
00100000
00001000
,
00020000
00000000
00000000
00030100
00002000
00000000
00003010
00001001
,
00000000
00000010
00000100
00001000
00010000
00000100
00001000
00000020
,
00000000
00010030
00001000
00020000
00000000
00030100
00010000
00002000
,
00000000
00103000
00010000
02000000
00000000
03010000
00100000
00002000
,
00000000
00013000
00000100
00002000
00000000
00003010
00000100
00000002
,
00000200
00000303
00002000
00003000
00000200
00000300
00022000
00033000
,
00000100
00000100
00000000
00010000
00011000
00000000
00100000
00000000
,
10000000
00010000
10000000
00000000
00010000
10000000
00010000
00000000
20000000
00000000
00000000
00000000
30100000
00000000
00000000
00000000
,
01000000
01000000
00000000
01000000
01001000
00000000
00011000
00000000
,
00000100
00000000
00000000
00010000
00000000
00000000
00000100
00000000
00000000
00000000
00000000
00000000
00001000
00000000
00000000
00000010
00000000
00000000
00001000
00000000
00000000
00000000
00000000
00000000
00000001
00000000
00000000
00000000
00000100
00000000
00000000
00000000
00000001
00000000
00000000
00000000
00000100
00000000
00000000
00000000
00000010
00000000
00000000
00000000
00000100
00000000
00000000
00000000
,
00000020
00000000
00001000
00000000
00000130
00000000
00001000
00020000
,
00000000
00032000
00000000
00203000
00000000
00320000
00000000
00130000
,
00001000
00010000
00001000
00010000
00000100
00001000
00000010
00001000
,
00000100
00010000
00000100
00010000
00001000
00010000
00001000
00100000
,
00020000
00000000
10030000
00000000
01000000
00000000
01000000
02020000
,
00000000
03030000
00001000
00022000
00000000
00033000
00000100
00000000
,
00010000
00010000
00010000
00010000
,
00000100
00000100
00000100
00000100
,
00001000
00001000
00001000
00001000
,
01000000
01000000
01000000
01000000
,
00100000
00010000
00100000
00010000
00100000
00010000
00100000
00010000
,
00000100
00000010
00000100
00000010
00000100
00000010
00000100
00000010
,
00000001
00001000
00000001
00000000
00000010
00001000
00000010
00000000
00000100
00001000
00000100
00000000
00010000
00000100
00010000
00000000
,
00002000
00000000
00000000
00000000
00010000
00010000
00013000
00000000
00220000
00000000
00000000
00330000
00011000
00000000
00001000
00011000
,
00000000
00100000
00001000
00011000
00000100
00010000
00001000
00100000
,
00010000
01000000
00100000
10000000
01000000
00010000
00100000
00001000
,
00010000
00000000
00000100
00000000
00001100
00000000
00000000
00000000
00000001
00000100
00000001
00000100
00000001
00000000
00000000
00000000
,
00001010
00000000
00010000
00011000
00000000
00001000
00100000
00010000
,
00000100
00001000
00100000
01000000
00000000
10010000
00000000
01010000
,
00000000
00000000
00100000
00001000
00100000
00002000
00020000
00000000
00000000
00000000
00000000
00000000
00033000
00000000
00000000
00000000
;

//---------------dance-single - ----------------
#NOTES:
     dance-single:
     :
     Challenge:
     14:
     0.662,0.744,0.379,0.489,0.114:
0000
0000
0000
0000
,
0000
0000
0000
0000
,
0000
0000
0000
0000
,
0000
0000
0000
0000
,
0002
0000
0000
0000
1003
0000
0100
0110
,
0000
1000
0001
0010
0000
0010
0001
0010
,
0001
0100
0001
0100
1000
0010
1000
0010
,
0100
1000
0100
1000
0000
0001
0010
0001
,
1000
1000
0010
0010
1000
1000
0010
0010
,
0100
1000
1100
0000
0010
1000
1010
0000
,
0001
0001
0100
0100
0001
0001
0100
0100
,
1000
0010
1010
0000
0000
0010
0001
1000
,
2002
0000
3003
0100
1100
0000
1000
1001
,
0000
0001
0010
0100
1000
0001
0100
0010
,
0110
0000
1001
0000
1001
0000
0001
0101
,
0000
1001
0000
0100
1100
0000
1010
0000
,
0010
0000
0110
0000
1001
0000
1000
1100
,
0000
0000
0001
0011
0000
0000
0000
1000
,
0200
0000
0000
0001
0320
0000
0000
0001
,
2030
0000
0000
0001
3020
0000
0000
1000
,
0230
0000
0000
1000
0302
0000
0000
0010
,
0203
0000
0000
0010
2300
0000
0000
0010
,
3002
0000
0000
1000
0023
0000
0000
0100
,
2030
0000
0000
0010
3002
0000
0000
0100
,
1003
0000
0000
1000
0010
0000
0000
0010
0100
0000
0000
0100
0001
0000
0000
0001
,
1000
0010
1010
0000
0100
0010
1000
0001
,
0020
0000
0130
1000
,
0010
0010
1000
0000
0100
0100
1000
0000
,
0002
0000
0003
0000
0020
0000
0030
0000
0001
0100
0001
0000
0010
0000
0200
0000
,
0000
0000
1300
0000
0100
0001
0100
0010
,
0110
0000
1000
0000
0010
0100
1000
0100
,
0010
0000
0110
0000
0010
0100
1000
0001
,
0100
0000
0001
1000
0001
0000
0100
0000
0010
1000
0010
0000
0100
0000
0001
0010
,
0001
0000
1000
0000
0001
0100
0001
0000
0101
0000
0000
0000
0011
0000
0000
0000
,
1001
0000
0110
0000
0010
0010
0020
0000
,
0230
0000
0001
0310
2000
0000
0001
3002
,
0000
1003
0100
0020
0000
0130
0001
1000
,
0010
0010
1000
1000
0001
1000
0010
0100
,
0001
1000
0010
1000
0001
0001
0011
0000
,
0020
0000
0000
0031
1001
0000
1000
0020
,
0000
0031
1000
0200
0000
0301
0010
0001
,
0100
1000
0100
1000
0001
0010
0100
1000
,
0010
0100
1000
0200
0000
0301
0100
0001
,
0010
0010
0001
0001
0100
0100
1000
1000
,
0100
0001
0010
0000
0110
0000
0101
0000
,
0010
0001
0100
0010
0001
1000
0100
1000
,
0010
0100
0001
0000
0100
0010
1000
0001
,
0020
0000
0000
0130
0002
0000
1003
0011
,
0000
1000
0100
0001
0010
0100
0001
2000
,
0000
3010
0001
0020
0000
0130
0010
0002
,
0000
1003
0010
0200
0000
0310
1000
0002
,
0000
0013
0100
0002
0000
1003
0100
0020
,
0200
0330
0002
0003
0200
0300
0022
0033
,
0100
0100
0000
0010
0011
0000
1000
0000
,
0001
0010
0001
0000
0010
0001
0010
0000
0002
0000
0000
0000
1003
0000
0000
0000
,
0100
0100
0000
0100
0101
0000
0011
0000
,
0001
0000
0000
1000
0000
0000
0001
0000
0000
0000
0000
0000
0010
0000
0000
0100
0000
0000
0010
0000
0000
0000
0000
0000
1000
0000
0000
0000
0001
0000
0000
0000
1000
0000
0000
0000
0001
0000
0000
0000
0100
0000
0000
0000
0001
0000
0000
0000
,
0200
0000
0010
0000
0301
0000
0010
2000
,
0000
3020
0000
0230
0000
2300
0000
3100
,
0010
1000
0010
1000
0001
0010
0100
0010
,
0001
1000
0001
1000
0010
1000
0010
0100
,
2000
0000
3010
0000
0001
0000
0001
2002
,
0000
3003
0010
2020
0000
3030
0001
0000
,
1000
1000
1000
1000
,
0001
0001
0001
0001
,
0010
0010
0010
0010
,
0001
0001
0001
0001
,
0100
1000
0100
1000
0100
1000
0100
1000
,
0001
0100
0001
0100
0001
0100
0001
0100
,
1000
0010
1000
0000
0100
0010
0100
0000
0001
0010
0001
0000
0010
0100
0010
0000
,
0002
0000
0000
0000
0010
0010
0013
0000
2020
0000
0000
3030
0011
0000
0001
0011
,
0000
1000
0001
0011
0100
0010
0001
1000
,
0010
0100
1000
0001
0100
0010
1000
0001
,
0010
0000
0100
0000
0101
0000
0000
0000
0010
0100
0010
0100
0010
0000
0000
0000
,
1001
0000
0010
0011
0000
0001
1000
0010
,
0100
0001
1000
0100
0000
0011
0000
0110
,
0000
0000
1000
0001
1000
0002
2000
0000
0000
0000
0000
0000
3003
0000
0000
0000
;

//---------------dance-double - ----------------
#NOTES:
     dance-double:
     :
     Medium:
     7:
     0.325,0.388,0.059,0.270,0.000:
00000000
00000000
00000000
00000000
,
00000000
00000000
00000000
00000000
,
00000000
00000000
00000000
00000000
,
00000000
00000000
00000000
00000000
,
00000200
00000000
00000000
00000000
00010300
00000000
00000000
00100000
,
00000000
00010000
00000000
00010000
00000000
00000000
00100000
00000000
,
00001000
00000000
00010000
00000000
00001000
00000000
00000200
00010000
,
00000000
00000000
00000300
00000000
,
00000010
00000010
00000100
00000100
,
00000001
00000001
00000000
00100000
,
00001000
00001000
00010000
00010000
,
00000100
00000100
00000000
00100000
,
00002000
00000000
00000000
00000000
00013000
00000000
00000000
00011000
,
00000000
00000000
00000000
00100000
00000000
00000000
00000000
00000000
,
10000000
00000000
00010000
00000000
10000000
00000000
00000000
01000000
,
00000000
00100000
00000000
01000000
00010000
00000000
01000000
00000000
,
00010000
00000000
00001000
00000000
00010000
00000000
00000000
00000100
,
00000000
00000000
00000010
00000100
00000000
00000000
00000000
00000000
,
00000002
00000000
00000000
00000003
00002000
00000000
00000000
00003000
,
00000020
00000000
00000000
00000030
00000200
00000000
00000000
00000300
,
00020000
00000000
00000000
00030000
00002000
00000000
00000000
00003000
,
00200000
00000000
00000000
00300000
00020000
00000000
00000000
00030000
,
00000200
00000000
00000000
00000300
00002000
00000000
00000000
00003000
,
00200000
00000000
00000000
00300000
00002000
00000000
00000000
00003000
,
00010000
00000100
00010000
00001000
,
00100000
00001000
00100000
00000000
00001000
00000000
00010000
00000000
,
00022000
00000000
00000000
00033000
00000100
00000000
00010000
00000000
,
00001000
00100000
00010000
01000000
,
00100000
00000000
00100000
00000000
00100000
00000000
01000000
00100000
,
00000000
00000000
00001000
00010000
,
00001000
00000000
00000100
00000100
,
00000001
00000000
00000010
00001000
,
00000100
00000000
00000000
00010000
00000000
00000000
00001000
00000000
,
00000000
00100000
00000000
00000000
10000000
00000000
10010000
00000000
,
01000000
01000000
00000000
00000000
,
00200000
00000000
00000000
00000000
00301000
00000000
00000000
00010000
,
00000000
00001000
00000000
00010000
00000000
00000000
00000100
00000000
,
00000010
00000100
00000010
00001000
,
00000001
00001000
00000001
00001000
,
00000200
00000000
00000000
00000000
00010300
00000000
00000000
00001000
,
00000000
00100000
00000000
00001000
00000000
00000000
00100000
00000000
,
01000000
01000000
00010000
00010000
,
10000000
20000000
00000000
30100000
,
01000000
01000000
00010000
00010000
,
00000100
00001000
00000100
00000000
00000000
00000000
00000000
00000000
,
00000100
00000100
00010000
00010000
,
01000000
00100000
01000000
00000000
00000000
00000000
10010000
00000000
,
01000000
00000000
00000000
00000000
00010000
00000000
00000000
00001000
,
00000000
00001000
00000000
00000100
00000000
00000010
00000100
00000000
,
00000002
00000000
00000000
00000000
,
00002003
00000000
00000000
00000000
,
00003200
00000000
00000000
00000000
,
00000310
00000010
00000010
00000000
,
00010000
00000000
00000000
00001000
00010000
00000000
00001000
00000000
,
00100000
00000000
00000000
00100000
00010000
00000000
01000000
00000000
,
00100000
00000000
00000000
10000000
00100000
00000000
01000000
00000000
,
00020000
00000000
00002000
00000000
,
00033000
00000000
00000100
00000000
00000000
00000000
00000100
00010000
,
00000000
00010000
00000000
00001000
00000000
00000000
00100000
00000000
,
00010000
00000100
00001000
00000010
,
00000100
00000001
00001001
00001001
,
00000010
00000000
00000100
00000000
00001000
00000000
00000000
00010000
,
00000000
00000000
00100000
00010000
00000000
00000000
00010000
00000000
,
00001000
00000000
00000100
00000000
,
00001000
00000000
00100000
00000000
,
00001000
00000100
00001000
00010000
,
00001000
00000100
00001000
00010000
,
00100000
00100000
00100000
00100000
,
00001000
00001000
00001000
00001000
,
00000100
00000100
00000100
00000100
00000100
00000100
00000100
00000000
,
00000020
00000000
00002030
00003200
,
00000300
00000000
00000000
00000010
00000000
00000000
00001000
00000000
,
00010000
00001000
00010000
00001000
,
00000000
00100000
02200000
00000000
,
03300000
00000000
00000000
10000000
00000000
00010000
10000000
00000000
,
00010000
10000000
00010000
00000000
00000000
00000100
00000000
00000100
,
00000000
00010000
00002000
00020000
00000000
00000000
00033000
00000000
;

//---------------dance-single - ----------------
#NOTES:
     dance-single:
     :
     Medium:
     7:
     0.325,0.388,0.059,0.270,0.000:
0000
0000
0000
0000
,
0000
0000
0000
0000
,
0000
0000
0000
0000
,
0000
0000
0000
0000
,
2000
0000
0000
0000
3001
0000
0000
0100
,
0000
0001
0000
0001
0000
0000
0100
0000
,
0010
0000
0001
0000
0010
0000
2000
0001
,
0000
0000
3000
0000
,
0100
0100
1000
1000
,
0001
0001
0000
0100
,
0010
0010
0001
0001
,
0100
0100
0000
0010
,
0002
0000
0000
0000
1003
0000
0000
1001
,
0000
0000
0000
0010
0000
0000
0000
0000
,
0001
0000
1000
0000
0001
0000
0000
0100
,
0000
0010
0000
0100
1000
0000
0100
0000
,
1000
0000
0001
0000
1000
0000
0000
0100
,
0000
0000
0010
0100
0000
0000
0000
0000
,
0002
0000
0000
0003
0020
0000
0000
0030
,
0200
0000
0000
0300
2000
0000
0000
3000
,
0002
0000
0000
0003
0020
0000
0000
0030
,
0200
0000
0000
0300
0002
0000
0000
0003
,
2000
0000
0000
3000
0020
0000
0000
0030
,
0200
0000
0000
0300
0020
0000
0000
0030
,
0001
1000
0001
0010
,
0100
0010
0100
0000
0010
0000
0001
0000
,
2002
0000
0000
3003
0100
0000
1000
0000
,
0001
0010
1000
0100
,
0010
0000
0010
0000
0010
0000
0100
0010
,
0000
0000
0001
1000
,
0001
0000
0100
0100
,
1000
0000
0010
0010
,
1000
0000
0000
0001
0000
0000
0010
0000
,
0000
0100
0000
0000
0010
0000
1001
0000
,
0100
0100
0000
0000
,
0200
0000
0000
0000
0310
0000
0000
0001
,
0000
0010
0000
0001
0000
0000
1000
0000
,
0100
1000
0100
0010
,
0001
0010
0001
0010
,
2000
0000
0000
0000
3001
0000
0000
0010
,
0000
0100
0000
0010
0000
0000
0100
0000
,
1000
1000
0001
0001
,
0010
0020
0000
0130
,
1000
1000
0001
0001
,
1000
0010
1000
0000
0000
0000
0000
0000
,
1000
1000
0001
0001
,
1000
0100
1000
0000
0000
0000
0011
0000
,
1000
0000
0000
0000
0001
0000
0000
0010
,
0000
0010
0000
1000
0000
0100
1000
0000
,
0002
0000
0000
0000
,
0023
0000
0000
0000
,
2030
0000
0000
0000
,
3100
0100
0100
0000
,
0001
0000
0000
0010
0001
0000
0010
0000
,
0100
0000
0000
0100
0001
0000
1000
0000
,
0100
0000
0000
0010
0100
0000
1000
0000
,
0002
0000
2000
0000
,
3003
0000
1000
0000
0000
0000
1000
0001
,
0000
0001
0000
0010
0000
0000
0100
0000
,
0001
1000
0010
0100
,
1000
0001
1001
1001
,
0100
0000
1000
0000
0010
0000
0000
0001
,
0000
0000
0100
0001
0000
0000
0001
0000
,
0010
0000
1000
0000
,
0010
0000
0100
0000
,
0010
1000
0010
0001
,
0010
1000
0010
0001
,
0100
0100
0100
0100
,
0010
0010
0010
0010
,
1000
1000
1000
1000
1000
1000
1000
0000
,
0200
0000
0320
2030
,
3000
0000
0000
0100
0000
0000
0010
0000
,
0001
0010
0001
0010
,
0000
1000
2002
0000
,
3003
0000
0000
0010
0000
0001
0010
0000
,
0001
0010
0001
0000
0000
1000
0000
1000
,
0000
0001
2000
0002
0000
0000
3003
0000
;

//---------------dance-double - ----------------
#NOTES:
     dance-double:
     :
     Easy:
     4:
     0.220,0.291,0.017,0.312,0.000:
00000000
00000000
00000000
00000000
,
00000000
00000000
00000000
00000000
,
00000000
00000000
00000000
00000000
,
00000000
00000000
00000000
00000000
,
02000000
00000000
03010000
00000000
,
00100000
00100000
00100000
00000000
,
10000000
10000000
00010000
00010000
,
02000000
00000000
03000000
00000000
,
00010000
00010000
00001000
00001000
,
00010000
00010000
00000000
00000000
,
00000100
00000100
00001000
00001000
,
00000100
00000100
00000000
00000000
,
00000002
00000000
00000003
00000000
,
00001000
00000000
00010000
00000000
,
00000200
00000000
00000300
00000000
,
00002000
00000000
00003000
00000000
,
00020000
00000000
00030000
00000000
,
00100000
00000000
00100000
00000000
,
00002000
00000000
00003000
00000000
,
00020000
00000000
00030000
00000000
,
00002000
00000000
00003000
00000000
,
00200000
00000000
00300000
00000000
,
02000000
00000000
03000000
00000000
,
20000000
00000000
30000000
00000000
,
00010000
00010000
00001000
00001000
,
00011000
00000000
00000100
00000100
,
00000020
00000000
00000030
00000000
,
00000001
00000001
00001000
00001000
,
00000010
00000100
00000010
00000100
,
00000002
00000000
00000003
00000000
,
00020000
00000000
00030000
00000000
,
00000200
00000000
00000300
00000000
,
00010000
00000000
00100000
00000000
,
00001000
00000000
00010000
00000000
,
00001000
00001000
00000000
00000000
,
00020000
00000000
00030000
00000000
,
00001000
00000100
00001000
00000000
,
00000001
00000100
00000001
00000000
,
00001000
00000100
00001000
00000000
,
00020000
00000000
00031000
00000000
,
00100000
00010000
00100000
00000000
,
10000000
00100000
10000000
00000000
,
00100000
00010000
00100000
00000000
,
01000000
01000000
01000000
01000000
,
02000000
00000000
03000000
00000000
,
00001000
00001000
00001000
00001000
,
00002000
00000000
00003000
00000000
,
00010000
00000000
00000100
00000000
,
00001000
00000000
00000000
00000000
,
00020000
00000000
00000000
00000000
,
00000000
00000000
00000000
00000000
,
00000000
00000000
00000000
00000000
,
00031000
00001000
00001000
00000000
,
00200000
00000000
00000000
00300000
,
00000200
00000000
00000300
00000010
,
00002000
00000000
00000000
00003000
,
00020000
00000000
00002000
00033000
,
00000010
00000000
00000100
00000000
,
00000001
00000000
00001000
00000000
,
00000010
00000010
00001000
00001000
,
00000100
00000100
00010000
00010000
,
02000000
00000000
03200000
00000000
,
00320000
00000000
00000000
00030000
,
20000000
00000000
00000000
00000000
,
30200000
00000000
00000000
00000000
,
00302000
00000000
00000000
00000000
,
00003200
00000000
00000000
00000000
,
00000310
00000010
00000010
00000010
,
00000010
00000010
00000010
00000010
,
00000020
00000000
00000000
00000000
,
00000030
00000000
00000000
00000000
,
00000000
00000000
00001000
00000000
,
00000001
00000000
00001000
00000000
,
00000010
00000000
00001000
00000000
,
00100000
00000000
00020000
00000000
,
00030000
00000000
00000000
00000000
00000000
00100000
00000000
00001000
,
00000000
00010000
00000000
00022000
00000000
00000000
00033000
00000000
;

//---------------dance-single - ----------------
#NOTES:
     dance-single:
     :
     Easy:
     4:
     0.220,0.291,0.025,0.329,0.000:
0000
0000
0000
0000
,
0000
0000
0000
0000
,
0000
0000
0000
0000
,
0000
0000
0000
0000
,
0020
0000
1030
0000
,
0001
0001
0001
0000
,
0100
0100
1000
1000
,
0020
0000
0030
0000
,
1000
1000
0100
0100
,
1000
1000
0000
0000
,
0010
0010
0100
0100
,
0010
0010
0000
0000
,
2000
0000
3000
0000
,
0100
0000
1000
0000
,
0020
0000
0030
0000
,
0200
0000
0300
0000
,
2000
0000
3000
0000
,
0001
0000
0001
0000
,
0200
0000
0300
0000
,
2000
0000
3000
0000
,
0200
0000
0300
0000
,
0002
0000
0003
0000
,
0020
0000
0030
0000
,
0200
0000
0300
0000
,
1000
0000
0020
0030
,
1001
0000
0010
0000
,
2002
0000
3003
0000
,
1000
1000
0100
0100
,
0001
0010
0001
0010
,
2000
0000
3000
0000
,
0200
0000
0300
0000
,
0002
0000
0003
0000
,
0100
0000
1000
0000
,
0010
0000
0100
0000
,
0010
0010
0000
0000
,
0200
0000
0300
0000
,
0010
0001
0010
0000
,
0100
0001
0100
0000
,
0010
0001
0010
0000
,
0200
0000
0310
0000
,
1000
0100
1000
0000
,
0010
1000
0010
0000
,
0010
0100
0010
0000
,
0010
0010
0010
0010
,
0020
0000
0030
0000
,
0100
0100
0100
0100
,
0200
0000
0300
0000
,
1000
0000
0010
0000
,
0100
0000
0000
0000
,
2000
0000
0000
0000
,
0000
0000
0000
0000
,
0000
0000
0000
0000
,
3100
0100
0100
0000
,
0002
0000
0000
0003
,
0020
0000
0030
0001
,
0200
0000
0000
0300
,
2000
0000
0200
3300
,
0001
0000
0010
0000
,
1000
0000
0100
0000
,
0001
0001
0100
0100
,
0010
0010
1000
1000
,
0020
0000
0032
0000
,
2003
0000
0000
3000
,
0200
0000
0000
0000
,
0302
0000
0000
0000
,
0203
0000
0000
0000
,
0320
0000
0000
0000
,
0031
0001
0001
0001
,
0001
0001
0001
0001
,
0002
0000
0000
0000
,
0003
0000
0000
0000
,
0000
0000
0100
0000
,
1000
0000
0100
0000
,
0001
0000
0100
0000
,
0001
0000
2000
0000
,
3000
0000
0000
0000
0000
0100
0000
1000
,
0000
0001
0000
2002
0000
0000
3003
0000
;

//---------------dance-single - ----------------
#NOTES:
     dance-single:
     :
     Beginner:
     2:
     0.118,0.192,0.000,0.000,0.000:
0000
0000
0000
0000
,
0000
0000
0000
0000
,
0000
0000
0000
0000
,
0000
0000
0000
0000
,
0010
0000
0010
0000
,
0010
0000
0010
0000
,
0001
0000
0001
0000
,
1000
0000
0000
0000
,
0010
0000
0010
0000
,
0100
0000
0000
0000
,
0100
0000
0100
0000
,
0010
0000
0000
0000
,
0001
0000
0001
0000
,
0001
0000
0000
0000
,
1000
0000
1000
0000
,
1000
0000
1000
0000
,
0001
0000
0001
0000
,
0000
0000
0000
0000
,
0010
0000
0000
0000
,
0100
0000
0000
0000
,
0010
0000
0000
0000
,
0100
0000
0000
0000
,
0001
0000
0000
0000
,
1000
0000
0000
0000
,
0001
0000
0001
0000
,
0001
0000
0000
0000
,
0100
0000
0000
0000
,
0010
0000
0000
0000
,
0100
0000
0000
0000
,
0010
0000
0000
0000
,
1000
0000
1000
0000
,
1000
0000
0000
0000
,
0001
0000
0001
0000
,
0001
0000
0001
0000
,
0000
0000
0100
0000
,
0100
0000
0000
0000
,
0010
0000
0000
0000
,
1000
0000
1000
0000
,
1000
0000
0000
0000
,
0010
0000
0000
0000
,
0100
0000
0000
0000
,
0001
0000
0001
0000
,
0001
0000
0000
0000
,
1000
0000
1000
0000
,
1000
1000
1000
0000
,
0001
0000
0001
0000
,
0001
0001
0001
0000
,
0010
0000
0100
0000
,
0010
0000
0000
0000
,
1000
0000
0000
0000
,
0000
0000
0000
0000
,
0001
0000
0001
0000
,
0001
0000
0000
0000
,
0100
0000
0100
0000
,
0100
0000
0000
0000
,
0010
0000
0010
0000
,
0010
0000
0000
0000
,
0100
0000
0000
0000
,
0010
0000
0000
0000
,
0100
0000
0000
0000
,
0010
0000
0000
0000
,
1000
0000
0000
0000
,
0001
0000
0000
0000
,
1000
0000
0000
0000
,
0000
0000
0000
0000
,
0010
0000
0000
0000
,
0000
0000
0000
0000
,
0100
0000
0100
0000
,
0100
0000
0100
0000
,
0100
0100
0100
0000
,
0000
0000
0010
0000
,
0000
0000
0000
0000
,
0001
0000
0000
0000
,
1000
0000
0000
0000
,
0001
0000
0001
0000
,
0000
0000
1000
0000
,
0001
0000
0000
0000
;
